osu file format v14

[General]
AudioFilename: audio.mp3
AudioLeadIn: 0
PreviewTime: 51231
Countdown: 0
SampleSet: Soft
StackLeniency: 0.5
Mode: 0
LetterboxInBreaks: 0
WidescreenStoryboard: 0

[Editor]
DistanceSpacing: 1
BeatDivisor: 4
GridSize: 4
TimelineZoom: 1

[Metadata]
Title:My Sweet Maiden (TV Size)
TitleUnicode:My Sweet Maiden (TV Size)
Artist:Mia REGINA
ArtistUnicode:Mia REGINA
Creator:emu1337
Version:Gentle Whisper
Source:sin 七つの大罪
Tags:Seven Mortal Sins Nanatsu no Taizai
BeatmapID:2194239
BeatmapSetID:1049904

[Difficulty]
HPDrainRate:5
CircleSize:4
OverallDifficulty:9.6
ApproachRate:9.8
SliderMultiplier:2
SliderTickRate:1

[Events]
//Background and Video events
0,0,"kek.jpg",0,0
//Break Periods
//Storyboard Layer 0 (Background)
//Storyboard Layer 1 (Fail)
//Storyboard Layer 2 (Pass)
//Storyboard Layer 3 (Foreground)
//Storyboard Layer 4 (Overlay)
//Storyboard Sound Samples

[TimingPoints]
155,281.69014084507,4,2,1,60,1,0
717,294.117647058824,4,2,1,60,1,0
717,-333.333333333333,4,2,1,60,0,0
1599,-142.857142857143,4,2,1,60,0,0
2481,-333.333333333333,4,2,1,60,0,0
3069,-142.857142857143,4,2,1,60,0,0
3658,-1000,4,2,1,60,0,0
4246,-142.857142857143,4,2,1,60,0,0
4834,-100,4,2,1,60,0,0
5422,-86.9565217391304,4,2,1,60,0,0
7775,-80,4,2,1,60,0,0
8952,-74.0740740740741,4,2,1,60,0,0
10128,-142.857142857143,4,2,1,60,0,0
15864,-100,4,2,1,60,0,0
17187,-142.857142857143,4,2,1,60,0,0
23364,-125,4,2,1,60,0,0
23658,-100,4,2,1,60,0,0
23952,-76.923076923077,4,2,1,60,0,0
24246,-333.333333333333,4,2,1,60,0,0
26305,-142.857142857143,4,2,1,60,0,0
26599,-125,4,2,1,60,0,0
26893,-111.111111111111,4,2,1,60,0,0
27187,-100,4,2,1,60,0,0
27481,-90.9090909090909,4,2,1,60,0,0
27775,-83.3333333333333,4,2,1,60,0,0
28658,-142.857142857143,4,2,1,60,0,0
28952,-125,4,2,1,60,0,0
29246,-111.111111111111,4,2,1,60,0,0
29540,-99.9999999999999,4,2,1,60,0,0
29834,-90.9090909090909,4,2,1,60,0,0
30717,-100,4,2,1,60,0,0
37775,-153.846153846154,4,2,1,60,0,0
42481,-100,4,2,1,60,0,0
47187,-200,4,2,1,60,0,0
49540,-100,4,2,1,60,0,0
51305,-166.666666666667,4,2,1,60,0,0
51599,-111.111111111111,4,2,1,60,0,0
51893,-76.9230769230769,4,2,1,60,0,0
56599,-62.5,4,2,1,60,0,0
56893,-76.9230769230769,4,2,1,60,0,0
57775,-62.5,4,2,1,60,0,0
58069,-76.9230769230769,4,2,1,60,0,0
64834,-142.857142857143,4,2,1,60,0,0
65128,-100,4,2,1,60,0,0
66011,-100,4,2,1,60,0,0
66305,-76.9230769230769,4,2,1,60,0,0
70717,-100,4,2,1,60,0,0
75422,-76.9230769230769,4,2,1,60,0,0
77775,-66.6666666666667,4,2,1,60,0,0
78217,-58.8235294117647,4,2,1,60,0,0
78658,-52.6315789473684,4,2,1,60,0,0
79246,-76.9230769230769,4,2,1,60,0,0
87187,-142.857142857143,4,2,1,60,0,0

[Colours]
Combo1 : 239,99,102
Combo2 : 237,101,175
Combo3 : 248,235,80
Combo4 : 233,145,86

[HitObjects]
65,67,155,5,0,0:0:0:0:
81,66,248,1,0,0:0:0:0:
110,75,342,1,0,0:0:0:0:
140,108,436,1,0,0:0:0:0:
189,154,530,1,0,0:0:0:0:
265,152,624,1,0,0:0:0:0:
334,102,717,6,0,B|354:132|344:187|344:187|365:177|369:165,1,119.999996337891
411,319,1599,6,0,P|390:292|384:234,1,69.9999978637696
238,207,1893,2,0,B|220:211|207:222|207:222|241:225|297:260|297:260|298:295|324:336,1,209.999993591309
415,164,2481,6,0,P|382:212|392:286,1,104.999996795654
276,145,3069,6,0,L|431:166,1,139.999995727539
217,79,3658,6,0,L|188:75,1,30
83,153,4246,6,0,B|59:169|24:172|24:172|121:173|200:230,1,244.999992523194
357,254,4834,6,0,B|392:271|442:282|442:282|261:277|190:328,1,350
111,384,5422,6,0,B|239:239|245:48|245:48|211:83|209:130,1,460.000008773804
465,333,6207,5,0,0:0:0:0:
488,350,6305,1,0,0:0:0:0:
498,310,6403,1,0,0:0:0:0:
483,246,6501,1,0,0:0:0:0:
438,187,6599,6,0,B|407:211|406:242|406:242|297:209|192:265|192:265|216:241|218:184,1,345.000006580353
38,62,7187,2,0,B|69:86|70:117|70:117|179:84|284:140|284:140|260:116|258:59,1,345.000006580353
200,10,7775,6,0,B|142:212|228:384|228:384|273:325|274:258|274:258|150:246|91:278|60:311|60:311|58:343|74:373|74:373|104:370|138:342|138:342,1,875
356,221,8952,6,0,B|507:243|507:243|496:337|367:367|367:367|440:258|485:54|485:54|454:38|410:40|410:40|401:93|379:145|379:145|381:108|346:73,1,945.000003604889
67,140,10128,6,0,L|226:161,1,139.999995727539
151,58,10569,1,0,0:0:0:0:
128,239,10717,1,0,0:0:0:0:
202,299,10864,1,0,0:0:0:0:
424,253,11011,6,0,P|449:277|467:332,1,69.9999978637696
465,169,11305,2,0,P|479:138|505:114,1,69.9999978637696
373,358,11599,1,0,0:0:0:0:
299,298,11746,1,0,0:0:0:0:
68,310,11893,6,0,L|0:298,1,69.9999978637696
226,146,12187,1,0,0:0:0:0:
216,243,12334,2,0,L|142:256,1,69.9999978637696
23,21,12628,1,0,0:0:0:0:
67,214,12775,2,0,L|94:61,1,139.999995727539
65,112,13364,6,0,L|52:187,1,69.9999978637696
460,66,13658,6,0,B|441:36|441:36|426:146,1,139.999995727539
495,209,14099,1,0,0:0:0:0:
347,67,14246,1,0,0:0:0:0:
261,95,14393,1,0,0:0:0:0:
180,254,14540,6,0,P|163:225|158:166,1,69.9999978637696
255,316,14834,2,0,P|255:349|230:403,1,69.9999978637696
11,311,15128,1,0,0:0:0:0:
92,339,15275,1,0,0:0:0:0:
365,250,15422,6,0,L|462:241,1,69.9999978637696
270,152,15717,1,0,0:0:0:0:
349,261,15864,2,0,L|471:227,1,100
178,225,16158,1,0,0:0:0:0:
339,360,16305,6,0,L|350:242,1,100
494,87,16599,2,0,L|404:133,1,100
128,102,16893,1,0,0:0:0:0:
163,114,16966,1,0,0:0:0:0:
198,126,17040,1,0,0:0:0:0:
234,138,17113,1,0,0:0:0:0:
269,151,17187,6,0,L|263:7,1,139.999995727539
354,72,17628,1,0,0:0:0:0:
171,22,17775,1,0,0:0:0:0:
128,102,17922,1,0,0:0:0:0:
202,260,18069,6,0,P|208:299|198:347,1,69.9999978637696
293,174,18364,2,0,P|287:213|297:261,1,69.9999978637696
111,366,18658,1,0,0:0:0:0:
33,323,18805,1,0,0:0:0:0:
337,355,18952,6,0,L|423:360,1,69.9999978637696
439,148,19246,1,0,0:0:0:0:
417,230,19393,2,0,L|455:306,1,69.9999978637696
509,98,19687,1,0,0:0:0:0:
509,98,19761,1,0,0:0:0:0:
509,98,19834,6,0,B|488:66|488:66|475:9,1,69.9999978637696
330,259,20128,2,0,B|327:220|327:220|345:164,1,69.9999978637696
106,363,20422,1,0,0:0:0:0:
137,348,20495,1,0,0:0:0:0:
171,342,20569,1,0,0:0:0:0:
206,346,20642,1,0,0:0:0:0:
239,360,20717,6,0,L|233:217,1,139.999995727539
0,0,21305,6,0,L|2:69,1,69.9999978637696
199,80,21599,2,0,P|161:84|121:110,1,69.9999978637696
342,136,21893,1,0,0:0:0:0:
356,128,22040,1,0,0:0:0:0:
223,232,22187,2,0,P|245:262|287:284,1,69.9999978637696
457,51,22481,6,0,B|475:21|475:21|484:138,1,139.999995727539
206,10,22922,1,0,0:0:0:0:
204,27,22995,1,0,0:0:0:0:
202,44,23069,1,0,0:0:0:0:
200,62,23142,1,0,0:0:0:0:
198,79,23216,1,0,0:0:0:0:
119,173,23364,6,0,P|159:162|207:168,1,80
294,346,23658,2,0,P|243:339|190:308,1,100
371,51,23952,2,0,P|374:120|356:181,1,129.999994049073
0,384,24246,6,0,L|10:322,1,59.9999981689454
255,0,24834,1,0,0:0:0:0:
512,384,25128,6,0,L|502:322,1,59.9999981689454
255,0,25717,1,0,0:0:0:0:
0,384,26011,5,0,0:0:0:0:
359,165,26158,1,0,0:0:0:0:
205,222,26305,2,0,L|197:320,1,69.9999978637696
213,220,26599,2,0,L|188:315,1,80
221,219,26893,2,0,L|179:308,1,89.9999972534181
229,222,27187,2,0,L|170:306,1,100
239,228,27481,2,0,L|161:306,1,110.000003356934
250,237,27775,2,0,L|149:308,1,119.999996337891
258,344,28069,5,0,0:0:0:0:
258,344,28217,1,0,0:0:0:0:
264,27,28364,5,0,0:0:0:0:
386,356,28511,1,0,0:0:0:0:
407,117,28658,2,0,P|387:139|367:187,1,69.9999978637696
415,119,28952,2,0,P|384:143|361:176,1,80
424,125,29246,2,0,P|385:146|353:178,1,89.9999972534181
446,225,29540,6,0,P|443:277|425:329,1,100
278,119,29834,2,0,P|237:75|186:49,1,110.000003356934
32,260,30128,5,0,0:0:0:0:
76,283,30201,1,0,0:0:0:0:
126,279,30275,1,0,0:0:0:0:
289,152,30422,1,0,0:0:0:0:
252,192,30495,1,0,0:0:0:0:
224,240,30569,1,0,0:0:0:0:
208,292,30642,1,0,0:0:0:0:
205,348,30717,6,0,L|318:337,1,100
495,283,31011,2,0,L|382:272,1,100
206,363,31305,2,0,L|319:352,1,100
498,267,31599,1,0,0:0:0:0:
473,264,31672,1,0,0:0:0:0:
448,262,31746,1,0,0:0:0:0:
264,25,31893,6,0,P|244:75|249:135,1,100
193,276,32187,2,0,P|193:226|174:180,1,100
336,90,32481,2,0,L|442:100,1,100
99,247,32775,2,0,L|-7:257,1,100
341,297,33069,5,0,0:0:0:0:
350,281,33217,1,0,0:0:0:0:
293,203,33364,1,0,0:0:0:0:
295,178,33511,1,0,0:0:0:0:
149,144,33658,6,0,B|131:95|131:95|137:48,1,100
222,284,33952,1,0,0:0:0:0:
0,256,34099,2,0,L|99:247,1,100
236,87,34393,1,0,0:0:0:0:
285,365,34540,2,0,L|185:374,1,100
451,82,34834,5,0,0:0:0:0:
492,238,34981,1,0,0:0:0:0:
463,197,35054,1,0,0:0:0:0:
423,167,35128,1,0,0:0:0:0:
230,100,35275,1,0,0:0:0:0:
199,165,35348,1,0,0:0:0:0:
214,235,35422,6,0,L|203:357,1,100
9,381,35717,2,0,L|17:281,1,100
226,40,36011,2,0,L|215:162,1,100
21,186,36306,2,0,L|29:86,1,100
205,334,36599,6,0,P|250:347|326:334,1,100
400,181,36893,2,0,P|355:168|279:181,1,100
9,312,37187,2,0,P|54:325|130:312,1,100
204,159,37481,2,0,P|159:146|83:159,1,100
495,341,37775,6,0,B|536:199|490:47|490:47|503:97|469:151,1,389.999982147218
310,48,38805,2,0,B|357:38|407:79|407:79|339:111|227:64|227:64|166:98|67:96,1,454.999979171754
51,376,40128,6,0,B|1:301|5:196|5:196|13:231|42:259,1,259.999988098145
364,292,41011,1,0,0:0:0:0:
364,292,41158,2,0,B|285:296|234:278|234:278|169:312|102:306,1,259.999988098145
141,137,41893,5,0,0:0:0:0:
145,175,41966,1,0,0:0:0:0:
149,214,42040,1,0,0:0:0:0:
169,207,42114,1,0,0:0:0:0:
190,189,42187,1,0,0:0:0:0:
204,147,42261,1,0,0:0:0:0:
241,103,42334,1,0,0:0:0:0:
309,84,42408,1,0,0:0:0:0:
383,102,42481,6,0,P|427:112|493:92,1,100
137,40,42775,2,0,P|93:53|46:103,1,100
325,244,43069,1,0,0:0:0:0:
251,0,43217,1,0,0:0:0:0:
114,295,43364,2,0,L|14:310,1,100
492,195,43658,6,0,B|499:144|499:144|473:86,1,100
214,139,43952,1,0,0:0:0:0:
404,347,44099,2,0,P|421:297|415:232,1,100
255,7,44393,1,0,0:0:0:0:
105,171,44540,2,0,P|104:121|120:74,1,100
222,349,44834,6,0,B|195:366|195:366|104:380,1,100
34,272,45128,5,0,0:0:0:0:
336,306,45275,1,0,0:0:0:0:
163,62,45422,5,0,0:0:0:0:
127,376,45569,1,0,0:0:0:0:
382,200,45717,5,0,0:0:0:0:
16,158,45864,1,0,0:0:0:0:
245,380,46011,5,0,0:0:0:0:
177,125,46158,1,0,0:0:0:0:
169,94,46232,1,0,0:0:0:0:
163,62,46305,1,0,0:0:0:0:
9,257,46452,1,0,0:0:0:0:
279,183,46599,5,0,0:0:0:0:
301,178,46673,1,0,0:0:0:0:
324,173,46746,1,0,0:0:0:0:
329,201,46819,1,0,0:0:0:0:
317,232,46893,1,0,0:0:0:0:
276,266,46967,1,0,0:0:0:0:
216,278,47040,1,0,0:0:0:0:
146,271,47114,1,0,0:0:0:0:
83,233,47187,6,0,L|71:190,2,33.3333333333333
132,149,47481,2,0,L|144:106,2,33.3333333333333
77,68,47775,2,0,L|65:25,2,33.3333333333333
204,69,48069,6,0,L|216:26,2,33.3333333333333
231,139,48364,5,0,0:0:0:0:
253,154,48462,1,0,0:0:0:0:
277,157,48560,1,0,0:0:0:0:
316,134,48658,5,0,0:0:0:0:
351,131,48756,1,0,0:0:0:0:
383,142,48854,1,0,0:0:0:0:
408,179,48952,5,0,0:0:0:0:
457,188,49050,1,0,0:0:0:0:
499,155,49148,1,0,0:0:0:0:
491,106,49246,5,0,0:0:0:0:
440,68,49344,1,0,0:0:0:0:
440,7,49442,1,0,0:0:0:0:
452,20,49540,6,0,L|336:35,1,100
127,60,49834,1,0,0:0:0:0:
502,119,49981,6,0,L|386:134,1,100
111,168,50275,1,0,0:0:0:0:
403,282,50422,5,0,0:0:0:0:
260,47,50569,1,0,0:0:0:0:
260,47,50643,1,0,0:0:0:0:
260,47,50717,1,0,0:0:0:0:
207,378,50864,1,0,0:0:0:0:
207,378,51305,6,0,P|196:348|195:320,2,39.9999987792969
244,277,51599,2,0,P|255:247|255:203,2,59.9999981689454
0,128,51893,6,0,B|66:106|66:106|262:132,1,259.999988098145
486,154,52334,1,0,0:0:0:0:
352,384,52481,2,0,L|367:252,1,129.999994049073
269,1,52775,2,0,L|254:133,1,129.999994049073
116,267,53069,5,0,0:0:0:0:
380,146,53217,1,0,0:0:0:0:
190,344,53364,2,0,P|131:369|59:363,1,129.999994049073
7,24,53658,6,0,B|39:79|39:79|32:156,1,129.999994049073
210,220,53952,1,0,0:0:0:0:
239,8,54099,1,0,0:0:0:0:
115,266,54246,6,0,B|109:200|109:200|141:145,1,129.999994049073
253,0,54540,1,0,0:0:0:0:
380,146,54687,2,0,L|526:168,1,129.999994049073
430,0,54981,1,0,0:0:0:0:
329,282,55128,2,0,L|183:304,1,129.999994049073
451,332,55422,6,0,P|456:267|427:197,1,129.999994049073
86,253,55717,2,0,P|81:318|110:388,1,129.999994049073
309,98,56011,5,0,0:0:0:0:
322,7,56158,1,0,0:0:0:0:
297,189,56305,1,0,0:0:0:0:
299,179,56599,6,0,L|321:10,1,160
381,256,56893,2,0,L|401:414,1,129.999994049073
128,158,57187,5,0,0:0:0:0:
37,172,57334,1,0,0:0:0:0:
192,224,57481,1,0,0:0:0:0:
185,209,57775,6,0,P|126:157|39:171,1,160
228,308,58069,2,0,P|267:274|275:170,1,129.999994049073
15,34,58364,6,0,L|156:48,1,129.999994049073
493,254,58658,2,0,L|352:268,1,129.999994049073
311,55,58952,5,0,0:0:0:0:
108,288,59099,1,0,0:0:0:0:
399,154,59246,1,0,0:0:0:0:
133,31,59393,5,0,0:0:0:0:
210,365,59540,1,0,0:0:0:0:
335,43,59687,1,0,0:0:0:0:
44,214,59834,5,0,0:0:0:0:
399,154,59981,1,0,0:0:0:0:
431,150,60054,1,0,0:0:0:0:
461,144,60128,1,0,0:0:0:0:
342,302,60275,1,0,0:0:0:0:
172,192,60422,2,0,L|31:216,1,129.999994049073
437,311,60717,5,0,0:0:0:0:
330,31,60864,1,0,0:0:0:0:
298,80,60937,1,0,0:0:0:0:
277,133,61011,1,0,0:0:0:0:
263,189,61084,1,0,0:0:0:0:
258,247,61158,1,0,0:0:0:0:
261,305,61231,1,0,0:0:0:0:
273,361,61305,6,0,P|321:319|352:256,1,129.999994049073
88,145,61599,2,0,P|117:202|165:245,1,129.999994049073
408,166,61893,1,0,0:0:0:0:
177,37,62040,1,0,0:0:0:0:
141,373,62187,2,0,L|169:223,1,129.999994049073
489,74,62481,6,0,L|512:201,1,129.999994049073
273,360,62775,2,0,L|296:232,1,129.999994049073
336,38,63069,5,0,0:0:0:0:
428,305,63217,1,0,0:0:0:0:
252,140,63364,2,0,P|319:134|380:174,1,129.999994049073
21,364,63658,6,0,P|75:331|101:272,1,129.999994049073
210,22,63952,2,0,P|155:54|129:113,1,129.999994049073
299,232,64246,1,0,0:0:0:0:
27,178,64393,1,0,0:0:0:0:
174,353,64540,2,0,L|322:329,1,129.999994049073
431,124,64834,6,0,L|486:131,3,34.9999989318848
362,70,65128,2,0,L|307:77,3,50
229,53,65422,5,0,0:0:0:0:
217,57,65496,1,0,0:0:0:0:
203,64,65569,1,0,0:0:0:0:
190,75,65643,1,0,0:0:0:0:
173,96,65717,1,0,0:0:0:0:
159,132,65790,1,0,0:0:0:0:
163,178,65864,1,0,0:0:0:0:
196,223,65937,1,0,0:0:0:0:
254,245,66011,6,0,L|254:117,1,100
115,255,66305,5,0,0:0:0:0:
397,129,66452,1,0,0:0:0:0:
88,117,66599,5,0,0:0:0:0:
423,266,66746,1,0,0:0:0:0:
26,194,66893,5,0,0:0:0:0:
484,188,67040,1,0,0:0:0:0:
25,309,67187,5,0,0:0:0:0:
483,316,67334,1,0,0:0:0:0:
10,195,67481,5,0,0:0:0:0:
500,187,67628,1,0,0:0:0:0:
10,64,67775,5,0,0:0:0:0:
500,72,67922,1,0,0:0:0:0:
127,372,68069,5,0,0:0:0:0:
354,61,68217,1,0,0:0:0:0:
369,38,68291,1,0,0:0:0:0:
385,12,68364,5,0,0:0:0:0:
339,298,68511,1,0,0:0:0:0:
339,298,68584,1,0,0:0:0:0:
339,298,68658,1,0,0:0:0:0:
204,54,68805,5,0,0:0:0:0:
259,359,68952,1,0,0:0:0:0:
259,359,69025,1,0,0:0:0:0:
259,359,69099,1,0,0:0:0:0:
354,61,69246,6,0,L|491:51,1,129.999994049073
92,328,69540,1,0,0:0:0:0:
379,265,69687,1,0,0:0:0:0:
178,46,69834,1,0,0:0:0:0:
219,207,69981,1,0,0:0:0:0:
219,207,70055,1,0,0:0:0:0:
219,207,70128,1,0,0:0:0:0:
275,263,70275,5,0,0:0:0:0:
299,204,70348,1,0,0:0:0:0:
273,146,70422,1,0,0:0:0:0:
213,125,70495,1,0,0:0:0:0:
157,154,70569,1,0,0:0:0:0:
139,215,70642,1,0,0:0:0:0:
171,270,70717,6,0,B|176:311|176:311|147:386,1,100
61,282,71011,2,0,B|40:227|40:227|45:186,1,100
280,60,71305,6,0,B|379:25|373:89|475:56,1,200
333,144,71746,2,0,P|333:218|507:208,1,300
506,210,72481,6,0,L|496:313,1,100
360,384,72775,2,0,L|350:284,1,100
201,89,73069,6,0,L|190:199,2,100
290,48,73511,1,0,0:0:0:0:
290,48,73658,2,0,P|208:-3|108:50,1,200
70,194,74099,6,0,B|128:262|128:262|114:374,1,200
191,188,74540,2,0,L|202:60,1,100
371,0,74834,5,0,0:0:0:0:
479,108,74981,1,0,0:0:0:0:
483,157,75054,1,0,0:0:0:0:
480,207,75128,1,0,0:0:0:0:
469,256,75201,1,0,0:0:0:0:
451,302,75275,1,0,0:0:0:0:
425,345,75348,1,0,0:0:0:0:
392,383,75422,6,0,P|386:327|357:242,1,129.999994049073
22,303,75717,2,0,P|73:325|161:343,1,129.999994049073
364,136,76011,1,0,0:0:0:0:
88,173,76158,1,0,0:0:0:0:
281,315,76305,1,0,0:0:0:0:
237,38,76452,1,0,0:0:0:0:
145,315,76599,6,0,L|0:334,1,129.999994049073
261,188,76893,1,0,0:0:0:0:
444,291,77040,1,0,0:0:0:0:
444,291,77114,1,0,0:0:0:0:
444,291,77187,2,0,B|474:232|474:232|462:154,1,129.999994049073
89,97,77481,2,0,B|59:156|59:156|71:234,1,129.999994049073
380,77,77775,6,0,B|360:134|298:150|298:150|251:195|245:245,1,225.000008583069
285,312,78069,1,0,0:0:0:0:
403,84,78217,6,0,B|369:143|297:150|297:150|236:190|220:245,1,255.000004863739
276,333,78511,1,0,0:0:0:0:
424,103,78658,6,0,B|375:162|294:155|294:155|219:188|193:240|193:240|205:187|160:136,1,379.999989852906
99,23,79099,1,0,0:0:0:0:
104,216,79246,5,0,0:0:0:0:
328,19,79393,1,0,0:0:0:0:
441,301,79540,6,0,L|468:369,1,64.9999970245363
318,217,79687,1,0,0:0:0:0:
318,217,79761,1,0,0:0:0:0:
318,217,79834,2,0,L|245:206,1,64.9999970245363
449,149,79981,2,0,L|494:91,1,64.9999970245363
403,223,80128,5,0,0:0:0:0:
126,83,80275,1,0,0:0:0:0:
108,160,80422,1,0,0:0:0:0:
386,299,80569,1,0,0:0:0:0:
403,223,81011,5,0,0:0:0:0:
92,237,81158,1,0,0:0:0:0:
108,160,81305,1,0,0:0:0:0:
420,145,81452,1,0,0:0:0:0:
403,223,81893,5,0,0:0:0:0:
108,160,82040,1,0,0:0:0:0:
338,318,82187,5,0,0:0:0:0:
173,65,82334,1,0,0:0:0:0:
224,339,82481,5,0,0:0:0:0:
287,44,82628,1,0,0:0:0:0:
363,55,82775,1,0,0:0:0:0:
148,328,82922,1,0,0:0:0:0:
224,339,83364,5,0,0:0:0:0:
287,44,83511,1,0,0:0:0:0:
210,34,83658,1,0,0:0:0:0:
301,349,83805,1,0,0:0:0:0:
224,339,84246,5,0,0:0:0:0:
287,44,84393,1,0,0:0:0:0:
104,290,84540,5,0,0:0:0:0:
407,93,84687,1,0,0:0:0:0:
79,154,84834,5,0,0:0:0:0:
432,229,84981,1,0,0:0:0:0:
417,306,85128,1,0,0:0:0:0:
94,78,85275,1,0,0:0:0:0:
79,154,85717,5,0,0:0:0:0:
432,229,85864,1,0,0:0:0:0:
447,153,86011,1,0,0:0:0:0:
64,231,86158,1,0,0:0:0:0:
79,154,86599,5,0,0:0:0:0:
432,229,86746,1,0,0:0:0:0:
293,15,86893,5,0,0:0:0:0:
218,368,87040,1,0,0:0:0:0:
257,263,87187,6,0,L|256:178,2,69.9999978637696
348,196,87628,2,0,P|342:159|311:121,1,69.9999978637696
187,132,87922,2,0,P|168:161|164:196,1,69.9999978637696
257,0,88217,5,0,0:0:0:0:
