osu file format v14

[General]
AudioFilename: audio.mp3
AudioLeadIn: 0
PreviewTime: 51788
Countdown: 1
SampleSet: Normal
StackLeniency: 0.7
Mode: 0
LetterboxInBreaks: 0
WidescreenStoryboard: 0

[Editor]
Bookmarks: 65611
DistanceSpacing: 1
BeatDivisor: 4
GridSize: 32
TimelineZoom: 2.3

[Metadata]
Title:My Sweet Maiden
TitleUnicode:My Sweet Maiden
Artist:Mia REGINA
ArtistUnicode:Mia REGINA
Creator:Pinecone Kun
Version:Immortal
Source:
Tags:nanatsu no taizai seven mortal sins opening
BeatmapID:1737687
BeatmapSetID:829404

[Difficulty]
HPDrainRate:5
CircleSize:4
OverallDifficulty:9.2
ApproachRate:9.6
SliderMultiplier:1.5
SliderTickRate:1

[Events]
//Background and Video events
0,0,"BG.jpg",0,0
//Break Periods
2,166698,174225
//Storyboard Layer 0 (Background)
//Storyboard Layer 1 (Fail)
//Storyboard Layer 2 (Pass)
//Storyboard Layer 3 (Foreground)
//Storyboard Sound Samples

[TimingPoints]
1200,294.117647058824,4,1,0,69,1,0
8405,-100,4,1,0,5,0,0
10617,294.117647058824,3,1,0,80,1,0
10617,-80,4,1,0,80,0,0
26420,-133.333333333333,3,1,0,80,0,0
26499,294.117647058824,4,1,0,80,1,0
26499,-133.333333333333,4,1,0,80,0,0
30538,-100,4,1,0,80,0,0
31052,-80,4,1,0,80,0,0
45543,-80,4,1,0,80,0,1
47601,-80,4,1,0,80,0,0
51567,-66.6666666666667,4,1,0,80,0,1
71126,-100,4,1,0,80,0,0
75391,-76.9230769230769,4,1,0,80,0,0
108778,-100,4,1,0,80,0,0
113410,-83.3333333333333,4,1,0,80,0,0
120543,-100,4,1,0,80,0,0
125249,-76.9230769230769,4,1,0,80,0,0
136278,-66.6666666666667,4,1,0,80,0,1
155910,-100,4,1,0,80,0,0
160543,-80,4,1,0,80,0,0
164660,-117.647058823529,4,1,0,80,0,0
175126,-90.9090909090909,4,1,0,80,0,0
175812,-117.647058823529,4,1,0,80,0,0
183851,-83.3333333333333,4,1,0,80,0,1
223704,-83.3333333333333,4,1,0,5,0,0
224072,-83.3333333333333,4,1,0,80,0,0
228778,-100,4,1,0,80,0,0
230616,-66.6666666666667,4,1,0,80,0,0
233999,-58.8235294117647,4,1,0,80,0,0
235175,-58.8235294117647,4,1,0,80,0,1
253484,-100,4,1,0,80,0,0
258190,-80,4,1,0,80,0,0
262896,-80,4,1,0,80,0,1
269954,-133.333333333333,4,1,0,80,0,0

[HitObjects]
183,84,1200,6,0,L|350:135,1,150
235,216,1788,1,0,0:0:0:0:
235,216,2082,2,0,P|181:234|163:263,1,75
275,314,2376,6,0,L|427:338,1,150
457,95,2964,2,0,P|483:153|472:252,1,150
349,138,3552,2,0,P|308:84|240:33,1,150
115,79,4141,5,0,0:0:0:0:
135,92,4435,2,0,P|166:134|164:170,1,75
17,327,4729,2,0,L|83:179,2,150
175,172,5611,2,0,L|244:217,1,75
269,326,5905,6,0,P|330:280|356:201,1,150
364,51,6494,1,0,0:0:0:0:
171,121,6788,1,0,0:0:0:0:
185,77,7082,6,0,L|349:115,2,150
36,88,7964,2,0,P|46:144|43:184,1,75
198,320,8258,2,0,L|154:169,1,150
256,192,8626,12,0,10317,0:0:0:0:
395,74,10617,6,0,L|206:127,1,187.5
235,159,11052,1,0,0:0:0:0:
297,58,11200,1,0,0:0:0:0:
114,99,11347,1,0,0:0:0:0:
81,292,11494,2,0,P|165:248|243:198,1,187.5
328,85,12082,6,0,L|386:164,1,93.75
464,281,12376,2,0,P|399:297|287:246,1,187.5
328,227,12817,1,0,0:0:0:0:
447,56,12964,1,0,0:0:0:0:
424,201,13111,1,0,0:0:0:0:
370,109,13258,2,0,P|309:100|175:80,1,187.5
48,68,13700,5,0,0:0:0:0:
79,101,13773,1,0,0:0:0:0:
85,147,13847,1,0,0:0:0:0:
65,189,13920,1,0,0:0:0:0:
42,230,13994,1,0,0:0:0:0:
50,275,14067,1,0,0:0:0:0:
75,314,14141,6,0,L|267:274,1,187.5
128,108,14582,1,0,0:0:0:0:
290,56,14729,2,0,L|262:157,1,93.75
85,329,15028,2,0,B|180:334|230:263|230:263|202:253,1,187.5
344,45,15464,5,0,0:0:0:0:
334,141,15611,1,0,0:0:0:0:
426,105,15758,1,0,0:0:0:0:
103,40,15905,2,0,L|52:223,2,187.5
122,293,16646,2,0,L|151:195,1,93.75
205,86,16940,2,0,P|248:136|260:172,1,93.75
298,252,17229,5,0,0:0:0:0:
325,289,17302,1,0,0:0:0:0:
364,315,17376,1,0,0:0:0:0:
410,320,17450,1,0,0:0:0:0:
452,300,17523,1,0,0:0:0:0:
481,263,17597,1,0,0:0:0:0:
488,217,17670,6,0,L|442:22,1,187.5
99,65,18111,1,0,0:0:0:0:
11,146,18258,1,0,0:0:0:0:
260,34,18405,1,0,0:0:0:0:
124,181,18552,2,0,L|320:158,2,187.5
270,188,19288,5,0,0:0:0:0:
248,39,19435,2,0,P|326:52|343:62,2,93.75
148,68,19876,1,0,0:0:0:0:
80,132,20023,1,0,0:0:0:0:
62,217,20170,1,0,0:0:0:0:
80,320,20317,6,0,L|289:278,1,187.5
105,131,20905,1,0,0:0:0:0:
283,67,21052,1,0,0:0:0:0:
226,231,21200,6,0,B|317:290|368:294|368:294|353:248,2,187.5
82,185,21935,2,0,P|132:137|168:121,1,93.75
209,278,22229,1,0,0:0:0:0:
288,68,22376,5,0,0:0:0:0:
321,188,22523,2,0,P|377:158|403:123,1,93.75
103,64,22817,1,0,0:0:0:0:
13,252,22964,2,0,L|204:221,2,187.5
459,321,23847,6,0,B|396:342|373:301|373:301|339:335|279:302,1,187.5
287,212,24288,1,0,0:0:0:0:
345,127,24435,1,0,0:0:0:0:
336,81,24508,1,0,0:0:0:0:
303,46,24582,1,0,0:0:0:0:
259,29,24655,1,0,0:0:0:0:
211,26,24729,6,0,P|93:71|51:147,1,187.5
424,200,25170,1,0,0:0:0:0:
335,209,25317,1,0,0:0:0:0:
391,289,25464,2,0,P|350:343|327:363,1,93.75
88,200,25764,5,0,0:0:0:0:
177,209,25911,1,0,0:0:0:0:
121,289,26058,2,0,P|162:343|185:363,1,93.75
254,65,26347,1,0,0:0:0:0:
66,130,26494,5,0,0:0:0:0:
340,213,26641,1,0,0:0:0:0:
151,161,26788,6,0,L|179:91,1,56.2500021457673
265,187,27082,2,0,P|252:229|236:263,1,56.2500021457673
95,54,27376,2,0,P|154:50|173:54,1,56.2500021457673
209,240,27670,2,0,L|149:231,1,56.2500021457673
254,73,27964,2,0,P|302:113|308:129,1,56.2500021457673
43,243,28258,6,0,P|100:262|116:263,1,56.2500021457673
173,228,28552,1,0,0:0:0:0:
240,175,28700,1,0,0:0:0:0:
286,104,28847,5,0,0:0:0:0:
389,307,28994,1,0,0:0:0:0:
303,200,29141,6,0,P|348:174|370:157,1,56.2500021457673
343,274,29435,2,0,P|306:287|277:290,1,56.2500021457673
184,186,29729,2,0,P|173:230|172:262,1,56.2500021457673
420,205,30023,2,0,P|419:163|409:135,1,56.2500021457673
302,47,30317,5,0,0:0:0:0:
282,48,30391,1,0,0:0:0:0:
262,49,30464,1,0,0:0:0:0:
242,50,30538,1,0,0:0:0:0:
206,62,30611,5,0,0:0:0:0:
178,87,30685,1,0,0:0:0:0:
165,122,30758,1,0,0:0:0:0:
165,159,30832,1,0,0:0:0:0:
162,196,30905,1,0,0:0:0:0:
139,225,30979,1,0,0:0:0:0:
107,244,31052,1,0,0:0:0:0:
73,260,31126,1,0,0:0:0:0:
35,288,31200,6,0,L|229:319,1,187.5
277,187,31641,2,0,P|329:226|349:260,1,93.75
205,291,31935,1,0,0:0:0:0:
389,139,32082,1,0,0:0:0:0:
354,107,32155,1,0,0:0:0:0:
312,83,32229,1,0,0:0:0:0:
266,72,32302,1,0,0:0:0:0:
219,77,32376,6,0,L|286:261,1,187.5
79,174,32817,2,0,P|59:116|59:79,1,93.75
245,89,33111,1,0,0:0:0:0:
106,241,33258,1,0,0:0:0:0:
308,188,33405,1,0,0:0:0:0:
106,241,33552,5,0,0:0:0:0:
302,328,33700,1,0,0:0:0:0:
218,153,33847,1,0,0:0:0:0:
404,125,33994,1,0,0:0:0:0:
225,47,34141,2,0,P|163:109|128:125,1,93.75
76,20,34435,5,0,0:0:0:0:
37,258,34582,2,0,B|104:229|122:148|122:148|154:151|185:183,1,187.5
240,63,35023,5,0,0:0:0:0:
263,103,35097,1,0,0:0:0:0:
247,146,35170,1,0,0:0:0:0:
238,192,35244,1,0,0:0:0:0:
226,237,35317,6,0,P|288:266|332:280,1,93.75
329,105,35611,1,0,0:0:0:0:
135,183,35758,1,0,0:0:0:0:
95,52,35905,2,0,P|35:125|28:144,1,93.75
202,237,36200,2,0,P|281:260|311:278,1,93.75
356,129,36494,5,0,0:0:0:0:
162,182,36641,1,0,0:0:0:0:
272,35,36788,1,0,0:0:0:0:
104,140,36935,1,0,0:0:0:0:
233,268,37082,2,0,L|43:313,1,187.5
267,238,37523,1,0,0:0:0:0:
225,198,37670,6,0,L|435:254,1,187.5
254,144,38111,1,0,0:0:0:0:
209,131,38258,6,0,B|70:161|70:161|6:197,1,187.5
210,253,38847,5,0,0:0:0:0:
253,39,39141,1,0,0:0:0:0:
307,58,39288,2,0,B|312:119|360:146|360:146|335:190|379:231,2,187.5
276,213,40023,5,0,0:0:0:0:
226,162,40097,1,0,0:0:0:0:
170,127,40170,1,0,0:0:0:0:
108,124,40244,1,0,0:0:0:0:
64,139,40317,1,0,0:0:0:0:
38,166,40391,1,0,0:0:0:0:
27,192,40464,1,0,0:0:0:0:
26,210,40538,1,0,0:0:0:0:
30,223,40611,2,0,B|89:234|125:275|125:275|163:252|235:276,2,187.5
269,85,41499,5,0,0:0:0:0:
297,39,41646,2,0,B|314:91|343:124|343:124|342:165|369:244,2,187.5
100,44,42376,5,0,0:0:0:0:
85,88,42450,1,0,0:0:0:0:
81,134,42523,1,0,0:0:0:0:
95,178,42597,1,0,0:0:0:0:
114,220,42670,2,0,L|236:189,1,93.75
403,158,42964,2,0,P|332:205|316:251,1,93.75
415,248,43258,1,0,0:0:0:0:
259,160,43405,1,0,0:0:0:0:
279,273,43552,6,0,P|211:298|182:296,1,93.75
366,335,43847,1,0,0:0:0:0:
167,202,43994,1,0,0:0:0:0:
294,98,44141,2,0,P|221:72|184:66,1,93.75
263,243,44435,1,0,0:0:0:0:
112,79,44582,1,0,0:0:0:0:
282,127,44729,6,0,P|340:146|377:166,1,93.75
270,270,45023,2,0,L|167:289,1,93.75
238,57,45317,2,0,P|223:117|203:164,1,93.75
68,302,45611,5,0,0:0:0:0:
128,38,45758,1,0,0:0:0:0:
150,352,45905,5,0,0:0:0:0:
216,24,46052,1,0,0:0:0:0:
223,383,46200,5,0,0:0:0:0:
294,1,46347,1,0,0:0:0:0:
397,321,46494,5,0,0:0:0:0:
91,180,46641,1,0,0:0:0:0:
91,180,46714,1,0,0:0:0:0:
91,180,46788,1,0,0:0:0:0:
283,98,46935,5,0,0:0:0:0:
425,159,47082,1,0,0:0:0:0:
425,159,47155,1,0,0:0:0:0:
425,159,47229,2,0,L|463:226,1,46.875
360,212,47376,2,0,L|415:254,1,46.875
326,283,47523,2,0,L|382:295,1,46.875
462,278,47670,6,0,P|499:330|506:360,2,62.5
415,235,47964,1,0,0:0:0:0:
356,212,48062,1,0,0:0:0:0:
293,215,48160,1,0,0:0:0:0:
243,253,48258,6,0,P|184:301|147:311,2,62.5
253,191,48552,1,0,0:0:0:0:
236,130,48650,1,0,0:0:0:0:
188,88,48749,1,0,0:0:0:0:
126,77,48847,2,0,P|51:87|23:102,2,62.5
183,53,49141,1,0,0:0:0:0:
244,40,49239,1,0,0:0:0:0:
306,43,49337,1,0,0:0:0:0:
362,70,49435,6,0,P|396:43|423:34,2,62.5
341,128,49729,1,0,0:0:0:0:
354,188,49827,1,0,0:0:0:0:
400,229,49925,1,0,0:0:0:0:
345,343,50023,5,0,0:0:0:0:
259,52,50170,1,0,0:0:0:0:
109,203,50317,1,0,0:0:0:0:
361,34,50464,5,0,0:0:0:0:
202,302,50611,1,0,0:0:0:0:
143,105,50758,1,0,0:0:0:0:
54,342,50905,5,0,0:0:0:0:
175,76,51052,1,0,0:0:0:0:
175,76,51125,1,0,0:0:0:0:
175,76,51199,1,0,0:0:0:0:
280,355,51347,1,0,0:0:0:0:
75,40,51788,6,0,L|154:285,1,225.000008583069
409,42,52376,2,0,P|337:119|305:167,1,112.500004291535
412,294,52670,1,0,0:0:0:0:
240,109,52817,1,0,0:0:0:0:
258,321,52964,2,0,P|154:309|120:276,1,112.500004291535
214,66,53258,5,0,0:0:0:0:
70,119,53405,2,0,L|154:226,1,112.500004291535
343,138,53700,2,0,P|340:211|310:270,1,112.500004291535
45,181,53994,1,0,0:0:0:0:
312,69,54141,5,0,0:0:0:0:
125,44,54288,1,0,0:0:0:0:
371,250,54435,2,0,L|257:212,1,112.500004291535
45,307,54729,2,0,B|145:314|134:263|134:263|197:296|289:277,1,225.000008583069
62,121,55170,1,0,0:0:0:0:
225,66,55317,6,0,P|212:123|215:182,1,112.500004291535
389,95,55611,1,0,0:0:0:0:
141,262,55758,1,0,0:0:0:0:
384,231,55905,2,0,P|387:292|374:354,1,112.500004291535
186,150,56200,2,0,P|114:117|40:100,1,112.500004291535
353,31,56494,5,0,0:0:0:0:
309,184,56641,1,0,0:0:0:0:
258,338,56788,1,0,0:0:0:0:
137,55,56935,2,0,P|86:124|67:169,1,112.500004291535
378,198,57229,2,0,P|277:154|237:132,1,112.500004291535
340,293,57523,1,0,0:0:0:0:
159,43,57670,5,0,0:0:0:0:
17,306,57817,1,0,0:0:0:0:
170,211,57964,1,0,0:0:0:0:
62,72,58111,2,0,P|27:131|7:209,1,112.500004291535
159,98,58405,1,0,0:0:0:0:
14,261,58552,1,0,0:0:0:0:
214,224,58700,1,0,0:0:0:0:
297,55,58847,6,0,P|268:116|263:163,1,112.500004291535
44,97,59141,2,0,P|137:136|167:167,1,112.500004291535
50,287,59435,5,0,0:0:0:0:
248,39,59582,1,0,0:0:0:0:
375,200,59729,1,0,0:0:0:0:
144,41,59876,5,0,0:0:0:0:
323,290,60023,1,0,0:0:0:0:
62,262,60170,1,0,0:0:0:0:
297,44,60317,5,0,0:0:0:0:
297,44,60391,1,0,0:0:0:0:
297,44,60464,1,0,0:0:0:0:
43,338,60611,1,0,0:0:0:0:
253,140,60758,5,0,0:0:0:0:
285,186,60832,1,0,0:0:0:0:
283,241,60905,1,0,0:0:0:0:
249,286,60979,1,0,0:0:0:0:
196,304,61052,1,0,0:0:0:0:
146,277,61126,1,0,0:0:0:0:
112,231,61200,6,0,P|59:112|30:7,2,225.000008583069
288,252,61935,1,0,0:0:0:0:
256,23,62082,2,0,P|285:97|305:135,1,112.500004291535
134,61,62376,5,0,0:0:0:0:
425,118,62523,1,0,0:0:0:0:
228,201,62670,1,0,0:0:0:0:
406,285,62817,2,0,P|342:315|290:329,1,112.500004291535
345,137,63111,1,0,0:0:0:0:
215,265,63258,2,0,P|174:186|174:132,1,112.500004291535
71,45,63552,6,0,P|94:120|101:174,1,112.500004291535
345,341,63847,2,0,P|322:266|315:212,1,112.500004291535
340,53,64141,2,0,P|266:90|194:107,1,112.500004291535
369,158,64435,1,0,0:0:0:0:
118,235,64582,1,0,0:0:0:0:
312,282,64729,1,0,0:0:0:0:
118,235,64876,5,0,0:0:0:0:
251,64,65023,1,0,0:0:0:0:
253,277,65170,1,0,0:0:0:0:
149,56,65317,6,0,P|105:104|52:139,1,112.500004291535
194,313,65611,2,0,P|238:265|291:230,1,112.500004291535
275,38,65905,6,0,P|304:117|329:271,1,225.000008583069
298,276,66347,1,0,0:0:0:0:
351,48,66494,2,0,P|273:76|244:95,1,112.500004291535
80,148,66788,5,0,0:0:0:0:
442,182,66935,1,0,0:0:0:0:
35,212,67082,5,0,0:0:0:0:
487,260,67229,1,0,0:0:0:0:
5,286,67376,5,0,0:0:0:0:
390,146,67523,1,0,0:0:0:0:
74,343,67670,5,0,0:0:0:0:
186,26,67817,1,0,0:0:0:0:
193,376,67964,5,0,0:0:0:0:
290,0,68111,1,0,0:0:0:0:
304,361,68258,5,0,0:0:0:0:
366,24,68405,1,0,0:0:0:0:
410,337,68552,5,0,0:0:0:0:
70,136,68700,1,0,0:0:0:0:
70,136,68773,1,0,0:0:0:0:
70,136,68847,1,0,0:0:0:0:
104,335,68994,5,0,0:0:0:0:
226,31,69141,1,0,0:0:0:0:
340,183,69288,1,0,0:0:0:0:
87,55,69435,5,0,0:0:0:0:
424,238,69582,1,0,0:0:0:0:
242,294,69729,1,0,0:0:0:0:
294,28,69876,5,0,0:0:0:0:
145,342,70023,2,0,P|97:281|87:237,1,112.500004291535
235,43,70317,2,0,P|244:102|236:161,1,112.500004291535
477,247,70611,5,0,0:0:0:0:
417,214,70685,1,0,0:0:0:0:
350,209,70758,1,0,0:0:0:0:
284,226,70832,1,0,0:0:0:0:
223,255,70905,1,0,0:0:0:0:
156,269,70979,1,0,0:0:0:0:
96,238,71052,1,0,0:0:0:0:
50,187,71126,1,0,0:0:0:0:
53,141,71200,6,0,L|218:161,2,150
96,94,72082,1,0,0:0:0:0:
298,102,72229,2,0,L|218:251,2,150
385,317,72964,5,0,0:0:0:0:
298,327,73111,1,0,0:0:0:0:
207,311,73258,1,0,0:0:0:0:
168,131,73405,1,0,0:0:0:0:
192,174,73552,2,0,L|91:301,2,150
168,131,74435,5,0,0:0:0:0:
363,79,74582,2,0,L|210:33,1,150
336,107,75170,1,0,0:0:0:0:
113,101,75317,5,0,0:0:0:0:
104,139,75391,1,0,0:0:0:0:
106,177,75464,1,0,0:0:0:0:
114,215,75538,1,0,0:0:0:0:
127,251,75611,1,0,0:0:0:0:
146,285,75685,1,0,0:0:0:0:
171,315,75758,6,0,P|232:295|293:274,1,97.4999955368044
207,117,76052,2,0,L|319:84,1,97.4999955368044
152,211,76347,1,0,0:0:0:0:
320,262,76494,6,0,P|291:316|257:337,1,97.4999955368044
190,59,76788,1,0,0:0:0:0:
96,297,76935,1,0,0:0:0:0:
300,156,77082,2,0,P|299:240|297:266,1,97.4999955368044
100,87,77376,1,0,0:0:0:0:
369,292,77523,1,0,0:0:0:0:
155,297,77670,6,0,P|117:259|92:212,1,97.4999955368044
355,84,77964,2,0,L|272:159,1,97.4999955368044
97,328,78258,5,0,0:0:0:0:
194,40,78405,1,0,0:0:0:0:
247,180,78552,1,0,0:0:0:0:
38,86,78700,5,0,0:0:0:0:
366,212,78847,1,0,0:0:0:0:
182,234,78994,1,0,0:0:0:0:
316,53,79141,6,0,P|269:121|226:231,2,194.999991073609
409,292,79950,1,0,0:0:0:0:
358,275,80023,1,0,0:0:0:0:
314,270,80097,1,0,0:0:0:0:
281,278,80170,1,0,0:0:0:0:
256,293,80244,1,0,0:0:0:0:
240,311,80317,1,0,0:0:0:0:
229,327,80391,1,0,0:0:0:0:
221,339,80464,1,0,0:0:0:0:
210,349,80538,1,0,0:0:0:0:
196,353,80611,6,0,P|118:343|77:300,1,97.4999955368044
224,223,80905,1,0,0:0:0:0:
119,137,81052,2,0,P|102:211|74:247,1,97.4999955368044
43,108,81347,1,0,0:0:0:0:
239,199,81494,1,0,0:0:0:0:
83,228,81641,1,0,0:0:0:0:
257,88,81935,5,0,0:0:0:0:
257,88,82008,1,0,0:0:0:0:
257,88,82082,2,0,P|301:135|321:167,1,97.4999955368044
141,106,82376,1,0,0:0:0:0:
392,164,82523,1,0,0:0:0:0:
259,237,82670,1,0,0:0:0:0:
297,40,82817,6,0,P|315:112|315:143,1,97.4999955368044
432,32,83111,1,0,0:0:0:0:
196,172,83258,1,0,0:0:0:0:
377,182,83405,1,0,0:0:0:0:
318,317,83552,2,0,L|128:274,1,194.999991073609
91,138,83994,5,0,0:0:0:0:
68,169,84067,1,0,0:0:0:0:
58,201,84141,1,0,0:0:0:0:
62,229,84214,1,0,0:0:0:0:
74,250,84288,1,0,0:0:0:0:
93,264,84361,2,0,P|114:277|129:284,6,24.3749988842011
241,263,84729,6,0,P|314:272|352:295,2,64.9999970245363
194,203,85023,2,0,P|121:212|83:235,2,64.9999970245363
137,337,85317,5,0,0:0:0:0:
263,83,85464,1,0,0:0:0:0:
47,120,85611,2,0,P|78:169|107:198,1,97.4999955368044
351,73,85905,2,0,L|288:265,1,194.999991073609
315,283,86347,1,0,0:0:0:0:
126,100,86494,5,0,0:0:0:0:
126,100,86567,1,0,0:0:0:0:
126,100,86641,1,0,0:0:0:0:
132,281,86788,2,0,P|213:257|258:230,1,97.4999955368044
299,52,87082,6,0,P|332:107|347:148,1,97.4999955368044
394,322,87376,2,0,L|195:273,1,194.999991073609
416,199,87817,1,0,0:0:0:0:
138,327,87964,2,0,P|116:272|124:221,1,97.4999955368044
297,226,88258,5,0,0:0:0:0:
75,87,88405,1,0,0:0:0:0:
232,71,88552,1,0,0:0:0:0:
74,257,88700,6,0,P|146:283|197:272,1,97.4999955368044
237,125,88994,1,0,0:0:0:0:
278,158,89067,1,0,0:0:0:0:
297,203,89141,1,0,0:0:0:0:
286,245,89214,1,0,0:0:0:0:
266,279,89288,1,0,0:0:0:0:
241,302,89361,1,0,0:0:0:0:
216,318,89435,6,0,L|182:339,2,24.3749988842011
80,271,89582,6,0,L|116:283,2,24.3749988842011
194,188,89729,6,0,L|157:204,2,24.3749988842011
65,134,89876,6,0,L|102:146,2,24.3749988842011
190,64,90023,6,0,P|277:73|391:91,1,194.999991073609
297,244,90464,2,0,P|188:243|162:248,1,97.4999955368044
335,344,90758,1,0,0:0:0:0:
181,143,90905,1,0,0:0:0:0:
322,205,91052,1,0,0:0:0:0:
115,71,91200,2,0,P|83:159|56:265,1,194.999991073609
84,283,91641,1,0,0:0:0:0:
234,77,91788,5,0,0:0:0:0:
221,252,91935,2,0,P|288:206|326:174,1,97.4999955368044
97,212,92229,1,0,0:0:0:0:
356,107,92376,2,0,P|382:180|408:300,1,194.999991073609
451,312,92817,1,0,0:0:0:0:
188,288,92964,6,0,P|276:303|309:303,1,97.4999955368044
176,175,93258,1,0,0:0:0:0:
116,309,93405,1,0,0:0:0:0:
360,155,93552,2,0,P|371:207|403:355,1,194.999991073609
363,366,93994,1,0,0:0:0:0:
265,142,94141,5,0,0:0:0:0:
169,223,94288,1,0,0:0:0:0:
32,98,94435,1,0,0:0:0:0:
103,165,94582,1,0,0:0:0:0:
335,43,94729,6,0,P|297:176|287:245,1,194.999991073609
325,252,95170,1,0,0:0:0:0:
183,103,95322,2,0,P|146:159|134:205,1,97.4999955368044
376,163,95616,1,0,0:0:0:0:
99,217,95763,1,0,0:0:0:0:
272,260,95910,6,0,P|226:303|107:378,1,194.999991073609
168,381,96351,1,0,0:0:0:0:
232,134,96499,1,0,0:0:0:0:
108,228,96646,2,0,P|141:269|177:301,1,97.4999955368044
149,311,96940,1,0,0:0:0:0:
354,310,97087,5,0,0:0:0:0:
290,119,97234,1,0,0:0:0:0:
224,263,97381,1,0,0:0:0:0:
290,119,97528,5,0,0:0:0:0:
125,152,97675,1,0,0:0:0:0:
305,256,97822,1,0,0:0:0:0:
290,119,97969,5,0,0:0:0:0:
486,39,98116,1,0,0:0:0:0:
415,224,98263,1,0,0:0:0:0:
290,119,98410,5,0,0:0:0:0:
121,229,98557,1,0,0:0:0:0:
250,271,98704,2,0,P|206:325|165:354,1,97.4999955368044
85,114,98999,5,0,0:0:0:0:
72,134,99072,1,0,0:0:0:0:
64,162,99146,1,0,0:0:0:0:
60,195,99219,1,0,0:0:0:0:
63,234,99293,1,0,0:0:0:0:
79,274,99366,1,0,0:0:0:0:
107,314,99440,6,0,P|181:257|274:208,1,194.999991073609
242,182,99881,1,0,0:0:0:0:
466,146,100028,2,0,P|417:81|380:43,1,97.4999955368044
449,322,100322,2,0,P|379:347|331:358,1,97.4999955368044
186,116,100616,6,0,P|131:168|49:257,1,194.999991073609
85,267,101057,1,0,0:0:0:0:
329,131,101204,2,0,P|343:185|352:243,1,97.4999955368044
171,147,101499,1,0,0:0:0:0:
404,250,101646,1,0,0:0:0:0:
243,281,101793,6,0,P|167:279|32:300,1,194.999991073609
69,326,102234,1,0,0:0:0:0:
44,78,102381,2,0,P|128:92|186:106,1,97.4999955368044
320,66,102675,2,0,P|326:135|317:175,1,97.4999955368044
149,241,102969,2,0,P|203:291|326:354,1,194.999991073609
311,376,103410,5,0,0:0:0:0:
384,144,103557,1,0,0:0:0:0:
231,231,103704,1,0,0:0:0:0:
229,46,103851,6,0,P|127:67|93:84,1,97.4999955368044
44,108,104146,2,0,P|67:189|26:301,1,194.999991073609
6,261,104587,1,0,0:0:0:0:
205,180,104734,1,0,0:0:0:0:
152,358,104881,1,0,0:0:0:0:
38,173,105028,6,0,P|105:145|138:138,1,97.4999955368044
82,310,105322,1,0,0:0:0:0:
221,107,105469,1,0,0:0:0:0:
285,308,105616,1,0,0:0:0:0:
117,135,105763,5,0,0:0:0:0:
285,308,105910,1,0,0:0:0:0:
53,337,106057,1,0,0:0:0:0:
190,115,106204,5,0,0:0:0:0:
285,308,106351,1,0,0:0:0:0:
39,197,106499,2,0,L|37:2,1,194.999991073609
3,24,106940,5,0,0:0:0:0:
285,113,107087,2,0,P|234:159|190:182,1,97.4999955368044
53,255,107381,2,0,P|126:287|248:335,1,194.999991073609
200,359,107822,5,0,0:0:0:0:
309,154,107969,2,0,P|375:211|397:238,1,97.4999955368044
138,183,108263,2,0,P|151:88|166:47,1,97.4999955368044
356,57,108557,5,0,0:0:0:0:
386,95,108631,1,0,0:0:0:0:
407,138,108704,1,0,0:0:0:0:
414,186,108778,1,0,0:0:0:0:
403,233,108851,2,0,L|241:285,1,150
54,123,109293,5,0,0:0:0:0:
40,169,109366,1,0,0:0:0:0:
45,217,109440,2,0,P|105:236|174:304,1,150
122,315,109881,1,0,0:0:0:0:
207,131,110028,6,0,P|148:125|104:133,2,100
259,208,110616,2,0,P|325:235|372:238,2,100
154,326,111204,5,0,0:0:0:0:
224,27,111351,1,0,0:0:0:0:
345,208,111499,1,0,0:0:0:0:
96,73,111646,5,0,0:0:0:0:
394,279,111793,1,0,0:0:0:0:
181,261,111940,1,0,0:0:0:0:
316,54,112087,5,0,0:0:0:0:
348,326,112234,1,0,0:0:0:0:
348,326,112307,1,0,0:0:0:0:
348,326,112381,1,0,0:0:0:0:
56,109,112528,1,0,0:0:0:0:
56,109,112601,1,0,0:0:0:0:
56,109,112675,1,0,0:0:0:0:
302,67,112822,5,0,0:0:0:0:
335,117,112896,1,0,0:0:0:0:
350,166,112969,1,0,0:0:0:0:
351,211,113043,1,0,0:0:0:0:
335,244,113116,1,0,0:0:0:0:
313,264,113190,1,0,0:0:0:0:
293,274,113263,1,0,0:0:0:0:
270,278,113337,1,0,0:0:0:0:
240,274,113410,1,0,0:0:0:0:
207,255,113484,1,0,0:0:0:0:
175,223,113557,6,0,P|92:250|-2:290,1,179.999994506836
34,313,113999,1,0,0:0:0:0:
271,178,114146,2,0,P|235:133|204:107,1,89.9999972534181
356,50,114440,5,0,0:0:0:0:
385,100,114513,1,0,0:0:0:0:
381,158,114587,2,0,L|327:215,1,44.999998626709
230,213,114734,6,0,P|250:287|353:331,1,179.999994506836
344,360,115175,1,0,0:0:0:0:
390,142,115322,2,0,P|340:86|290:74,1,89.9999972534181
128,209,115616,2,0,P|112:147|111:111,1,89.9999972534181
199,272,115910,5,0,0:0:0:0:
255,72,116057,1,0,0:0:0:0:
379,236,116204,1,0,0:0:0:0:
155,125,116351,5,0,0:0:0:0:
373,237,116499,1,0,0:0:0:0:
148,291,116646,1,0,0:0:0:0:
319,54,116793,5,0,0:0:0:0:
325,322,116940,2,0,P|184:315|138:315,1,179.999994506836
156,348,117381,1,0,0:0:0:0:
17,148,117528,2,0,P|91:131|140:122,1,89.9999972534181
266,47,117822,5,0,0:0:0:0:
245,92,117896,1,0,0:0:0:0:
247,141,117969,1,0,0:0:0:0:
271,184,118043,1,0,0:0:0:0:
309,214,118116,1,0,0:0:0:0:
330,258,118190,1,0,0:0:0:0:
337,306,118263,6,0,P|269:320|235:342,1,89.9999972534181
81,132,118557,2,0,P|69:196|54:234,1,89.9999972534181
227,88,118851,1,0,0:0:0:0:
121,304,118999,1,0,0:0:0:0:
289,234,119146,1,0,0:0:0:0:
65,214,119293,1,0,0:0:0:0:
321,89,119440,6,0,L|176:194,1,179.999994506836
167,159,119881,1,0,0:0:0:0:
47,288,120028,2,0,P|197:256|229:254,1,179.999994506836
213,285,120469,1,0,0:0:0:0:
335,56,120616,6,0,L|282:216,1,150
337,207,121204,1,0,0:0:0:0:
276,55,121499,5,0,0:0:0:0:
70,145,121646,2,0,B|203:230,2,150
250,103,122381,5,0,0:0:0:0:
303,128,122454,1,0,0:0:0:0:
338,166,122528,1,0,0:0:0:0:
351,208,122601,1,0,0:0:0:0:
346,245,122675,1,0,0:0:0:0:
332,272,122749,1,0,0:0:0:0:
314,286,122822,1,0,0:0:0:0:
300,291,122896,1,0,0:0:0:0:
289,294,122969,2,0,L|116:244,2,150
279,245,123851,5,0,0:0:0:0:
103,67,123999,2,0,L|264:82,2,150
391,104,124734,5,0,0:0:0:0:
366,141,124807,1,0,0:0:0:0:
356,185,124881,1,0,0:0:0:0:
363,229,124954,1,0,0:0:0:0:
386,267,125028,1,0,0:0:0:0:
342,258,125101,1,0,0:0:0:0:
296,255,125175,1,0,0:0:0:0:
252,268,125249,1,0,0:0:0:0:
215,293,125322,6,0,P|152:276|116:261,1,97.4999955368044
231,80,125616,2,0,P|152:92|99:108,1,97.4999955368044
321,178,125910,1,0,0:0:0:0:
129,235,126057,1,0,0:0:0:0:
265,66,126204,2,0,P|234:135|229:184,1,97.4999955368044
297,317,126499,6,0,P|353:264|377:229,1,97.4999955368044
184,199,126793,1,0,0:0:0:0:
394,82,126940,2,0,P|419:143|423:177,1,97.4999955368044
218,137,127234,2,0,P|143:122|98:100,1,97.4999955368044
221,262,127528,1,0,0:0:0:0:
360,50,127675,2,0,P|337:123|334:165,1,97.4999955368044
152,52,127969,5,0,0:0:0:0:
131,311,128116,1,0,0:0:0:0:
222,27,128263,5,0,0:0:0:0:
197,339,128410,1,0,0:0:0:0:
288,10,128557,5,0,0:0:0:0:
269,364,128704,1,0,0:0:0:0:
354,0,128851,5,0,0:0:0:0:
338,384,128999,1,0,0:0:0:0:
338,384,129072,1,0,0:0:0:0:
338,384,129146,1,0,0:0:0:0:
98,132,129293,1,0,0:0:0:0:
322,74,129440,5,0,0:0:0:0:
356,120,129513,1,0,0:0:0:0:
359,178,129587,2,0,L|314:232,1,48.7499977684022
202,208,129734,5,0,0:0:0:0:
236,255,129808,1,0,0:0:0:0:
285,285,129881,2,0,L|361:309,1,48.7499977684022
396,332,130028,6,0,L|408:112,1,194.999991073609
443,117,130469,1,0,0:0:0:0:
182,88,130616,2,0,P|129:170|54:240,1,194.999991073609
48,192,131057,1,0,0:0:0:0:
196,299,131204,6,0,B|249:238|289:301|376:206,1,194.999991073609
375,262,131646,1,0,0:0:0:0:
204,66,131793,6,0,L|173:267,1,194.999991073609
140,226,132234,1,0,0:0:0:0:
386,72,132381,5,0,0:0:0:0:
343,104,132454,1,0,0:0:0:0:
289,113,132528,1,0,0:0:0:0:
239,94,132601,1,0,0:0:0:0:
192,79,132675,1,0,0:0:0:0:
145,95,132749,1,0,0:0:0:0:
120,130,132822,1,0,0:0:0:0:
114,173,132896,1,0,0:0:0:0:
128,208,132969,1,0,0:0:0:0:
155,228,133043,1,0,0:0:0:0:
168,253,133116,1,0,0:0:0:0:
159,276,133190,1,0,0:0:0:0:
146,290,133263,1,0,0:0:0:0:
136,301,133337,1,0,0:0:0:0:
122,306,133410,1,0,0:0:0:0:
107,305,133484,1,0,0:0:0:0:
73,305,133557,6,0,L|70:90,1,194.999991073609
31,132,133999,1,0,0:0:0:0:
228,304,134146,6,0,L|219:103,1,194.999991073609
186,134,134587,1,0,0:0:0:0:
409,247,134734,5,0,0:0:0:0:
83,123,134881,1,0,0:0:0:0:
296,62,135028,1,0,0:0:0:0:
138,323,135175,5,0,0:0:0:0:
225,21,135322,1,0,0:0:0:0:
312,189,135469,1,0,0:0:0:0:
75,39,135616,5,0,0:0:0:0:
411,324,135763,1,0,0:0:0:0:
351,79,135910,5,0,0:0:0:0:
63,346,136057,1,0,0:0:0:0:
156,56,136499,6,0,L|373:149,1,225.000008583069
67,87,137087,6,0,P|96:201|142:312,1,225.000008583069
201,46,137528,1,0,0:0:0:0:
43,302,137675,1,0,0:0:0:0:
226,221,137822,2,0,P|258:283|287:319,1,112.500004291535
328,121,138116,1,0,0:0:0:0:
146,273,138263,6,0,P|149:164|176:50,1,225.000008583069
48,180,138704,1,0,0:0:0:0:
272,90,138851,2,0,P|340:148|378:194,1,112.500004291535
210,318,139146,2,0,P|229:234|229:197,1,112.500004291535
292,51,139440,6,0,P|190:40|100:124,1,225.000008583069
298,304,139881,2,0,P|287:229|248:184,1,112.500004291535
124,342,140175,1,0,0:0:0:0:
275,120,140322,2,0,P|342:141|373:167,1,112.500004291535
249,275,140616,6,0,P|145:255|31:204,1,225.000008583069
52,254,141057,1,0,0:0:0:0:
351,58,141204,5,0,0:0:0:0:
269,214,141351,1,0,0:0:0:0:
188,363,141499,1,0,0:0:0:0:
167,129,141646,6,0,P|111:169|49:195,1,112.500004291535
217,232,141940,1,0,0:0:0:0:
93,35,142087,1,0,0:0:0:0:
44,212,142234,2,0,P|110:197|174:206,1,112.500004291535
365,296,142528,5,0,0:0:0:0:
222,140,142675,1,0,0:0:0:0:
406,156,142822,1,0,0:0:0:0:
213,215,142969,6,0,P|150:203|-5:248,1,225.000008583069
39,267,143410,1,0,0:0:0:0:
121,49,143557,2,0,P|190:123|230:145,1,112.500004291535
282,286,143851,2,0,P|212:313|150:318,1,112.500004291535
286,55,144146,5,0,0:0:0:0:
134,342,144293,1,0,0:0:0:0:
99,153,144440,1,0,0:0:0:0:
318,323,144587,5,0,0:0:0:0:
145,50,144734,1,0,0:0:0:0:
376,133,144881,1,0,0:0:0:0:
104,181,145028,5,0,0:0:0:0:
411,123,145175,1,0,0:0:0:0:
277,277,145322,1,0,0:0:0:0:
61,63,145469,6,0,P|66:187|58:315,1,225.000008583069
224,57,145910,5,0,0:0:0:0:
196,99,145984,1,0,0:0:0:0:
182,147,146057,1,0,0:0:0:0:
198,195,146131,1,0,0:0:0:0:
182,242,146204,1,0,0:0:0:0:
177,292,146278,1,0,0:0:0:0:
208,331,146351,1,0,0:0:0:0:
258,327,146425,1,0,0:0:0:0:
303,304,146499,6,0,P|367:228|443:117,1,225.000008583069
460,167,146940,1,0,0:0:0:0:
262,54,147087,2,0,P|218:129|165:186,1,112.500004291535
34,237,147381,2,0,P|98:279|137:294,1,112.500004291535
302,136,147675,6,0,P|309:226|309:269,1,112.500004291535
121,113,147969,1,0,0:0:0:0:
259,245,148116,2,0,P|197:280|144:291,1,112.500004291535
268,92,148410,1,0,0:0:0:0:
325,298,148557,1,0,0:0:0:0:
134,215,148704,1,0,0:0:0:0:
341,146,148851,6,0,P|287:232|244:348,1,225.000008583069
360,254,149293,1,0,0:0:0:0:
217,83,149440,2,0,P|162:148|123:187,1,112.500004291535
117,43,149734,1,0,0:0:0:0:
166,250,149881,1,0,0:0:0:0:
24,136,150028,6,0,P|33:228|20:363,1,225.000008583069
96,240,150469,1,0,0:0:0:0:
254,351,150616,2,0,P|305:278|318:240,1,112.500004291535
70,124,150910,2,0,P|142:174|172:189,1,112.500004291535
423,180,151204,2,0,P|346:175|285:183,1,112.500004291535
97,342,151499,5,0,0:0:0:0:
175,29,151646,1,0,0:0:0:0:
191,370,151793,5,0,0:0:0:0:
205,26,151940,1,0,0:0:0:0:
293,355,152087,5,0,0:0:0:0:
193,36,152234,1,0,0:0:0:0:
430,322,152381,5,0,0:0:0:0:
24,77,152528,1,0,0:0:0:0:
462,248,152675,5,0,0:0:0:0:
13,126,152822,1,0,0:0:0:0:
463,160,152969,5,0,0:0:0:0:
25,96,153116,1,0,0:0:0:0:
405,35,153263,5,0,0:0:0:0:
63,302,153410,1,0,0:0:0:0:
344,30,153557,5,0,0:0:0:0:
254,346,153704,1,0,0:0:0:0:
178,195,153851,1,0,0:0:0:0:
428,333,153999,5,0,0:0:0:0:
69,188,154146,1,0,0:0:0:0:
289,131,154293,1,0,0:0:0:0:
100,328,154440,5,0,0:0:0:0:
226,35,154587,1,0,0:0:0:0:
303,202,154734,1,0,0:0:0:0:
76,53,154881,5,0,0:0:0:0:
441,227,155028,1,0,0:0:0:0:
76,281,155175,1,0,0:0:0:0:
443,167,155322,5,0,0:0:0:0:
390,146,155396,1,0,0:0:0:0:
334,144,155469,1,0,0:0:0:0:
280,161,155543,1,0,0:0:0:0:
228,183,155616,1,0,0:0:0:0:
173,198,155690,1,0,0:0:0:0:
117,196,155763,1,0,0:0:0:0:
67,167,155837,1,0,0:0:0:0:
19,106,155910,6,0,L|26:265,2,150
59,118,156793,1,0,0:0:0:0:
212,243,156940,2,0,P|256:189|303:113,2,150
271,289,157675,5,0,0:0:0:0:
349,219,157822,1,0,0:0:0:0:
400,127,157969,1,0,0:0:0:0:
393,22,158116,1,0,0:0:0:0:
300,81,158263,6,0,P|263:155|206:215,2,150
324,121,159146,1,0,0:0:0:0:
74,98,159293,2,0,L|22:258,2,150
150,280,160028,5,0,0:0:0:0:
170,263,160101,1,0,0:0:0:0:
197,250,160175,1,0,0:0:0:0:
230,249,160249,1,0,0:0:0:0:
264,261,160322,1,0,0:0:0:0:
302,277,160396,1,0,0:0:0:0:
345,268,160469,1,0,0:0:0:0:
377,231,160543,1,0,0:0:0:0:
374,178,160616,6,0,L|262:139,1,93.75
93,197,160910,2,0,P|92:283|81:329,1,93.75
39,66,161204,2,0,P|123:53|173:55,1,93.75
30,193,161499,1,0,0:0:0:0:
223,87,161646,1,0,0:0:0:0:
316,246,161793,6,0,P|235:236|125:242,1,187.5
154,276,162234,1,0,0:0:0:0:
110,78,162381,2,0,P|200:92|231:107,1,93.75
309,304,162675,2,0,P|349:245|366:210,1,93.75
341,53,162969,5,0,0:0:0:0:
218,347,163116,1,0,0:0:0:0:
165,127,163263,1,0,0:0:0:0:
423,262,163410,5,0,0:0:0:0:
57,121,163557,1,0,0:0:0:0:
284,64,163704,1,0,0:0:0:0:
145,330,163851,6,0,P|106:254|75:147,2,187.5
316,66,164734,5,0,0:0:0:0:
293,116,164807,1,0,0:0:0:0:
288,168,164881,1,0,0:0:0:0:
299,215,164954,1,0,0:0:0:0:
324,252,165028,1,0,0:0:0:0:
342,288,165101,1,0,0:0:0:0:
340,325,165175,1,0,0:0:0:0:
315,348,165249,1,0,0:0:0:0:
287,345,165322,6,0,B|205:305|113:335|113:335|171:272|171:191|95:128|32:192|32:272|147:269,1,510.000009727478
113,48,174734,6,0,P|126:155|125:193,1,127.50000243187
346,124,175322,6,0,P|281:138|263:157,1,55.0000016784668
164,186,175518,2,0,P|231:205|257:231,1,55.0000016784668
360,255,175714,2,0,P|310:255|257:279,1,55.0000016784668
120,349,175910,6,0,P|80:278|63:217,1,127.50000243187
192,38,176499,2,0,P|232:109|249:170,1,127.50000243187
312,334,177087,6,0,L|383:211,1,127.50000243187
268,100,177675,6,0,L|349:83,2,63.7500012159348
107,138,178116,1,0,0:0:0:0:
289,214,178263,6,0,P|242:271|196:339,1,127.50000243187
34,124,178851,2,0,P|122:82|172:62,1,127.50000243187
389,50,179440,6,0,P|412:167|415:197,1,127.50000243187
142,320,180028,2,0,P|188:236|205:181,1,127.50000243187
339,88,180616,6,0,P|313:142|276:217,1,127.50000243187
45,80,181204,5,0,0:0:0:0:
56,109,181278,1,0,0:0:0:0:
51,140,181351,1,0,0:0:0:0:
36,168,181425,1,0,0:0:0:0:
25,198,181499,1,0,0:0:0:0:
19,229,181572,1,0,0:0:0:0:
28,259,181646,1,0,0:0:0:0:
46,284,181719,1,0,0:0:0:0:
71,303,181793,6,0,L|202:256,1,127.50000243187
144,62,182381,2,0,P|232:88|275:109,1,127.50000243187
359,309,182969,6,0,P|291:302|217:305,1,127.50000243187
105,125,183557,1,0,0:0:0:0:
293,45,183851,5,0,0:0:0:0:
325,76,183925,1,0,0:0:0:0:
348,114,183999,1,0,0:0:0:0:
356,157,184072,1,0,0:0:0:0:
344,200,184146,6,0,P|283:207|226:205,1,89.9999972534181
59,60,184440,2,0,P|81:120|86:177,1,89.9999972534181
224,200,184734,2,0,P|185:269|162:295,1,89.9999972534181
288,60,185028,5,0,0:0:0:0:
329,94,185101,1,0,0:0:0:0:
353,142,185175,1,0,0:0:0:0:
351,196,185249,1,0,0:0:0:0:
319,239,185322,2,0,P|286:268|255:285,1,44.999998626709
149,321,185469,5,0,0:0:0:0:
102,292,185543,1,0,0:0:0:0:
75,245,185616,1,0,0:0:0:0:
74,190,185690,1,0,0:0:0:0:
100,143,185763,2,0,P|121:127|155:108,1,44.999998626709
248,113,185910,5,0,0:0:0:0:
277,130,186008,2,0,L|305:212,2,59.9999981689454
88,88,186351,6,0,P|163:129|263:164,1,179.999994506836
318,46,186793,1,0,0:0:0:0:
349,70,186866,1,0,0:0:0:0:
365,107,186940,1,0,0:0:0:0:
370,146,187013,1,0,0:0:0:0:
349,181,187087,1,0,0:0:0:0:
343,220,187160,1,0,0:0:0:0:
351,259,187234,6,0,P|282:238|252:238,1,89.9999972534181
128,127,187528,2,0,P|183:123|240:142,1,89.9999972534181
133,323,187822,6,0,B|150:298|150:298|159:290|159:290|159:272|159:272|161:249|139:205,1,89.9999972534181
44,62,188116,6,0,P|131:88|165:83,1,89.9999972534181
139,134,188410,1,0,0:0:0:0:
303,59,188557,6,0,L|323:186,1,89.9999972534181
427,313,188851,5,0,0:0:0:0:
381,284,188924,1,0,0:0:0:0:
328,271,188998,1,0,0:0:0:0:
274,277,189071,1,0,0:0:0:0:
225,303,189146,2,0,P|161:279|152:269,1,44.999998626709
63,188,189293,5,0,0:0:0:0:
115,202,189366,1,0,0:0:0:0:
168,198,189439,1,0,0:0:0:0:
214,170,189513,1,0,0:0:0:0:
242,124,189586,2,0,P|277:83|289:77,1,44.999998626709
411,49,189734,5,0,0:0:0:0:
383,94,189807,1,0,0:0:0:0:
368,146,189881,1,0,0:0:0:0:
387,196,189954,1,0,0:0:0:0:
394,249,190028,2,0,P|372:306|360:318,1,44.999998626709
304,353,190175,5,0,0:0:0:0:
259,321,190249,1,0,0:0:0:0:
208,301,190323,1,0,0:0:0:0:
154,294,190396,1,0,0:0:0:0:
101,305,190469,2,0,P|61:285|46:254,1,44.999998626709
10,145,190616,5,0,0:0:0:0:
59,168,190690,1,0,0:0:0:0:
112,171,190763,1,0,0:0:0:0:
163,152,190837,1,0,0:0:0:0:
202,115,190910,2,0,P|224:96|262:73,1,44.999998626709
368,57,191057,5,0,0:0:0:0:
315,295,191204,2,0,P|232:270|196:264,2,89.9999972534181
320,336,191646,1,0,0:0:0:0:
183,124,191793,2,0,P|226:136|273:157,2,89.9999972534181
191,167,192234,1,0,0:0:0:0:
396,72,192381,6,0,P|417:124|423:163,2,89.9999972534181
360,114,192822,1,0,0:0:0:0:
171,43,192969,2,0,P|167:117|149:230,1,179.999994506836
425,257,193410,5,0,0:0:0:0:
425,257,193484,1,0,0:0:0:0:
425,257,193557,2,0,P|340:234|241:247,1,179.999994506836
195,77,193999,5,0,0:0:0:0:
195,77,194072,1,0,0:0:0:0:
195,77,194146,2,0,P|213:160|220:263,1,179.999994506836
175,225,194587,1,0,0:0:0:0:
355,84,194734,5,0,0:0:0:0:
288,336,194881,1,0,0:0:0:0:
222,181,195028,1,0,0:0:0:0:
407,303,195175,5,0,0:0:0:0:
130,170,195322,1,0,0:0:0:0:
310,135,195469,1,0,0:0:0:0:
167,339,195616,5,0,0:0:0:0:
214,58,195763,1,0,0:0:0:0:
368,239,195910,2,0,P|314:256|177:267,1,179.999994506836
124,54,196351,5,0,0:0:0:0:
124,54,196425,1,0,0:0:0:0:
124,54,196499,2,0,P|76:116|20:219,1,179.999994506836
12,160,196940,1,0,0:0:0:0:
166,279,197087,2,0,P|98:311|61:322,1,89.9999972534181
178,153,197381,5,0,0:0:0:0:
327,260,197528,1,0,0:0:0:0:
331,68,197675,5,0,0:0:0:0:
372,102,197749,1,0,0:0:0:0:
402,146,197822,1,0,0:0:0:0:
415,198,197896,1,0,0:0:0:0:
412,251,197969,1,0,0:0:0:0:
376,292,198043,1,0,0:0:0:0:
328,317,198116,2,0,P|279:332|252:335,1,44.999998626709
147,337,198263,6,0,P|185:220|201:150,1,179.999994506836
395,30,198704,1,0,0:0:0:0:
421,54,198778,1,0,0:0:0:0:
434,86,198851,2,0,P|443:153|444:279,1,179.999994506836
118,321,199293,5,0,0:0:0:0:
92,295,199366,1,0,0:0:0:0:
73,263,199440,2,0,P|54:189|42:138,1,89.9999972534181
185,64,199734,1,0,0:0:0:0:
386,216,199881,1,0,0:0:0:0:
194,262,200028,2,0,B|172:256|172:256|161:246|161:246|145:257|145:257|117:248|79:256,1,89.9999972534181
119,69,200322,5,0,0:0:0:0:
192,324,200469,1,0,0:0:0:0:
282,110,200616,2,0,P|329:160|360:183,1,89.9999972534181
143,176,200910,2,0,P|125:118|129:81,1,89.9999972534181
347,38,201204,5,0,0:0:0:0:
376,78,201278,1,0,0:0:0:0:
378,127,201351,1,0,0:0:0:0:
361,173,201425,1,0,0:0:0:0:
367,222,201499,1,0,0:0:0:0:
384,267,201572,1,0,0:0:0:0:
417,304,201646,1,0,0:0:0:0:
445,344,201719,1,0,0:0:0:0:
396,332,201793,5,0,0:0:0:0:
348,319,201866,1,0,0:0:0:0:
298,312,201940,1,0,0:0:0:0:
249,305,202013,1,0,0:0:0:0:
199,305,202087,1,0,0:0:0:0:
152,319,202160,1,0,0:0:0:0:
107,341,202234,1,0,0:0:0:0:
61,359,202307,1,0,0:0:0:0:
85,315,202381,5,0,0:0:0:0:
104,265,202454,1,0,0:0:0:0:
110,206,202528,1,0,0:0:0:0:
110,147,202601,1,0,0:0:0:0:
129,91,202675,1,0,0:0:0:0:
176,55,202749,1,0,0:0:0:0:
231,39,202822,1,0,0:0:0:0:
289,32,202896,1,0,0:0:0:0:
351,28,202969,6,0,L|293:209,1,179.999994506836
340,195,203410,1,0,0:0:0:0:
87,110,203557,2,0,P|81:181|84:218,1,89.9999972534181
272,298,203851,2,0,P|337:319|381:320,2,59.9999981689454
141,135,204146,6,0,P|105:178|54:208,1,89.9999972534181
341,145,204440,2,0,P|321:76|291:31,1,89.9999972534181
23,67,204734,1,0,0:0:0:0:
272,204,204881,1,0,0:0:0:0:
111,251,205028,1,0,0:0:0:0:
317,54,205175,5,0,0:0:0:0:
317,54,205249,1,0,0:0:0:0:
317,54,205322,2,0,P|365:121|381:153,1,89.9999972534181
290,314,205616,2,0,P|369:335|407:334,1,89.9999972534181
352,64,205910,5,0,0:0:0:0:
96,128,206057,1,0,0:0:0:0:
160,352,206204,1,0,0:0:0:0:
416,288,206351,1,0,0:0:0:0:
271,92,206499,5,0,0:0:0:0:
271,92,206572,1,0,0:0:0:0:
271,92,206646,2,0,B|223:165|314:166|225:263,1,179.999994506836
169,274,207013,1,0,0:0:0:0:
115,239,207087,2,0,P|62:175|38:75,1,179.999994506836
14,112,207528,1,0,0:0:0:0:
192,220,207675,5,0,0:0:0:0:
297,46,207822,1,0,0:0:0:0:
373,266,207969,1,0,0:0:0:0:
149,74,208116,5,0,0:0:0:0:
373,266,208263,1,0,0:0:0:0:
105,314,208410,1,0,0:0:0:0:
339,78,208557,5,0,0:0:0:0:
105,314,208704,1,0,0:0:0:0:
27,39,208851,6,0,P|49:79|83:123,1,89.9999972534181
37,144,209146,1,0,0:0:0:0:
263,32,209293,6,0,P|341:61|379:86,1,89.9999972534181
329,84,209587,1,0,0:0:0:0:
209,166,209734,5,0,0:0:0:0:
423,309,209881,1,0,0:0:0:0:
200,314,210028,2,0,P|114:309|77:313,1,89.9999972534181
135,337,210322,1,0,0:0:0:0:
94,66,210469,5,0,0:0:0:0:
94,66,210543,1,0,0:0:0:0:
94,66,210616,2,0,P|107:130|107:184,1,89.9999972534181
75,134,210910,1,0,0:0:0:0:
349,209,211057,5,0,0:0:0:0:
349,209,211131,1,0,0:0:0:0:
349,209,211204,1,0,0:0:0:0:
53,269,211351,1,0,0:0:0:0:
151,117,211499,1,0,0:0:0:0:
149,341,211646,6,0,B|241:300|242:370|336:324,1,179.999994506836
270,285,212087,1,0,0:0:0:0:
270,285,212234,1,0,0:0:0:0:
112,52,212381,6,0,P|78:138|41:224,1,179.999994506836
22,167,212822,1,0,0:0:0:0:
331,118,212969,1,0,0:0:0:0:
331,118,213116,1,0,0:0:0:0:
141,31,213263,1,0,0:0:0:0:
153,251,213410,5,0,0:0:0:0:
153,251,213484,1,0,0:0:0:0:
153,251,213557,2,0,P|237:239|282:239,1,89.9999972534181
320,58,213851,1,0,0:0:0:0:
355,92,213925,1,0,0:0:0:0:
375,137,213999,1,0,0:0:0:0:
375,186,214072,2,0,L|360:238,1,44.999998626709
302,347,214293,5,0,0:0:0:0:
202,60,214440,1,0,0:0:0:0:
98,203,214587,1,0,0:0:0:0:
344,36,214734,6,0,B|409:123|323:131|391:224,1,179.999994506836
411,172,215175,1,0,0:0:0:0:
156,95,215322,1,0,0:0:0:0:
144,290,215469,2,0,P|194:265|224:233,1,89.9999972534181
392,41,215763,5,0,0:0:0:0:
306,342,215910,2,0,B|225:302|226:368|126:321,1,179.999994506836
69,57,216351,1,0,0:0:0:0:
69,57,216425,1,0,0:0:0:0:
69,57,216499,2,0,P|64:120|40:239,1,179.999994506836
15,196,216940,1,0,0:0:0:0:
275,25,217087,5,0,0:0:0:0:
315,53,217160,1,0,0:0:0:0:
342,94,217234,1,0,0:0:0:0:
355,141,217307,1,0,0:0:0:0:
352,190,217381,1,0,0:0:0:0:
333,235,217454,1,0,0:0:0:0:
307,277,217528,1,0,0:0:0:0:
293,324,217601,1,0,0:0:0:0:
329,357,217675,1,0,0:0:0:0:
377,344,217749,1,0,0:0:0:0:
399,300,217822,1,0,0:0:0:0:
358,271,217896,1,0,0:0:0:0:
310,258,217969,1,0,0:0:0:0:
260,251,218043,1,0,0:0:0:0:
211,245,218116,1,0,0:0:0:0:
162,256,218190,1,0,0:0:0:0:
118,279,218263,5,0,0:0:0:0:
95,234,218337,1,0,0:0:0:0:
93,184,218410,1,0,0:0:0:0:
114,139,218484,1,0,0:0:0:0:
153,110,218557,2,0,P|184:98|216:91,1,44.999998626709
348,42,218704,5,0,0:0:0:0:
325,86,218778,1,0,0:0:0:0:
319,134,218851,1,0,0:0:0:0:
326,183,218925,1,0,0:0:0:0:
350,226,218999,1,0,0:0:0:0:
395,244,219072,1,0,0:0:0:0:
432,210,219146,1,0,0:0:0:0:
439,161,219219,1,0,0:0:0:0:
413,118,219293,2,0,P|373:90|345:80,1,44.999998626709
187,39,219440,5,0,0:0:0:0:
206,84,219513,1,0,0:0:0:0:
208,133,219587,1,0,0:0:0:0:
190,178,219660,1,0,0:0:0:0:
165,221,219734,2,0,P|143:247|123:270,1,44.999998626709
22,344,219881,5,0,0:0:0:0:
70,321,219954,1,0,0:0:0:0:
123,311,220028,1,0,0:0:0:0:
176,313,220101,1,0,0:0:0:0:
228,328,220175,2,0,P|258:335|292:341,1,44.999998626709
423,332,220322,5,0,0:0:0:0:
432,273,220396,1,0,0:0:0:0:
418,216,220469,1,0,0:0:0:0:
397,160,220543,1,0,0:0:0:0:
353,121,220616,2,0,P|340:109|298:81,1,44.999998626709
132,43,220763,5,0,0:0:0:0:
82,82,220837,1,0,0:0:0:0:
47,134,220910,1,0,0:0:0:0:
46,197,220984,1,0,0:0:0:0:
72,253,221057,2,0,P|96:275|133:297,1,44.999998626709
248,328,221204,5,0,0:0:0:0:
314,314,221278,1,0,0:0:0:0:
370,270,221351,1,0,0:0:0:0:
405,201,221425,1,0,0:0:0:0:
401,119,221499,1,0,0:0:0:0:
349,51,221572,1,0,0:0:0:0:
263,22,221646,1,0,0:0:0:0:
169,14,221719,1,0,0:0:0:0:
72,39,221793,1,0,0:0:0:0:
256,192,221866,12,0,223999,0:0:0:0:
103,92,224146,5,0,0:0:0:0:
323,264,224293,1,0,0:0:0:0:
329,66,225322,5,0,0:0:0:0:
177,325,225469,1,0,0:0:0:0:
96,100,226499,5,0,0:0:0:0:
393,284,226646,1,0,0:0:0:0:
247,31,227675,5,0,0:0:0:0:
228,334,227822,1,0,0:0:0:0:
201,149,228851,6,0,P|129:115|64:142,2,150
133,229,229734,2,0,P|202:274|282:241,2,150
317,77,230616,6,0,L|378:315,1,225
98,295,231204,5,0,0:0:0:0:
219,30,231351,1,0,0:0:0:0:
309,163,231499,1,0,0:0:0:0:
53,39,231646,5,0,0:0:0:0:
399,276,231793,1,0,0:0:0:0:
188,266,231940,1,0,0:0:0:0:
345,44,232087,5,0,0:0:0:0:
262,351,232234,1,0,0:0:0:0:
167,170,232381,1,0,0:0:0:0:
256,192,232454,12,0,233557,0:0:0:0:
321,70,234146,6,0,L|432:330,1,255.000004863739
81,88,234734,1,0,0:0:0:0:
164,220,235175,5,0,0:0:0:0:
305,272,235322,2,0,P|207:319|156:337,1,127.50000243187
26,124,235616,2,0,L|169:155,1,127.50000243187
330,38,235910,6,0,B|271:134|419:160|303:298,1,255.000004863739
300,232,236351,1,0,0:0:0:0:
105,86,236499,2,0,L|226:44,1,127.50000243187
393,134,236793,2,0,P|369:193|325:238,1,127.50000243187
9,198,237087,6,0,P|111:263|239:336,1,255.000004863739
206,260,237528,1,0,0:0:0:0:
181,86,237675,2,0,L|324:33,1,127.50000243187
396,231,237969,2,0,L|260:289,1,127.50000243187
64,94,238263,6,0,B|169:170|56:207|225:309,1,255.000004863739
138,290,238704,1,0,0:0:0:0:
253,86,238851,5,0,0:0:0:0:
439,223,238999,1,0,0:0:0:0:
256,309,239146,1,0,0:0:0:0:
334,146,239293,1,0,0:0:0:0:
161,84,239440,6,0,P|103:144|32:307,1,255.000004863739
83,275,239881,1,0,0:0:0:0:
285,94,240028,5,0,0:0:0:0:
411,274,240175,1,0,0:0:0:0:
219,213,240322,1,0,0:0:0:0:
219,213,240469,1,0,0:0:0:0:
385,46,240616,6,0,B|446:140|328:154|376:309,1,255.000004863739
64,142,241057,2,0,L|212:117,1,127.50000243187
249,306,241351,2,0,P|156:263|95:252,1,127.50000243187
311,123,241646,1,0,0:0:0:0:
148,355,241793,5,0,0:0:0:0:
222,19,241940,1,0,0:0:0:0:
382,201,242087,1,0,0:0:0:0:
110,74,242234,5,0,0:0:0:0:
467,316,242381,1,0,0:0:0:0:
225,295,242528,1,0,0:0:0:0:
334,40,242675,5,0,0:0:0:0:
274,351,242822,1,0,0:0:0:0:
186,126,242969,2,0,P|99:88|104:207,1,255.000004863739
127,148,243557,5,0,0:0:0:0:
175,179,243631,1,0,0:0:0:0:
231,183,243704,1,0,0:0:0:0:
283,159,243778,1,0,0:0:0:0:
331,129,243851,1,0,0:0:0:0:
388,138,243925,1,0,0:0:0:0:
422,184,243999,2,0,P|441:220|451:265,1,63.7500012159348
493,358,244146,6,0,L|240:321,1,255.000004863739
274,284,244587,1,0,0:0:0:0:
179,78,244734,2,0,P|112:120|79:161,1,127.50000243187
397,288,245028,2,0,P|317:275|241:242,1,127.50000243187
89,251,245322,6,0,B|94:136|185:143|198:21,1,255.000004863739
145,53,245763,1,0,0:0:0:0:
371,181,245910,2,0,P|429:82|440:51,1,127.50000243187
422,348,246204,2,0,P|334:362|274:353,1,127.50000243187
98,120,246499,6,0,L|18:363,2,255.000004863739
47,147,247234,1,0,0:0:0:0:
279,31,247381,2,0,P|329:89|342:136,1,127.50000243187
245,380,247675,2,0,P|195:303|194:244,1,127.50000243187
90,67,247969,6,0,P|178:44|229:45,1,127.50000243187
380,337,248263,2,0,P|428:252|445:197,1,127.50000243187
149,163,248557,2,0,P|229:95|282:71,1,127.50000243187
36,65,248851,2,0,P|42:159|76:218,1,127.50000243187
118,9,249146,5,0,0:0:0:0:
34,361,249293,1,0,0:0:0:0:
277,41,249440,5,0,0:0:0:0:
62,366,249587,1,0,0:0:0:0:
429,169,249734,5,0,0:0:0:0:
87,376,249881,1,0,0:0:0:0:
32,248,250028,5,0,0:0:0:0:
469,370,250175,1,0,0:0:0:0:
80,139,250322,5,0,0:0:0:0:
467,350,250469,1,0,0:0:0:0:
167,50,250616,5,0,0:0:0:0:
481,324,250763,1,0,0:0:0:0:
256,0,250910,5,0,0:0:0:0:
501,314,251057,1,0,0:0:0:0:
173,333,251204,5,0,0:0:0:0:
318,25,251351,1,0,0:0:0:0:
380,220,251499,1,0,0:0:0:0:
88,32,251646,5,0,0:0:0:0:
415,241,251793,1,0,0:0:0:0:
194,256,251940,1,0,0:0:0:0:
334,37,252087,5,0,0:0:0:0:
163,352,252234,1,0,0:0:0:0:
115,138,252381,1,0,0:0:0:0:
417,340,252528,5,0,0:0:0:0:
42,198,252675,1,0,0:0:0:0:
311,102,252822,1,0,0:0:0:0:
25,52,252969,5,0,0:0:0:0:
82,93,253043,1,0,0:0:0:0:
128,145,253116,1,0,0:0:0:0:
182,190,253190,1,0,0:0:0:0:
245,219,253263,1,0,0:0:0:0:
314,230,253337,1,0,0:0:0:0:
379,207,253410,1,0,0:0:0:0:
414,149,253484,1,0,0:0:0:0:
435,69,253557,6,0,L|488:211,2,150
354,153,254440,1,0,0:0:0:0:
94,61,254587,2,0,P|58:118|41:203,2,150
147,157,255322,5,0,0:0:0:0:
176,241,255469,1,0,0:0:0:0:
242,301,255616,1,0,0:0:0:0:
329,321,255763,1,0,0:0:0:0:
333,169,255910,6,0,L|446:279,2,150
396,162,256793,1,0,0:0:0:0:
129,78,256940,2,0,P|81:152|52:219,2,150
308,52,257675,5,0,0:0:0:0:
342,81,257749,1,0,0:0:0:0:
364,119,257822,1,0,0:0:0:0:
378,162,257896,1,0,0:0:0:0:
382,206,257969,1,0,0:0:0:0:
372,250,258043,1,0,0:0:0:0:
348,288,258116,2,0,P|314:318|293:330,1,37.5
166,340,258263,6,0,P|184:269|187:224,1,93.75
325,235,258557,1,0,0:0:0:0:
112,38,258704,2,0,P|94:109|91:154,1,93.75
376,68,258999,2,0,P|310:98|269:107,1,93.75
416,215,259293,1,0,0:0:0:0:
174,73,259440,6,0,B|189:144|138:156|181:256,1,187.5
221,217,259881,1,0,0:0:0:0:
36,107,260028,2,0,P|17:179|14:227,1,93.75
289,121,260322,2,0,P|205:152|167:157,1,93.75
112,305,260616,5,0,0:0:0:0:
205,27,260763,1,0,0:0:0:0:
294,165,260910,1,0,0:0:0:0:
74,50,261057,5,0,0:0:0:0:
340,247,261204,1,0,0:0:0:0:
176,238,261351,1,0,0:0:0:0:
283,28,261499,6,0,P|315:94|409:182,2,187.5
41,56,262381,5,0,0:0:0:0:
62,91,262454,1,0,0:0:0:0:
73,131,262528,1,0,0:0:0:0:
61,171,262601,1,0,0:0:0:0:
45,215,262675,1,0,0:0:0:0:
55,260,262749,1,0,0:0:0:0:
88,287,262822,2,0,P|105:296|134:305,1,46.875
384,311,262969,5,0,0:0:0:0:
214,117,263116,1,0,0:0:0:0:
384,311,263263,1,0,0:0:0:0:
214,117,263410,1,0,0:0:0:0:
81,154,263851,5,0,0:0:0:0:
369,195,263999,1,0,0:0:0:0:
81,154,264146,1,0,0:0:0:0:
369,195,264293,1,0,0:0:0:0:
329,47,264734,5,0,0:0:0:0:
223,298,264881,1,0,0:0:0:0:
329,47,265028,1,0,0:0:0:0:
223,298,265175,1,0,0:0:0:0:
156,98,265322,5,0,0:0:0:0:
372,289,265469,1,0,0:0:0:0:
156,98,265616,1,0,0:0:0:0:
372,289,265763,1,0,0:0:0:0:
98,239,266204,5,0,0:0:0:0:
351,74,266351,1,0,0:0:0:0:
98,239,266499,1,0,0:0:0:0:
351,74,266646,1,0,0:0:0:0:
228,77,267087,5,0,0:0:0:0:
174,336,267234,1,0,0:0:0:0:
228,77,267381,1,0,0:0:0:0:
174,336,267528,1,0,0:0:0:0:
113,122,267675,5,0,0:0:0:0:
367,193,267822,1,0,0:0:0:0:
113,122,267969,1,0,0:0:0:0:
367,193,268116,1,0,0:0:0:0:
160,228,268557,5,0,0:0:0:0:
357,43,268704,1,0,0:0:0:0:
160,228,268851,1,0,0:0:0:0:
357,43,268999,1,0,0:0:0:0:
400,314,269440,5,0,0:0:0:0:
237,82,269587,1,0,0:0:0:0:
400,314,269734,1,0,0:0:0:0:
237,82,269881,1,0,0:0:0:0:
251,239,270028,6,0,P|239:288|224:315,2,56.2500021457673
159,155,270469,1,0,0:0:0:0:
159,155,270763,1,0,0:0:0:0:
159,155,271057,1,0,0:0:0:0:
256,192,271131,12,0,272381,0:0:0:0:
