osu file format v14

[General]
AudioFilename: audio.mp3
AudioLeadIn: 0
PreviewTime: 49550
Countdown: 0
SampleSet: Soft
StackLeniency: 0.7
Mode: 0
LetterboxInBreaks: 0
WidescreenStoryboard: 1

[Editor]
DistanceSpacing: 1
BeatDivisor: 4
GridSize: 4
TimelineZoom: 2.999999

[Metadata]
Title:I got it! (TV Size)
TitleUnicode:I got it! (TV Size)
Artist:Mia REGINA
ArtistUnicode:Mia REGINA
Creator:kunka
Version:Easy
Source:天晴爛漫!
Tags:op opening jrock j_rock anime japanese APPARE RANMAN! Hazu- Kowari Akitoshi Corinn -Laura- HabiHolic kunkakunkakunkakunka
BeatmapID:2435982
BeatmapSetID:1164305

[Difficulty]
HPDrainRate:3
CircleSize:3
OverallDifficulty:4
ApproachRate:4
SliderMultiplier:0.899999999999999
SliderTickRate:1

[Events]
//Background and Video events
Video,-237,"I got it!.mp4"
0,0,"BG.jpg",0,0
//Break Periods
//Storyboard Layer 0 (Background)
//Storyboard Layer 1 (Fail)
//Storyboard Layer 2 (Pass)
//Storyboard Layer 3 (Foreground)
//Storyboard Layer 4 (Overlay)
//Storyboard Sound Samples

[TimingPoints]
350,300,4,2,1,50,1,0
5150,-100,4,2,1,60,0,0
8150,-100,4,2,1,45,0,0
8750,-100,4,2,1,55,0,0
9950,-100,4,2,1,70,0,0
19550,-100,4,2,1,60,0,0
26900,-100,4,2,1,80,0,0
27350,-100,4,2,1,75,0,0
27800,-100,4,2,1,70,0,0
28250,-100,4,2,1,65,0,0
28700,-100,4,2,1,60,0,0
29450,-100,4,2,1,70,0,0
29600,-100,4,2,1,60,0,0
38750,-100,4,2,1,50,0,0
43550,-100,4,2,1,60,0,0
48350,-100,4,2,1,50,0,0
49550,-100,4,2,1,70,0,1
59150,-100,4,2,1,80,0,1
63950,-100,4,2,1,70,0,1
68750,-100,4,2,1,60,0,1
70250,-100,4,2,1,60,0,0
71150,-100,4,2,1,50,0,0
72950,-100,4,2,1,70,0,0
80900,-100,4,2,1,80,0,0
81350,-100,4,2,1,75,0,0
81800,-100,4,2,1,70,0,0
82250,-100,4,2,1,65,0,0
84350,-100,4,2,1,60,0,0
85550,-100,4,2,1,50,0,0
86750,-100,4,2,1,40,0,0
87650,-100,4,2,1,50,0,0

[Colours]
Combo1 : 255,128,255
Combo2 : 128,255,128
Combo3 : 128,255,255
Combo4 : 255,128,128
Combo5 : 255,255,128

[HitObjects]
384,46,350,6,0,B|319:19|256:15|256:15|209:35,1,180,2|0,1:0|0:0,0:0:0:0:
130,70,1250,1,2,0:0:0:0:
91,151,1550,2,0,B|107:191|107:191|79:279|79:279|95:323,1,180,2|0,0:0|0:0,0:0:0:0:
167,373,2450,1,2,0:0:0:0:
243,325,2750,6,0,B|283:309|283:309|371:337|371:337|412:321,1,180,2|0,0:0|0:0,0:0:0:0:
466,249,3650,1,2,0:0:0:0:
432,165,3950,2,0,P|347:156|281:216,1,180,2|0,0:0|0:0,0:0:0:0:
236,294,4850,1,2,0:0:0:0:
150,266,5150,6,0,L|57:260,2,89.9999999999999,4|0|2,1:0|1:0|1:0,0:0:0:0:
196,186,6050,1,0,1:0:0:0:
242,109,6350,2,0,L|335:103,2,89.9999999999999,2|0|2,1:0|1:0|1:0,0:0:0:0:
196,29,7250,1,0,1:0:0:0:
256,192,7550,12,10,8750,1:0:0:0:
67,361,9950,6,0,P|57:315|54:271,1,89.9999999999999,4|10,1:0|0:0,0:0:0:0:
74,183,10550,2,0,P|116:164|166:170,1,89.9999999999999,2|10,0:0|0:0,0:0:0:0:
244,138,11150,2,0,P|240:93|231:49,2,89.9999999999999,0|10|2,0:0|0:0|1:0,0:0:0:0:
231,226,12050,1,10,0:0:0:0:
306,274,12350,6,0,P|352:284|396:287,1,89.9999999999999,2|10,1:0|0:0,0:0:0:0:
473,245,12950,2,0,B|495:208|498:158|498:158|476:121,1,135,2|2,0:0|1:0,0:0:0:0:
409,59,13700,2,0,P|340:51|280:81,1,135,12|12,0:0|0:0,0:0:0:0:
103,92,14750,6,0,P|96:138|96:182,1,89.9999999999999,4|10,1:0|0:0,0:0:0:0:
171,231,15350,2,0,P|213:221|260:230,1,89.9999999999999,2|10,0:0|0:0,0:0:0:0:
332,281,15950,2,0,P|325:327|325:371,2,89.9999999999999,0|10|2,0:0|0:0|0:0,0:0:0:0:
418,254,16850,1,10,0:0:0:0:
465,177,17150,6,0,P|468:132|449:92,1,89.9999999999999,2|10,1:0|0:0,0:0:0:0:
372,45,17750,2,0,P|305:40|251:77,1,135,2|2,0:0|1:0,0:0:0:0:
182,135,18500,2,0,P|119:158|55:136,1,135,10|10,0:0|0:0,0:0:0:0:
29,315,19550,6,0,P|72:313|119:328,1,89.9999999999999,4|10,1:0|0:0,0:0:0:0:
201,356,20150,2,0,P|244:304|241:235,1,135,2|2,0:0|1:0,0:0:0:0:
189,168,20900,1,2,1:0:0:0:
127,102,21200,2,0,B|138:34|138:34|202:13,1,135,2|10,1:0|0:0,0:0:0:0:
292,7,21950,6,0,P|334:8|382:19,1,89.9999999999999,2|8,1:0|0:0,0:0:0:0:
451,77,22550,2,0,P|456:142|426:205,1,135,2|2,1:0|1:0,0:0:0:0:
339,224,23300,1,2,1:0:0:0:
249,209,23600,2,0,B|206:201|206:201|162:217|162:217|118:209,1,135,2|8,1:0|0:0,0:0:0:0:
106,298,24350,6,0,L|199:316,1,89.9999999999999,12|8,1:0|0:0,0:0:0:0:
277,350,24950,2,0,P|346:363|403:332,1,135,10|2,0:3|1:0,0:0:0:0:
469,275,25700,1,2,1:0:0:0:
452,186,26000,2,0,B|424:122|488:122|452:58,1,135,2|10,1:0|0:3,0:0:0:0:
320,35,26900,6,0,B|230:27|230:27|199:62,1,135,12|12,0:0|0:0,0:0:0:0:
206,195,27800,2,0,B|296:203|296:203|327:168,1,135,12|12,0:0|0:0,0:0:0:0:
320,35,28700,2,0,P|387:20|449:54,1,135,8|10,0:0|0:0,0:0:0:0:
483,129,29450,6,0,P|486:174|476:223,1,89.9999999999999,12|0,0:0|1:0,0:0:0:0:
454,304,30050,1,10,0:0:0:0:
364,295,30350,2,0,B|324:307|324:307|232:283|232:283|190:294,1,180,2|2,1:0|1:0,0:0:0:0:
105,325,31250,1,10,0:0:0:0:
24,283,31550,6,0,L|32:189,1,89.9999999999999,2|10,1:0|0:0,0:0:0:0:
121,191,32150,2,0,L|129:97,1,89.9999999999999,2|10,1:0|0:0,0:0:0:0:
197,43,32750,1,2,1:0:0:0:
281,74,33050,1,10,0:0:0:0:
365,104,33350,1,2,1:0:0:0:
401,280,33950,6,0,P|390:325|401:370,2,89.9999999999999,2|10|2,1:0|0:0|1:0,0:0:0:0:
437,197,34850,1,10,0:0:0:0:
478,117,35150,2,0,P|489:72|478:27,2,89.9999999999999,2|10|2,1:0|0:0|1:0,0:0:0:0:
437,197,36050,1,10,0:0:0:0:
349,176,36350,5,4,1:0:0:0:
185,250,36950,1,4,1:0:0:0:
18,182,37550,1,2,1:0:0:0:
66,106,37850,1,12,0:0:0:0:
152,80,38150,2,0,P|197:82|240:96,1,89.9999999999999,8|8,0:0|0:3,0:0:0:0:
286,173,38750,6,0,P|272:259|325:329,1,180,2|2,1:0|1:0,0:0:0:0:
412,350,39650,1,2,1:0:0:0:
484,296,39950,2,0,P|497:209|444:139,1,180,0|0,1:0|1:0,0:0:0:0:
304,26,41150,6,0,L|211:46,1,89.9999999999999,2|2,1:0|1:0,0:0:0:0:
164,118,41750,2,0,B|183:206|183:206|161:252,1,135,2|2,1:0|0:0,0:0:0:0:
84,288,42500,1,2,0:0:0:0:
28,217,42800,2,0,B|8:128|8:128|30:82,1,135,2|4,0:0|1:0,0:0:0:0:
107,47,43550,6,0,B|192:76|192:76|276:44,1,180,10|10,1:0|1:0,0:0:0:0:
363,23,44450,1,10,1:0:0:0:
443,63,44750,2,0,B|472:148|472:148|440:232,1,180,8|10,1:0|1:0,0:0:0:0:
400,313,45650,1,8,1:0:0:0:
316,278,45950,6,0,P|274:269|220:275,1,89.9999999999999,10|10,1:0|1:0,0:0:0:0:
137,269,46550,2,0,L|129:177,1,89.9999999999999,10|10,1:0|1:0,0:0:0:0:
256,192,47150,12,2,48350,1:0:0:0:
280,284,49550,6,0,P|195:305|120:258,1,180,4|2,1:0|1:0,0:0:0:0:
94,172,50450,1,10,0:0:0:0:
153,104,50750,2,0,P|195:91|242:84,1,89.9999999999999,2|10,1:0|0:0,0:0:0:0:
313,31,51350,2,0,P|357:37|400:50,1,89.9999999999999,2|10,1:0|0:0,0:0:0:0:
470,106,51950,6,0,B|489:147|489:193|489:193|476:245|443:284,1,180,2|2,1:0|1:0,0:0:0:0:
368,309,52850,1,10,0:0:0:0:
293,259,53150,2,0,P|278:216|285:171,1,89.9999999999999,2|10,1:0|0:0,0:0:0:0:
328,94,53750,2,0,P|334:49|319:7,2,89.9999999999999,2|10|2,1:0|0:0|1:0,0:0:0:0:
156,39,54950,6,0,P|109:38|66:43,1,89.9999999999999,2|10,1:0|0:0,0:0:0:0:
69,133,55550,2,0,P|113:127|158:129,1,89.9999999999999,2|10,1:0|0:0,0:0:0:0:
161,219,56150,2,0,P|114:218|71:223,1,89.9999999999999,2|10,1:0|0:0,0:0:0:0:
47,310,56750,6,0,P|114:369|199:349,1,180,2|8,1:0|0:0,0:0:0:0:
376,339,57950,2,0,P|366:248|347:161,1,180,10|8,0:3|0:0,0:0:0:0:
316,76,58850,1,8,0:0:0:0:
237,31,59150,6,0,B|149:11|149:11|58:57,1,180,4|2,1:0|1:0,0:0:0:0:
18,127,60050,1,10,0:0:0:0:
17,216,60350,2,0,P|18:262|31:314,1,89.9999999999999,2|10,1:0|0:0,0:0:0:0:
100,358,60950,2,0,P|144:356|188:346,1,89.9999999999999,2|10,1:0|0:0,0:0:0:0:
277,333,61550,6,0,B|328:334|365:352|365:352|397:327|446:311,1,180,2|2,1:0|1:0,0:0:0:0:
490,233,62450,1,10,0:0:0:0:
423,172,62750,2,0,P|337:151|260:202,1,180,2|2,1:0|1:0,0:0:0:0:
85,155,63950,6,0,B|77:65|77:65|112:34,1,135,4|10,1:0|0:0,0:0:0:0:
227,103,64850,2,0,B|235:193|235:193|200:224,1,135,4|10,1:0|0:0,0:0:0:0:
85,291,65750,2,0,P|39:285|-1:299,2,89.9999999999999,2|10|4,1:0|1:0|1:0,0:0:0:0:
165,331,66650,6,0,P|211:337|251:323,1,89.9999999999999,10|2,0:0|1:0,0:0:0:0:
304,249,67250,2,0,B|332:181|280:181|304:113,1,135,10|2,0:0|0:0,0:0:0:0:
353,43,68000,2,0,P|414:27|473:61,1,135,2|8,0:0|0:0,0:0:0:0:
487,150,68750,6,0,B|495:240|495:240|460:271,1,135,12|10,1:0|0:0,0:0:0:0:
327,253,69650,2,0,B|319:163|319:163|354:132,1,135,12|10,0:0|0:0,0:0:0:0:
476,41,71150,5,12,1:0:0:0:
442,217,71750,1,10,1:0:0:0:
266,179,72350,1,12,1:0:0:0:
300,3,72950,1,12,0:0:0:0:
130,62,73550,6,0,P|119:106|130:152,1,89.9999999999999,4|10,1:0|0:0,0:0:0:0:
192,212,74150,2,0,L|288:203,1,89.9999999999999,2|10,0:0|0:0,0:0:0:0:
369,220,74750,2,0,P|380:264|369:310,2,89.9999999999999,0|10|2,0:0|0:0|0:0,0:0:0:0:
340,134,75650,1,10,0:0:0:0:
275,70,75950,6,0,L|185:78,1,89.9999999999999,2|10,1:0|0:0,0:0:0:0:
103,114,76550,2,0,B|76:147|67:196|67:196|84:235,1,135,2|2,0:0|1:0,0:0:0:0:
152,296,77300,2,0,P|242:295|286:311,1,135,12|12,0:0|1:0,0:0:0:0:
430,205,78350,6,0,P|453:167|458:122,1,89.9999999999999,12|10,1:0|0:0,0:0:0:0:
373,92,78950,2,0,P|349:129|344:174,1,89.9999999999999,10|8,0:0|0:0,0:0:0:0:
300,252,79550,2,0,P|312:294|319:347,2,89.9999999999999,8|8|10,0:0|0:0|0:0,0:0:0:0:
235,188,80450,1,10,0:0:0:0:
100,195,80900,6,0,B|15:225|15:225|1:270,1,135,12|12,0:0|0:0,0:0:0:0:
87,373,81800,2,0,B|171:342|171:342|185:297,1,135,12|12,0:0|0:0,0:0:0:0:
200,209,82550,6,0,B|212:165|212:165|189:126|189:126|200:81,1,135,10|10,0:3|0:0,0:0:0:0:
392,99,84350,1,4,1:0:0:0:
256,192,84500,12,8,87650,1:0:0:0:
