osu file format v14

[General]
AudioFilename: audio.mp3
AudioLeadIn: 0
PreviewTime: 49550
Countdown: 0
SampleSet: Soft
StackLeniency: 0.7
Mode: 0
LetterboxInBreaks: 0
WidescreenStoryboard: 0

[Editor]
DistanceSpacing: 1
BeatDivisor: 4
GridSize: 4
TimelineZoom: 2.999999

[Metadata]
Title:I got it! (TV Size)
TitleUnicode:I got it! (TV Size)
Artist:Mia REGINA
ArtistUnicode:Mia REGINA
Creator:kunka
Version:Crazy Racer
Source:天晴爛漫!
Tags:op opening jrock j_rock anime japanese APPARE RANMAN! Hazu- Kowari Akitoshi Corinn -Laura- HabiHolic kunkakunkakunkakunka
BeatmapID:2428752
BeatmapSetID:1164305

[Difficulty]
HPDrainRate:6
CircleSize:4.5
OverallDifficulty:8.8
ApproachRate:9.4
SliderMultiplier:1.7
SliderTickRate:1

[Events]
//Background and Video events
Video,-237,"I got it!.mp4"
0,0,"BG.jpg",0,0
//Break Periods
//Storyboard Layer 0 (Background)
//Storyboard Layer 1 (Fail)
//Storyboard Layer 2 (Pass)
//Storyboard Layer 3 (Foreground)
//Storyboard Layer 4 (Overlay)
//Storyboard Sound Samples

[TimingPoints]
350,300,4,2,1,50,1,0
350,-125,4,2,1,50,0,0
5150,-105.263157894737,4,2,1,60,0,0
8150,-105.263157894737,4,2,1,45,0,0
8750,-105.263157894737,4,2,1,55,0,0
9500,-200,4,2,1,60,0,0
9950,-90.9090909090909,4,2,1,70,0,0
19550,-100,4,2,1,60,0,0
26900,-83.3333333333333,4,2,1,80,0,0
27125,-83.3333333333333,4,2,1,5,0,0
27200,-83.3333333333333,4,2,1,80,0,0
27350,-86.9565217391304,4,2,1,75,0,0
27800,-90.9090909090909,4,2,1,70,0,0
28025,-90.9090909090909,4,2,1,5,0,0
28100,-90.9090909090909,4,2,1,70,0,0
28250,-95.2380952380952,4,2,1,65,0,0
28700,-100,4,2,1,60,0,0
29450,-83.3333333333333,4,2,1,70,0,0
29600,-100,4,2,1,60,0,0
33950,-111.111111111111,4,2,1,60,0,0
34175,-111.111111111111,4,2,1,5,0,0
34250,-90.9090909090909,4,2,1,60,0,0
34475,-90.9090909090909,4,2,1,5,0,0
34550,-111.111111111111,4,2,1,60,0,0
34775,-111.111111111111,4,2,1,5,0,0
34850,-90.9090909090909,4,2,1,60,0,0
35075,-90.9090909090909,4,2,1,5,0,0
35150,-111.111111111111,4,2,1,60,0,0
35375,-111.111111111111,4,2,1,5,0,0
35450,-90.9090909090909,4,2,1,60,0,0
35675,-90.9090909090909,4,2,1,5,0,0
35750,-111.111111111111,4,2,1,60,0,0
35975,-111.111111111111,4,2,1,5,0,0
36050,-90.9090909090909,4,2,1,60,0,0
36275,-90.9090909090909,4,2,1,5,0,0
36350,-100,4,2,1,60,0,0
37775,-100,4,2,1,5,0,0
37850,-100,4,2,1,60,0,0
38750,-111.111111111111,4,2,1,50,0,0
43550,-100,4,2,1,60,0,0
43775,-100,4,2,1,5,0,0
43850,-100,4,2,1,60,0,0
48350,-200,4,2,1,50,0,0
49250,-100,4,2,1,60,0,0
49550,-90.9090909090909,4,2,1,70,0,1
49775,-90.9090909090909,4,2,1,5,0,1
49850,-90.9090909090909,4,2,1,70,0,1
59150,-83.3333333333333,4,2,1,80,0,1
59375,-83.3333333333333,4,2,1,5,0,1
59450,-83.3333333333333,4,2,1,80,0,1
63950,-90.9090909090909,4,2,1,70,0,1
64175,-90.9090909090909,4,2,1,5,0,1
64250,-90.9090909090909,4,2,1,70,0,1
65075,-90.9090909090909,4,2,1,5,0,1
65150,-90.9090909090909,4,2,1,70,0,1
68750,-90.9090909090909,4,2,1,60,0,1
68975,-90.9090909090909,4,2,1,5,0,1
69050,-90.9090909090909,4,2,1,60,0,1
69875,-90.9090909090909,4,2,1,5,0,1
69950,-90.9090909090909,4,2,1,60,0,1
70250,-90.9090909090909,4,2,1,60,0,0
71150,-100,4,2,1,50,0,0
72950,-83.3333333333333,4,2,1,70,0,0
73100,-200,4,2,1,60,0,0
73550,-90.9090909090909,4,2,1,70,0,0
80900,-83.3333333333333,4,2,1,80,0,0
81125,-83.3333333333333,4,2,1,5,0,0
81200,-83.3333333333333,4,2,1,80,0,0
81350,-86.9565217391304,4,2,1,75,0,0
81575,-86.9565217391304,4,2,1,5,0,0
81650,-86.9565217391304,4,2,1,75,0,0
81800,-90.9090909090909,4,2,1,70,0,0
82025,-90.9090909090909,4,2,1,5,0,0
82100,-90.9090909090909,4,2,1,70,0,0
82250,-95.2380952380952,4,2,1,65,0,0
83750,-111.111111111111,4,2,1,65,0,0
84350,-100,4,2,1,60,0,0
85550,-100,4,2,1,50,0,0
86750,-100,4,2,1,40,0,0
87650,-100,4,2,1,50,0,0

[Colours]
Combo1 : 255,128,255
Combo2 : 128,255,128
Combo3 : 128,255,255
Combo4 : 255,128,128
Combo5 : 255,255,128

[HitObjects]
230,310,200,5,2,0:0:0:0:
230,310,275,1,2,0:0:0:0:
230,310,350,6,0,B|262:298|262:298|330:310|330:310|362:298,1,136,2|0,1:0|0:0,0:0:0:0:
399,285,725,1,0,0:0:0:0:
404,283,800,2,0,P|399:250|389:213,1,68,2|0,0:0|0:0,0:0:0:0:
316,97,1100,2,0,P|317:81|323:62,1,34,2|0,0:0|0:0,0:0:0:0:
226,97,1250,1,2,0:0:0:0:
228,102,1325,1,2,0:0:0:0:
230,107,1400,1,2,0:0:0:0:
232,112,1475,1,2,0:0:0:0:
234,117,1550,6,0,P|225:149|220:183,1,68,2|0,0:0|0:0,0:0:0:0:
214,224,1775,1,0,0:0:0:0:
212,229,1850,1,0,0:0:0:0:
361,216,2000,2,0,P|365:232|367:249,1,34,2|0,0:0|0:0,0:0:0:0:
371,290,2150,1,0,0:0:0:0:
243,354,2300,1,2,0:0:0:0:
105,322,2450,1,2,0:0:0:0:
64,164,2600,1,2,0:0:0:0:
62,159,2675,1,2,0:0:0:0:
60,154,2750,6,0,P|54:120|46:87,1,68,2|0,0:0|0:0,0:0:0:0:
166,11,3050,1,0,0:0:0:0:
242,129,3200,2,0,P|233:161|228:195,1,68,2|0,0:0|0:0,0:0:0:0:
393,209,3500,2,0,P|391:192|386:175,1,34,2|0,0:0|0:0,0:0:0:0:
403,73,3650,1,2,0:0:0:0:
401,68,3725,1,2,0:0:0:0:
399,63,3800,1,2,0:0:0:0:
397,58,3875,1,2,0:0:0:0:
395,53,3950,6,0,P|361:58|328:66,1,68,2|0,0:0|0:0,0:0:0:0:
288,78,4175,1,0,0:0:0:0:
283,78,4250,1,0,0:0:0:0:
150,134,4400,2,0,P|133:129|116:127,1,34,2|0,0:0|0:0,0:0:0:0:
76,128,4550,1,0,0:0:0:0:
97,258,4700,1,2,0:0:0:0:
102,256,4775,1,2,0:0:0:0:
107,254,4850,1,2,0:0:0:0:
271,231,5000,1,0,1:0:0:0:
271,231,5075,1,0,1:0:0:0:
271,231,5150,6,0,P|266:192|280:149,1,80.7499978437424,4|0,1:0|0:0,0:0:0:0:
433,169,5450,2,0,P|438:208|424:251,1,80.7499978437424,0|0,1:0|0:0,0:0:0:0:
176,269,5750,2,0,L|96:257,1,80.7499978437424,2|0,1:0|0:0,0:0:0:0:
118,100,6050,2,0,L|198:112,1,80.7499978437424,0|0,1:0|0:0,0:0:0:0:
351,309,6350,6,0,P|346:270|360:227,1,80.7499978437424,2|0,1:0|0:0,0:0:0:0:
449,106,6650,2,0,P|454:67|440:24,1,80.7499978437424,0|0,1:0|0:0,0:0:0:0:
248,21,6950,2,0,L|168:33,1,80.7499978437424,2|0,1:0|0:0,0:0:0:0:
190,190,7250,2,0,L|270:178,1,80.7499978437424,0|0,1:0|0:0,0:0:0:0:
66,136,7550,5,2,1:0:0:0:
142,270,7700,1,0,0:0:0:0:
217,102,7850,1,0,1:0:0:0:
34,227,8000,1,0,0:0:0:0:
247,332,8150,6,0,P|267:327|290:326,1,40.3749989218712,8|0,1:0|0:0,0:0:0:0:
383,355,8300,1,8,0:0:0:0:
387,314,8375,1,8,0:0:0:0:
392,274,8450,1,10,1:0:0:0:
396,234,8525,1,8,0:0:0:0:
401,194,8600,1,8,0:0:0:0:
143,298,8750,5,10,1:0:0:0:
111,293,9500,5,2,0:0:0:0:
21,235,9650,1,2,0:0:0:0:
16,341,9800,1,2,0:0:0:0:
254,307,9950,6,0,P|303:299|350:315,1,93.5000028533936,4|0,1:0|1:0,0:0:0:0:
203,191,10250,2,0,P|154:199|107:183,1,93.5000028533936,10|0,0:0|0:0,0:0:0:0:
307,18,10550,1,2,0:0:0:0:
400,146,10700,2,0,P|398:190|390:238,1,93.5000028533936,2|10,1:0|0:0,0:0:0:0:
102,93,11000,6,0,P|103:137|112:185,1,93.5000028533936,2|0,1:0|0:0,0:0:0:0:
254,307,11300,2,0,P|209:308|162:317,1,93.5000028533936,2|10,1:0|0:0,0:0:0:0:
253,79,11600,1,2,1:0:0:0:
173,238,11750,1,2,1:0:0:0:
400,107,11900,1,2,1:0:0:0:
421,147,11975,1,0,1:0:0:0:
417,192,12050,1,10,0:0:0:0:
207,223,12200,1,2,1:0:0:0:
410,342,12350,6,0,P|361:334|314:350,1,93.5000028533936,2|0,1:0|1:0,0:0:0:0:
126,307,12650,2,0,P|175:315|222:299,1,93.5000028533936,10|0,0:0|0:0,0:0:0:0:
161,43,12950,1,2,0:0:0:0:
43,154,13100,2,0,P|44:198|53:246,1,93.5000028533936,2|10,1:0|0:0,0:0:0:0:
291,199,13400,5,2,1:0:0:0:
434,307,13550,1,0,1:0:0:0:
231,354,13700,2,0,B|194:308|248:255|192:270|192:270|200:223|179:190,1,187.000005706787,12|0,0:0|1:0,0:0:0:0:
338,5,14150,1,12,0:0:0:0:
204,91,14300,1,2,1:0:0:0:
403,107,14450,2,0,P|379:109|356:114,1,46.7500014266968,10|8,0:3|0:3,0:0:0:0:
314,222,14600,2,0,P|340:217|360:215,1,46.7500014266968,10|8,0:3|0:3,0:0:0:0:
433,340,14750,6,0,P|393:364|345:362,1,93.5000028533936,4|0,1:0|1:0,0:0:0:0:
178,281,15050,2,0,P|138:257|92:258,1,93.5000028533936,10|0,0:0|1:0,0:0:0:0:
187,46,15350,1,2,0:0:0:0:
324,129,15500,2,0,P|322:173|314:221,1,93.5000028533936,2|10,1:0|0:0,0:0:0:0:
134,171,15800,6,0,P|89:158|43:166,1,93.5000028533936,2|0,1:0|0:0,0:0:0:0:
35,356,16100,2,0,P|79:368|125:360,1,93.5000028533936,2|10,1:0|0:0,0:0:0:0:
322,261,16400,1,2,1:0:0:0:
124,266,16550,1,2,0:0:0:0:
248,71,16700,1,2,1:0:0:0:
246,117,16775,1,0,1:0:0:0:
262,161,16850,1,10,0:0:0:0:
457,78,17000,1,2,1:0:0:0:
343,295,17150,6,0,P|294:287|247:303,1,93.5000028533936,2|0,1:0|1:0,0:0:0:0:
57,340,17450,2,0,P|106:348|153:332,1,93.5000028533936,10|0,0:0|1:0,0:0:0:0:
109,94,17750,1,2,0:0:0:0:
262,45,17900,2,0,P|274:89|266:135,1,93.5000028533936,2|10,1:0|0:0,0:0:0:0:
162,313,18200,5,2,1:0:0:0:
42,167,18350,1,0,1:0:0:0:
259,245,18500,2,0,B|303:233|303:233|391:265|391:265|435:245,1,187.000005706787,10|0,0:0|1:0,0:0:0:0:
451,148,18875,1,0,1:0:0:0:
431,135,18950,2,0,B|389:115|389:115|336:134,1,93.5000028533936,10|8,0:0|0:3,0:0:0:0:
250,104,19175,1,8,0:3:0:0:
230,91,19250,2,0,L|218:45,1,46.7500014266968,10|0,0:3|0:0,0:0:0:0:
131,95,19400,2,0,L|119:141,1,46.7500014266968,0|0,1:0|0:0,0:0:0:0:
215,306,19550,6,0,P|220:262|204:224,1,85,4|0,1:0|1:0,0:0:0:0:
62,245,19850,2,0,P|57:289|73:327,1,85,10|0,0:0|1:0,0:0:0:0:
155,350,20075,1,0,0:0:0:0:
175,342,20150,2,0,B|218:332|218:332|257:350,1,85,2|0,0:0|1:0,0:0:0:0:
397,324,20450,1,8,0:0:0:0:
378,124,20600,6,0,P|417:108|458:113,1,85,2|0,1:0|0:0,0:0:0:0:
311,173,20900,2,0,P|271:188|230:183,1,85,2|8,1:0|0:0,0:0:0:0:
98,112,21200,1,2,1:0:0:0:
59,128,21275,1,0,1:0:0:0:
30,159,21350,1,0,1:0:0:0:
17,199,21425,1,0,1:0:0:0:
21,241,21500,1,0,1:0:0:0:
120,349,21650,2,0,P|162:340|205:340,1,85,10|0,0:0|0:0,0:0:0:0:
430,361,21950,5,2,1:0:0:0:
354,237,22100,1,0,1:0:0:0:
413,37,22250,2,0,P|418:78|402:117,1,85,8|0,0:0|1:0,0:0:0:0:
314,157,22475,1,0,1:0:0:0:
293,164,22550,1,2,1:0:0:0:
159,109,22700,1,0,1:0:0:0:
54,209,22850,1,8,0:0:0:0:
228,348,23000,6,0,P|233:304|217:266,1,85,2|0,1:0|0:0,0:0:0:0:
303,83,23300,2,0,P|287:122|292:163,1,85,2|8,1:0|0:0,0:0:0:0:
366,299,23600,1,2,1:0:0:0:
337,269,23675,1,0,1:0:0:0:
299,252,23750,1,0,1:0:0:0:
256,251,23825,1,0,1:0:0:0:
217,267,23900,1,0,1:0:0:0:
45,251,24050,1,8,0:0:0:0:
192,69,24200,1,8,0:0:0:0:
197,64,24275,1,8,0:0:0:0:
202,59,24350,6,0,P|217:98|212:139,1,85,12|2,1:0|0:0,0:0:0:0:
157,220,24575,1,0,0:0:0:0:
146,239,24650,2,0,P|140:280|156:319,1,85,8|0,0:0|1:0,0:0:0:0:
239,362,24875,1,8,0:3:0:0:
260,358,24950,2,0,P|303:348|344:345,1,85,10|0,0:3|1:0,0:0:0:0:
454,230,25250,1,8,0:0:0:0:
295,126,25400,6,0,P|252:129|211:138,1,85,2|0,1:0|0:0,0:0:0:0:
100,265,25700,2,0,P|142:268|183:277,1,85,2|8,1:0|0:0,0:0:0:0:
327,302,26000,1,2,1:0:0:0:
360,73,26150,5,8,0:0:0:0:
377,111,26225,1,8,0:0:0:0:
374,153,26300,1,8,0:0:0:0:
352,188,26375,1,8,0:0:0:0:
315,208,26450,1,10,0:3:0:0:
273,207,26525,1,8,0:3:0:0:
236,186,26600,1,8,0:3:0:0:
214,150,26675,1,8,0:3:0:0:
213,109,26750,1,0,1:0:0:0:
45,315,26900,6,0,B|91:284|91:284|185:312,1,152.999995330811,12|0,0:0|0:0,0:0:0:0:
278,339,27200,1,0,1:0:0:0:
360,73,27350,5,12,0:0:0:0:
500,160,27500,1,0,1:0:0:0:
354,240,27650,1,0,1:0:0:0:
115,78,27800,6,0,P|69:48|85:103,1,140.25000428009,12|0,0:0|0:0,0:0:0:0:
147,172,28100,1,0,1:0:0:0:
462,37,28250,5,12,0:0:0:0:
341,151,28400,2,0,P|344:194|354:240,1,89.2499972763062,2|0,1:0|1:0,0:0:0:0:
26,336,28700,6,0,P|70:327|110:339,1,85,8|8,0:0|0:0,0:0:0:0:
145,358,28925,1,8,0:0:0:0:
152,316,29000,1,8,0:0:0:0:
159,274,29075,1,8,0:0:0:0:
167,232,29150,1,10,0:0:0:0:
130,85,29300,2,0,P|135:105|145:124,1,42.5,2|0,0:0|0:0,0:0:0:0:
245,154,29450,6,0,B|293:134|293:134|343:152,1,101.999996887207,12|0,0:0|0:0,0:0:0:0:
457,235,29750,1,0,1:0:0:0:
297,265,29900,1,0,0:0:0:0:
427,41,30050,2,0,P|438:81|426:121,1,85,10|0,0:0|0:0,0:0:0:0:
174,182,30350,5,2,1:0:0:0:
52,103,30500,1,2,0:0:0:0:
44,247,30650,1,10,0:0:0:0:
153,82,30800,1,2,0:0:0:0:
167,313,30950,5,2,1:0:0:0:
92,178,31100,1,0,0:0:0:0:
315,177,31250,1,10,0:0:0:0:
202,313,31400,1,0,0:0:0:0:
400,214,31550,6,0,P|420:248|429:293,1,85,2|0,1:0|0:0,0:0:0:0:
245,104,31850,2,0,P|224:138|216:183,1,85,10|0,0:0|0:0,0:0:0:0:
426,201,32150,2,0,P|446:235|455:280,1,85,2|0,1:0|0:0,0:0:0:0:
219,91,32450,2,0,P|198:125|190:170,1,85,10|0,0:0|0:0,0:0:0:0:
232,347,32750,5,2,1:0:0:0:
93,304,32900,1,2,0:0:0:0:
263,328,33050,2,0,L|357:316,1,85,10|0,0:0|0:0,0:0:0:0:
489,249,33350,1,2,1:0:0:0:
506,210,33425,1,0,1:0:0:0:
508,167,33500,1,0,1:0:0:0:
495,127,33575,1,0,1:0:0:0:
470,93,33650,2,0,L|385:103,1,85,10|0,0:0|0:0,0:0:0:0:
209,246,33950,6,0,P|191:298|205:355,1,114.749996498108,2|0,1:0|0:0,0:0:0:0:
309,365,34250,2,0,P|325:297|303:232,1,140.25000428009,10|0,0:0|0:0,0:0:0:0:
209,133,34550,6,0,P|191:81|205:24,1,114.749996498108,2|0,1:0|0:0,0:0:0:0:
309,14,34850,2,0,P|325:82|303:147,1,140.25000428009,10|0,0:0|0:0,0:0:0:0:
195,227,35150,6,0,P|143:245|86:231,1,114.749996498108,2|0,1:0|0:0,0:0:0:0:
76,127,35450,2,0,P|144:111|209:133,1,140.25000428009,10|0,0:0|0:0,0:0:0:0:
316,227,35750,6,0,P|368:245|425:231,1,114.749996498108,2|0,1:0|0:0,0:0:0:0:
435,127,36050,2,0,P|367:111|302:133,1,140.25000428009,10|0,0:0|0:0,0:0:0:0:
195,227,36350,5,4,1:0:0:0:
67,17,36800,5,2,1:0:0:0:
3,146,36950,1,4,1:0:0:0:
483,294,37400,5,2,1:0:0:0:
419,165,37550,2,0,B|359:141|359:193|295:165,1,127.5,2|0,1:0|0:0,0:0:0:0:
210,128,37850,6,0,P|166:117|125:130,1,85,12|0,0:0|0:0,0:0:0:0:
88,316,38150,1,8,0:0:0:0:
225,270,38300,1,8,0:3:0:0:
48,177,38450,1,8,0:3:0:0:
88,316,38600,1,0,1:0:0:0:
261,285,38750,6,0,P|298:287|338:305,1,76.4999976654053,2|0,1:0|0:0,0:0:0:0:
358,205,39050,2,0,P|323:189|285:187,1,76.4999976654053,2|0,1:0|0:0,0:0:0:0:
190,217,39350,2,0,P|151:214|117:199,1,76.4999976654053,2|0,1:0|0:0,0:0:0:0:
51,124,39650,1,2,1:0:0:0:
261,55,39800,6,0,P|299:57|333:72,1,76.4999976654053,2|0,0:0|1:0,0:0:0:0:
386,157,40100,2,0,P|347:159|313:174,1,76.4999976654053,2|0,0:0|1:0,0:0:0:0:
277,267,40400,2,0,P|315:269|349:284,1,76.4999976654053,2|0,0:0|1:0,0:0:0:0:
414,361,40700,1,2,0:0:0:0:
498,307,40850,1,0,1:0:0:0:
460,158,41000,1,2,0:0:0:0:
460,158,41150,6,0,P|470:121|460:85,1,76.4999976654053,2|0,1:0|0:0,0:0:0:0:
378,26,41450,2,0,L|303:38,1,76.4999976654053,2|0,1:0|0:0,0:0:0:0:
228,104,41750,2,0,L|153:92,1,76.4999976654053,2|0,1:0|0:0,0:0:0:0:
71,33,42050,1,2,1:0:0:0:
124,248,42200,2,0,P|113:284|86:310,1,76.4999976654053,2|0,0:0|1:0,0:0:0:0:
0,258,42500,2,0,P|9:221|36:195,1,76.4999976654053,2|0,0:0|1:0,0:0:0:0:
200,178,42800,5,2,0:0:0:0:
231,11,42950,1,2,1:0:0:0:
302,162,43100,1,2,0:0:0:0:
156,82,43250,1,4,1:0:0:0:
321,63,43400,1,2,0:0:0:0:
57,203,43550,6,0,P|119:181|176:204,1,127.5,10|0,1:0|0:0,0:0:0:0:
245,272,43850,2,0,L|333:263,1,85,10|0,1:0|0:0,0:0:0:0:
383,36,44150,1,10,1:0:0:0:
499,121,44300,1,0,0:0:0:0:
367,180,44450,1,10,1:0:0:0:
133,95,44600,6,0,P|120:133|133:178,1,85,2|8,0:0|1:0,0:0:0:0:
212,314,44900,2,0,P|225:276|212:231,1,85,2|8,0:0|1:0,0:0:0:0:
288,56,45200,1,2,0:0:0:0:
293,54,45275,1,2,0:0:0:0:
298,52,45350,1,10,1:0:0:0:
438,184,45500,2,0,P|400:197|355:184,1,85,2|8,0:0|1:0,0:0:0:0:
100,134,45800,2,0,L|92:179,1,42.5,2|2,0:0|0:0,0:0:0:0:
179,224,45950,6,0,P|217:211|262:224,1,85,10|0,1:0|0:0,0:0:0:0:
428,307,46250,1,10,1:0:0:0:
488,175,46400,1,0,0:0:0:0:
302,52,46550,2,0,L|214:63,1,85,10|0,1:0|0:0,0:0:0:0:
94,213,46850,2,0,L|182:224,1,85,10|0,1:0|0:0,0:0:0:0:
401,155,47150,5,10,1:0:0:0:
257,221,47300,1,8,0:0:0:0:
438,172,47450,1,10,1:0:0:0:
247,260,47600,1,8,0:0:0:0:
122,78,47750,5,10,1:0:0:0:
120,73,47825,1,8,0:3:0:0:
118,68,47900,2,0,P|110:43|101:23,1,42.5,8|0,0:3|0:0,0:0:0:0:
19,85,48050,2,0,P|10:104|4:124,1,42.5,8|0,1:0|0:0,0:0:0:0:
61,209,48200,2,0,B|102:197|102:197|142:222,1,85,8|2,0:0|1:0,0:0:0:0:
337,136,48500,5,0,0:0:0:0:
337,136,48650,2,0,B|349:201,1,63.75,2|2,0:0|0:0,0:0:0:0:
365,213,49100,2,0,L|354:239,1,21.25,2|0,0:0|0:0,0:0:0:0:
303,298,49250,5,12,0:0:0:0:
266,318,49325,1,0,1:0:0:0:
224,326,49400,1,0,1:0:0:0:
182,318,49475,1,0,1:0:0:0:
145,298,49550,6,0,P|136:226|98:165,1,140.25000428009,4|0,1:0|0:0,0:0:0:0:
59,95,49850,2,0,P|67:47|99:16,1,93.5000028533936,10|0,0:0|0:0,0:0:0:0:
257,5,50150,1,2,1:0:0:0:
358,126,50300,1,0,1:0:0:0:
248,241,50450,2,0,P|200:231|153:225,1,93.5000028533936,10|0,0:0|0:0,0:0:0:0:
389,292,50750,5,2,1:0:0:0:
470,155,50900,1,0,1:0:0:0:
320,101,51050,2,0,P|273:107|227:116,1,93.5000028533936,10|0,0:0|0:0,0:0:0:0:
155,312,51350,1,2,1:0:0:0:
295,191,51500,1,2,1:0:0:0:
87,167,51650,1,10,0:0:0:0:
192,312,51800,1,2,0:0:0:0:
171,58,51950,5,2,1:0:0:0:
100,200,52100,1,0,1:0:0:0:
291,159,52250,2,0,P|337:165|383:174,1,93.5000028533936,10|0,0:0|0:0,0:0:0:0:
454,100,52475,1,2,0:0:0:0:
452,75,52550,2,0,P|448:51|444:28,1,46.7500014266968,2|0,1:0|0:0,0:0:0:0:
340,42,52700,2,0,P|343:65|347:88,1,46.7500014266968,0|0,1:0|0:0,0:0:0:0:
383,174,52850,2,0,B|406:214|406:214|396:261,1,93.5000028533936,10|0,0:0|0:0,0:0:0:0:
178,296,53150,6,0,P|130:292|90:309,1,93.5000028533936,2|0,1:0|1:0,0:0:0:0:
140,157,53450,2,0,P|188:161|228:144,1,93.5000028533936,10|0,0:0|0:0,0:0:0:0:
121,25,53750,1,2,1:0:0:0:
74,21,53825,1,0,1:0:0:0:
32,39,53900,1,0,1:0:0:0:
99,182,54050,1,10,0:0:0:0:
318,80,54200,1,0,1:0:0:0:
323,77,54275,1,0,1:0:0:0:
328,74,54350,6,0,P|356:107|358:167,1,93.5000028533936,2|0,1:0|1:0,0:0:0:0:
252,271,54650,2,0,L|156:265,1,93.5000028533936,10|0,0:0|0:0,0:0:0:0:
373,183,54950,1,2,1:0:0:0:
463,314,55100,1,0,1:0:0:0:
397,170,55250,2,0,P|402:121|417:78,1,93.5000028533936,10|0,0:0|0:0,0:0:0:0:
208,154,55550,5,2,1:0:0:0:
118,23,55700,1,0,1:0:0:0:
184,167,55850,2,0,P|178:215|164:259,1,93.5000028533936,10|0,0:0|0:0,0:0:0:0:
386,356,56150,1,2,1:0:0:0:
395,310,56225,1,0,1:0:0:0:
377,268,56300,1,0,1:0:0:0:
274,147,56450,2,0,P|225:152|182:167,1,93.5000028533936,10|0,0:0|0:0,0:0:0:0:
30,42,56750,5,2,1:0:0:0:
186,69,56900,1,0,1:0:0:0:
100,279,57050,2,0,P|96:322|118:365,1,93.5000028533936,8|0,0:0|0:0,0:0:0:0:
204,155,57350,2,0,P|208:112|186:69,1,93.5000028533936,8|0,0:0|0:0,0:0:0:0:
434,126,57650,1,0,1:0:0:0:
307,28,57800,1,0,1:0:0:0:
259,286,57950,5,10,0:3:0:0:
299,260,58025,1,8,0:3:0:0:
344,248,58100,1,8,0:3:0:0:
390,250,58175,1,0,0:0:0:0:
434,266,58250,1,8,0:0:0:0:
259,286,58400,1,8,0:3:0:0:
231,42,58550,5,8,0:0:0:0:
233,47,58625,1,8,0:3:0:0:
235,52,58700,2,0,P|234:75|226:97,1,46.7500014266968,8|0,0:3|1:0,0:0:0:0:
150,171,58850,2,0,L|51:159,1,93.5000028533936,8|0,0:0|0:0,0:0:0:0:
464,313,59150,6,0,P|411:349|387:282,1,152.999995330811,4|0,1:0|0:0,0:0:0:0:
415,187,59450,2,0,P|427:138|420:87,1,101.999996887207,10|0,0:0|0:0,0:0:0:0:
150,171,59750,2,0,P|99:168|64:134,1,101.999996887207,2|0,1:0|0:0,0:0:0:0:
241,77,60050,2,0,P|292:80|327:114,1,101.999996887207,10|0,0:0|0:0,0:0:0:0:
373,193,60275,1,2,0:0:0:0:
366,218,60350,6,0,P|356:270|374:314,1,101.999996887207,2|0,1:0|0:0,0:0:0:0:
484,164,60650,2,0,P|494:112|476:68,1,101.999996887207,10|0,0:0|0:0,0:0:0:0:
206,94,60950,1,2,1:0:0:0:
283,248,61100,1,2,0:0:0:0:
50,170,61250,1,10,0:0:0:0:
308,140,61400,1,2,1:0:0:0:
313,138,61475,1,2,1:0:0:0:
318,136,61550,6,0,P|368:128|417:148,1,101.999996887207,2|0,1:0|0:0,0:0:0:0:
394,333,61850,2,0,P|344:341|295:321,1,101.999996887207,10|8,0:0|0:3,0:0:0:0:
224,249,62075,1,10,0:3:0:0:
203,235,62150,2,0,L|100:250,1,101.999996887207,2|0,1:0|0:0,0:0:0:0:
219,105,62450,2,0,L|319:90,1,101.999996887207,10|0,0:0|0:0,0:0:0:0:
416,131,62675,1,2,0:0:0:0:
437,146,62750,6,0,P|460:192|454:240,1,101.999996887207,2|0,1:0|0:0,0:0:0:0:
319,366,63050,2,0,P|296:320|302:272,1,101.999996887207,8|0,0:0|0:0,0:0:0:0:
216,60,63350,1,2,1:0:0:0:
216,60,63425,2,0,L|114:74,1,101.999996887207,10|0,1:0|0:0,0:0:0:0:
17,88,63650,1,8,0:0:0:0:
239,346,63800,1,8,0:0:0:0:
244,344,63875,1,8,0:0:0:0:
249,342,63950,6,0,B|321:306|321:374|385:342,1,140.25000428009,4|0,1:0|0:0,0:0:0:0:
472,301,64250,1,2,1:0:0:0:
386,135,64400,2,0,P|370:181|362:231,1,93.5000028533936,10|0,0:0|0:0,0:0:0:0:
86,176,64700,1,0,1:0:0:0:
86,176,64850,6,0,B|52:125|68:65|68:65|80:80|96:80,1,140.25000428009,4|0,1:0|0:0,0:0:0:0:
185,108,65150,1,2,1:0:0:0:
360,32,65300,2,0,P|314:40|269:55,1,93.5000028533936,10|0,0:0|0:0,0:0:0:0:
193,276,65600,1,2,1:0:0:0:
195,281,65675,1,2,1:0:0:0:
197,286,65750,5,2,1:0:0:0:
358,175,65900,1,10,0:0:0:0:
356,170,65975,1,10,0:0:0:0:
354,165,66050,2,0,P|358:144|369:119,1,46.7500014266968,10|8,1:0|0:0,0:0:0:0:
442,199,66200,2,0,P|437:219|427:245,1,46.7500014266968,8|8,0:0|0:0,0:0:0:0:
325,305,66350,6,0,B|276:294|234:311,1,93.5000028533936,4|0,1:0|0:0,0:0:0:0:
131,296,66575,1,2,0:0:0:0:
112,282,66650,2,0,B|70:264|70:264|23:278,1,93.5000028533936,10|0,0:0|0:0,0:0:0:0:
164,178,66950,2,0,B|206:196|206:196|253:182,1,93.5000028533936,2|0,1:0|0:0,0:0:0:0:
403,133,67250,1,10,0:0:0:0:
284,27,67400,1,2,0:0:0:0:
370,288,67550,5,0,1:0:0:0:
251,182,67700,1,2,0:0:0:0:
489,241,67850,1,10,0:0:0:0:
412,39,68000,1,2,0:0:0:0:
222,166,68150,5,2,1:0:0:0:
479,131,68300,1,2,0:0:0:0:
266,291,68450,1,8,0:0:0:0:
226,315,68525,1,8,0:3:0:0:
180,323,68600,1,8,0:3:0:0:
135,313,68675,1,8,0:3:0:0:
96,287,68750,6,0,B|80:243|80:243|96:199|96:199|80:151,1,140.25000428009,12|0,1:0|0:0,0:0:0:0:
47,54,69050,1,10,0:0:0:0:
246,98,69200,2,0,B|204:72|204:72|165:92,1,93.5000028533936,10|0,0:0|0:0,0:0:0:0:
312,208,69650,6,0,B|357:221|357:221|420:200|420:200|417:235,1,140.25000428009,12|0,0:0|0:0,0:0:0:0:
408,336,69950,1,10,0:0:0:0:
204,331,70100,2,0,B|239:296|239:296|281:309,1,93.5000028533936,10|0,0:0|0:0,0:0:0:0:
457,31,71150,5,12,1:0:0:0:
485,155,71300,2,0,L|463:245,1,85,8|2,1:0|0:0,0:0:0:0:
284,316,71750,5,10,1:0:0:0:
256,192,71900,2,0,L|278:102,1,85,8|2,1:0|0:0,0:0:0:0:
37,26,72350,5,12,1:0:0:0:
65,150,72500,2,0,L|43:240,1,85,8|0,1:0|0:0,0:0:0:0:
119,337,72800,1,8,0:3:0:0:
400,238,72950,1,12,0:0:0:0:
230,113,73100,5,2,0:0:0:0:
233,219,73250,1,2,0:0:0:0:
138,168,73400,1,2,0:0:0:0:
426,132,73550,6,0,P|418:83|434:36,1,93.5000028533936,4|0,1:0|1:0,0:0:0:0:
303,177,73850,2,0,P|311:226|295:273,1,93.5000028533936,10|0,0:0|1:0,0:0:0:0:
127,88,74150,1,2,0:0:0:0:
43,200,74300,2,0,P|45:244|53:292,1,93.5000028533936,2|10,1:0|0:0,0:0:0:0:
319,285,74600,6,0,P|365:277|411:274,1,93.5000028533936,2|0,1:0|0:0,0:0:0:0:
279,131,74900,2,0,P|232:133|186:141,1,93.5000028533936,2|10,1:0|0:0,0:0:0:0:
53,292,75200,1,2,1:0:0:0:
179,351,75350,1,2,0:0:0:0:
92,167,75500,1,2,1:0:0:0:
88,122,75575,1,0,1:0:0:0:
109,82,75650,1,10,0:0:0:0:
309,15,75800,1,2,1:0:0:0:
475,209,75950,6,0,P|483:160|467:113,1,93.5000028533936,2|0,1:0|1:0,0:0:0:0:
282,218,76250,2,0,P|269:173|277:127,1,93.5000028533936,10|0,0:0|0:0,0:0:0:0:
382,311,76550,1,2,0:0:0:0:
252,365,76700,2,0,P|206:373|161:360,1,93.5000028533936,2|10,1:0|0:0,0:0:0:0:
204,128,77000,5,2,1:0:0:0:
67,94,77150,1,0,1:0:0:0:
118,299,77300,2,0,B|164:262|217:316|202:260|202:260|249:268|282:247,1,187.000005706787,12|8,0:0|0:0,0:0:0:0:
364,200,77675,1,8,0:0:0:0:
369,197,77750,1,12,1:0:0:0:
87,109,77900,1,10,0:0:0:0:
114,84,77975,1,8,0:0:0:0:
128,50,78050,1,10,0:0:0:0:
137,95,78125,1,8,0:0:0:0:
146,141,78200,1,10,0:0:0:0:
155,187,78275,1,8,0:0:0:0:
164,233,78350,5,12,1:0:0:0:
369,197,78500,1,0,1:0:0:0:
144,316,78650,1,10,0:0:0:0:
387,284,78800,1,0,1:0:0:0:
125,168,78950,5,10,0:0:0:0:
413,130,79100,1,2,1:0:0:0:
103,79,79250,1,8,0:0:0:0:
450,216,79400,1,2,1:0:0:0:
313,33,79550,5,8,0:0:0:0:
287,249,79700,1,2,1:0:0:0:
148,25,79850,1,8,0:0:0:0:
181,289,80000,1,2,1:0:0:0:
430,175,80150,6,0,L|480:176,1,46.7500014266968,10|0,0:0|1:0,0:0:0:0:
355,272,80300,2,0,L|305:271,1,46.7500014266968,2|0,1:0|1:0,0:0:0:0:
181,289,80450,1,10,0:0:0:0:
142,315,80525,1,8,0:3:0:0:
96,320,80600,1,10,0:3:0:0:
53,304,80675,1,8,0:3:0:0:
22,270,80750,1,2,1:0:0:0:
217,27,80900,6,0,B|233:63|233:63|217:127|217:127|233:171,1,152.999995330811,12|0,0:0|0:0,0:0:0:0:
264,265,81200,1,0,1:0:0:0:
441,65,81350,6,0,P|497:52|468:102,1,146.62500279665,12|0,0:0|0:0,0:0:0:0:
381,146,81650,1,0,1:0:0:0:
204,330,81800,6,0,P|265:304|340:325,1,140.25000428009,12|0,0:0|0:0,0:0:0:0:
411,366,82100,1,0,1:0:0:0:
229,150,82250,6,0,L|137:153,1,89.2499972763062,12|0,0:0|1:0,0:0:0:0:
339,82,82550,1,10,0:3:0:0:
303,240,82700,1,10,0:3:0:0:
236,45,82850,1,10,0:3:0:0:
359,168,83000,2,0,L|448:165,1,89.2499972763062,10|0,0:0|0:0,0:0:0:0:
280,272,83300,5,0,1:0:0:0:
275,270,83375,1,0,1:0:0:0:
270,268,83450,2,0,L|223:264,1,44.6249986381531,8|8,0:0|0:0,0:0:0:0:
116,279,83600,1,0,1:0:0:0:
111,281,83675,1,0,1:0:0:0:
106,283,83750,6,0,P|59:298|7:286,2,101.999996887207,8|0|0,0:0|1:0|1:0,0:0:0:0:
312,27,84350,1,4,1:0:0:0:
256,192,84425,12,8,87650,1:0:0:0:
