osu file format v14

[General]
AudioFilename: audio.mp3
AudioLeadIn: 0
PreviewTime: 68570
Countdown: 0
SampleSet: Soft
StackLeniency: 0.7
Mode: 2
LetterboxInBreaks: 0
WidescreenStoryboard: 1

[Editor]
Bookmarks: 499,18784,37070,55356,69070,87356,105641,114784,125070,147927,166213,186213
DistanceSpacing: 1.1
BeatDivisor: 4
GridSize: 32
TimelineZoom: 2.2

[Metadata]
Title:I got it! (Slax Remix)
TitleUnicode:I got it! (Slax Remix)
Artist:Mia REGINA
ArtistUnicode:Mia REGINA
Creator:-Rustyy
Version:Salad
Source:天晴爛漫!
Tags:appare-ranman! -momox nosuri bighzonda bigh japanese anime electronic breakcore hardcore j-core jcore hardtek j-tek opening
BeatmapID:3676600
BeatmapSetID:1764078

[Difficulty]
HPDrainRate:3
CircleSize:3
OverallDifficulty:7
ApproachRate:7
SliderMultiplier:1.15
SliderTickRate:1

[Events]
//Background and Video events
0,0,"laplus.jpg",0,0
//Break Periods
2,64689,67017
//Storyboard Layer 0 (Background)
//Storyboard Layer 1 (Fail)
//Storyboard Layer 2 (Pass)
//Storyboard Layer 3 (Foreground)
//Storyboard Layer 4 (Overlay)
//Storyboard Sound Samples

[TimingPoints]
203,285.714285714286,4,2,2,40,1,0
203,-100,4,2,2,40,0,0
489,285.714285714286,4,2,1,40,1,0
5060,-100,4,2,2,50,0,0
9631,-100,4,2,2,60,0,0
18774,-100,4,2,1,70,0,1
36489,-100,4,2,1,70,0,1
37060,-100,4,2,1,60,0,0
54774,-90.9090909090909,4,2,1,60,0,0
55060,-100,4,2,1,60,0,0
55346,-100,4,2,1,40,0,0
59917,-100,4,2,1,50,0,0
63346,-100,4,2,1,60,0,0
64489,-100,4,2,1,60,0,0
64631,-100,4,2,1,60,0,0
67917,-100,4,2,3,60,0,0
68203,-100,4,2,4,60,0,0
69060,-100,4,2,2,70,0,1
87203,-100,4,2,2,70,0,0
87346,-100,4,2,2,70,0,1
105203,-100,4,2,1,70,0,1
105631,-100,4,2,2,60,0,0
110203,-100,4,2,1,60,0,0
110774,-100,4,2,2,60,0,0
111060,-100,4,2,1,60,0,0
111346,-100,4,2,2,60,0,0
111631,-100,4,2,1,60,0,0
111917,-100,4,2,2,60,0,0
112203,-100,4,2,1,60,0,0
112346,-100,4,2,2,60,0,0
114774,-100,4,2,1,40,0,0
119346,-100,4,2,1,50,0,0
122774,-100,4,2,1,60,0,0
123917,-100,4,2,1,60,0,0
125060,-100,4,2,1,70,0,1
134203,-100,4,2,1,70,0,1
145631,-100,4,2,1,60,0,0
147917,-100,4,2,1,70,0,1
165203,-100,4,2,1,70,0,1
165631,-100,4,2,1,70,0,1
166203,-100,4,2,1,50,0,0
175346,-100,4,2,1,40,0,0
182203,-100,4,2,1,30,0,0
185060,-100,4,2,1,25,0,0
185631,-100,4,2,1,20,0,0
186203,-100,4,2,1,15,0,0

[Colours]
Combo1 : 245,210,10
Combo2 : 116,10,245
Combo3 : 84,84,171
Combo4 : 200,32,223

[HitObjects]
208,324,489,6,0,P|177:304|217:252,1,115,4|0,3:2|3:0,0:0:0:0:
326,184,1060,1,0,3:0:0:0:
269,174,1202,1,2,0:0:0:0:
212,165,1345,1,0,3:0:0:0:
326,103,1631,6,0,L|406:105,1,57.5,0|2,3:0|0:0,0:0:0:0:
268,56,2060,2,0,P|240:66|276:120,1,115,2|2,0:0|0:0,0:0:0:0:
328,148,2489,1,0,3:0:0:0:
133,214,2774,6,0,P|113:235|162:295,1,115,0|0,3:2|3:0,0:0:0:0:
267,323,3346,2,0,L|329:337,2,57.5,0|2|0,3:0|0:0|3:0,0:0:0:0:
153,255,3917,6,0,L|80:267,2,57.5,0|2|0,3:0|0:0|3:0,0:0:0:0:
269,202,4489,1,0,3:0:0:0:
155,158,4774,1,0,3:0:0:0:
351,89,5060,6,0,L|483:112,1,115,4|2,3:2|3:0,0:0:0:0:
350,48,5631,1,0,3:0:0:0:
292,41,5773,1,2,0:0:0:0:
235,34,5916,1,2,3:2:0:0:
351,152,6203,6,0,L|420:151,1,57.5,2|2,3:2|0:0,0:0:0:0:
293,207,6631,2,0,P|258:227|301:272,1,115,0|2,0:0|0:0,0:0:0:0:
352,295,7060,1,2,3:2:0:0:
154,338,7346,6,0,L|31:324,1,115,0|2,3:2|3:2,0:0:0:0:
155,288,7917,1,2,3:2:0:0:
212,288,8059,1,2,0:0:0:0:
269,289,8202,1,2,3:2:0:0:
155,242,8489,5,2,3:2:0:0:
353,235,8774,2,0,P|388:225|343:92,1,230,2|0,3:2|0:0,0:0:0:0:
149,46,9631,6,0,P|114:60|158:117,1,115,4|2,3:2|3:2,0:0:0:0:
251,204,10203,1,2,3:2:0:0:
194,212,10345,1,2,0:0:0:0:
137,220,10488,1,2,3:2:0:0:
332,305,10774,6,0,L|394:314,2,57.5,2|2|2,3:2|0:0|3:2,0:0:0:0:
217,232,11346,2,0,L|352:231,1,115,2|2,3:2|3:2,0:0:0:0:
148,183,11917,6,0,P|113:155|161:112,1,115,2|2,3:2|3:2,0:0:0:0:
267,70,12489,2,0,L|349:80,1,57.5,2|2,3:2|0:0,0:0:0:0:
324,76,12774,1,2,3:2:0:0:
140,87,13060,5,2,0:0:0:0:
197,89,13202,1,2,0:0:0:0:
254,92,13345,1,2,0:0:0:0:
368,164,13631,1,2,0:0:0:0:
255,204,13917,1,0,3:2:0:0:
451,211,14203,6,0,P|478:232|441:295,1,115,4|2,3:2|3:2,0:0:0:0:
334,331,14774,1,2,3:2:0:0:
391,337,14916,1,2,0:0:0:0:
448,343,15059,1,2,3:2:0:0:
252,257,15346,6,0,L|179:268,2,57.5,2|2|2,3:2|0:0|3:2,0:0:0:0:
367,211,15917,2,0,P|399:202|358:157,1,115,2|2,3:2|3:2,0:0:0:0:
170,114,16489,5,2,3:2:0:0:
227,112,16631,1,2,3:2:0:0:
284,110,16774,1,2,3:2:0:0:
170,114,17060,1,2,3:2:0:0:
113,132,17203,1,2,3:2:0:0:
170,114,17346,1,2,3:2:0:0:
366,65,17631,5,4,3:2:0:0:
366,65,18346,2,0,L|433:77,2,57.5
234,55,18774,6,0,P|204:68|250:110,1,115,4|8,3:2|0:0,0:0:0:0:
357,214,19346,2,0,L|431:217,1,57.5,0|2,3:0|0:0,0:0:0:0:
218,300,19774,6,0,L|89:299,1,115,2|2,0:0|0:0,0:0:0:0:
218,302,20346,1,2,0:0:0:0:
275,267,20489,2,0,L|308:206,2,57.5,0|2|8,3:0|0:0|0:0,0:0:0:0:
79,251,21060,6,0,P|43:236|84:193,1,115,0|8,3:0|0:0,0:0:0:0:
193,174,21631,2,0,L|264:176,1,57.5,0|2,3:0|0:0,0:0:0:0:
135,124,22060,1,2,0:0:0:0:
328,42,22346,6,0,P|357:59|314:117,1,115,2|2,0:0|0:0,0:0:0:0:
270,162,22774,1,8,0:0:0:0:
213,184,22917,2,0,L|212:265,1,57.5,2|8,0:0|0:0,0:0:0:0:
410,282,23346,6,0,L|289:271,1,115,0|8,3:0|0:0,0:0:0:0:
410,208,23917,2,0,L|477:207,1,57.5,0|2,3:0|0:0,0:0:0:0:
261,188,24346,6,0,P|231:150|279:124,1,115,2|2,0:0|0:0,0:0:0:0:
381,94,24917,2,0,L|447:95,1,57.5,2|0,0:0|3:0,0:0:0:0:
381,94,25203,2,0,L|320:92,1,57.5,2|8,0:0|0:0,0:0:0:0:
130,77,25631,6,0,L|244:74,1,115,0|8,3:0|0:0,0:0:0:0:
132,153,26203,2,0,L|131:214,1,57.5,0|2,3:0|0:0,0:0:0:0:
247,234,26631,1,2,0:0:0:0:
53,301,26917,6,0,P|21:281|71:236,1,115,2|2,0:0|0:0,0:0:0:0:
118,204,27346,1,8,0:0:0:0:
175,179,27489,2,0,L|103:173,1,57.5,2|8,0:0|0:0,0:0:0:0:
315,130,27917,6,0,L|443:145,1,115,4|8,3:2|0:0,0:0:0:0:
314,129,28489,2,0,L|254:121,1,57.5,0|2,3:0|0:0,0:0:0:0:
454,47,28917,6,0,P|482:67|447:127,1,115,2|2,0:0|0:0,0:0:0:0:
336,190,29489,2,0,L|336:273,1,57.5,2|0,0:0|3:0,0:0:0:0:
394,264,29774,2,0,L|394:328,1,57.5,2|8,0:0|0:0,0:0:0:0:
197,311,30203,6,0,L|76:283,1,115,0|8,3:0|0:0,0:0:0:0:
199,233,30774,2,0,L|201:159,1,57.5,0|2,3:0|0:0,0:0:0:0:
84,150,31203,1,2,0:0:0:0:
280,45,31489,6,0,P|324:71|275:100,1,115,2|2,0:0|0:0,0:0:0:0:
232,147,31917,2,0,L|169:144,1,57.5,8|2,0:0|0:0,0:0:0:0:
174,144,32203,1,8,0:0:0:0:
367,227,32489,6,0,L|234:243,1,115,0|8,3:0|0:0,0:0:0:0:
368,318,33060,2,0,L|429:323,1,57.5,0|2,3:0|0:0,0:0:0:0:
230,336,33489,6,0,L|102:338,1,115,2|2,0:0|0:0,0:0:0:0:
230,266,34060,2,0,L|226:196,1,57.5,2|0,0:0|3:0,0:0:0:0:
169,190,34346,2,0,L|162:113,1,57.5,2|8,0:0|0:0,0:0:0:0:
358,117,34774,6,0,P|392:104|344:64,1,115,0|8,3:0|0:0,0:0:0:0:
241,45,35346,2,0,L|306:46,1,57.5,0|2,3:0|0:0,0:0:0:0:
415,68,35774,1,2,0:0:0:0:
219,133,36060,6,0,P|187:162|235:205,1,115,2|2,0:0|0:0,0:0:0:0:
284,228,36489,1,8,0:0:0:0:
401,268,36774,2,0,L|322:274,1,57.5,0|0,0:0|3:0,0:0:0:0:
211,333,37060,6,0,L|91:317,2,115,4|8|0,3:2|0:0|3:0,0:0:0:0:
333,274,37917,1,8,0:0:0:0:
390,258,38060,6,0,P|421:245|383:197,1,115,2|2,0:0|0:0,0:0:0:0:
258,147,38631,2,0,P|230:126|269:68,1,115,2|2,0:0|0:0,0:0:0:0:
321,63,39060,1,8,0:0:0:0:
125,130,39346,6,0,L|251:175,2,115,0|8|0,3:0|0:0|3:0,0:0:0:0:
240,207,40203,2,0,L|299:203,1,57.5,8|2,0:0|0:0,0:0:0:0:
181,263,40631,5,2,0:0:0:0:
296,250,40917,2,0,P|328:263|297:321,1,115,2|2,0:0|0:0,0:0:0:0:
244,341,41346,1,8,0:0:0:0:
439,328,41631,6,0,L|323:282,2,115,4|8|0,3:2|0:0|3:0,0:0:0:0:
243,232,42489,2,0,L|169:227,1,57.5,8|2,0:0|0:0,0:0:0:0:
301,175,42917,5,2,0:0:0:0:
185,168,43203,2,0,L|67:157,1,115,2|2,0:0|3:2,0:0:0:0:
127,129,43631,1,8,0:0:0:0:
325,94,43917,6,0,L|323:157,1,57.5,0|8,3:0|0:0,0:0:0:0:
209,188,44346,2,0,L|147:179,1,57.5,0|8,3:0|0:0,0:0:0:0:
351,302,44774,6,0,L|416:317,1,57.5,0|8,3:0|0:0,0:0:0:0:
286,327,45203,2,0,L|223:334,1,57.5,0|8,3:0|0:0,0:0:0:0:
426,245,45631,2,0,L|488:254,2,57.5,0|2|2,3:0|0:0|0:0,0:0:0:0:
230,172,46203,5,4,3:2:0:0:
287,173,46345,1,2,0:0:0:0:
344,175,46488,1,8,0:0:0:0:
233,113,46774,1,0,3:0:0:0:
175,109,46916,1,2,0:0:0:0:
118,105,47059,1,8,0:0:0:0:
238,36,47346,6,0,L|303:35,2,57.5,0|2|8,3:0|0:0|0:0,0:0:0:0:
123,164,47917,2,0,L|53:154,2,57.5,0|2|8,3:0|0:0|0:0,0:0:0:0:
326,185,48489,6,0,P|360:204|326:261,1,115,0|8,3:0|0:0,0:0:0:0:
218,324,49060,2,0,L|340:331,1,115,0|8,3:0|0:0,0:0:0:0:
218,273,49631,5,0,3:0:0:0:
160,266,49773,1,2,3:2:0:0:
103,260,49916,1,8,0:0:0:0:
221,188,50203,1,0,3:2:0:0:
106,174,50489,1,8,0:0:0:0:
303,141,50774,6,0,P|336:127|291:80,1,115,4|8,3:2|0:0,0:0:0:0:
189,41,51346,2,0,L|325:44,1,115,0|8,3:2|0:0,0:0:0:0:
108,127,51917,6,0,P|66:135|109:167,1,115,0|8,3:2|0:0,0:0:0:0:
216,233,52489,2,0,L|96:244,1,115,0|8,3:2|0:0,0:0:0:0:
297,304,53060,5,4,3:2:0:0:
159,222,53489,2,0,L|222:221,1,57.5,0|8,3:2|0:0,0:0:0:0:
355,176,54060,6,0,L|281:164,1,57.5,0|8,3:2|0:0,0:0:0:0:
182,160,54489,1,2,0:0:0:0:
397,52,54774,2,0,P|434:63|394:119,1,126.500003860474,0|0,3:0|3:0,0:0:0:0:
207,161,55346,6,0,P|179:176|216:237,1,115,4|0,1:2|1:0,0:0:0:0:
322,232,55917,2,0,P|351:250|314:310,1,115,0|0,1:0|1:0,0:0:0:0:
263,348,56346,6,2,L|384:352,1,115,2|2,0:1|0:1,0:1:0:0:
265,278,56917,2,2,L|143:261,1,115,2|2,0:1|0:1,0:1:0:0:
268,200,57489,1,2,0:1:0:0:
325,171,57631,6,0,P|355:155|317:102,1,115,0|0,1:0|1:0,0:0:0:0:
207,81,58203,1,0,1:0:0:0:
322,46,58489,1,0,1:0:0:0:
265,37,58631,6,2,L|130:40,1,115,2|2,0:1|0:1,0:1:0:0:
265,157,59203,2,2,L|386:174,1,115,2|2,0:1|0:1,0:1:0:0:
436,187,59631,1,0,1:0:0:0:
378,195,59774,1,0,1:0:0:0:
250,321,59917,6,0,P|221:303|255:247,1,115,4|0,1:2|1:0,0:0:0:0:
373,242,60489,2,0,P|397:229|361:172,1,115,0|0,1:0|1:0,0:0:0:0:
303,129,60917,6,2,L|423:121,1,115,2|2,0:1|0:1,0:1:0:0:
301,64,61489,2,2,L|166:56,1,115,2|2,0:1|0:1,0:1:0:0:
128,50,61917,1,0,1:0:0:0:
324,125,62203,6,0,P|356:143|308:199,1,115,0|0,1:0|1:0,0:0:0:0:
210,227,62774,2,0,L|94:244,1,115,0|0,1:0|1:0,0:0:0:0:
297,353,63346,6,0,P|339:338|273:115,1,345,4|0,1:2|1:0,0:0:0:0:
95,98,64489,5,4,3:1:0:0:
196,210,67917,6,0,L|69:206,2,115,8|8|8,3:0|3:0|3:0,0:0:0:0:
306,264,68774,2,0,L|247:265,1,57.5
120,322,69060,6,0,P|85:304|132:266,1,115,4|2,3:2|3:2,0:0:0:0:
174,239,69489,1,0,3:0:0:0:
285,208,69774,2,0,L|344:210,1,57.5,2|2,0:0|3:1,0:0:0:0:
141,54,70203,6,0,P|122:79|178:132,1,115,2|2,3:2|3:2,0:0:0:0:
224,142,70631,1,2,0:0:0:0:
109,203,70917,2,0,L|32:196,1,57.5,2|2,0:0|3:2,0:0:0:0:
251,267,71346,6,0,L|376:272,1,115,0|0,3:0|3:0,0:0:0:0:
308,239,71774,1,0,3:0:0:0:
423,213,72060,2,0,L|424:133,1,57.5,2|2,0:0|3:1,0:0:0:0:
224,125,72489,6,0,L|156:120,1,57.5,2|2,0:0|0:0,0:0:0:0:
283,47,72917,2,0,L|286:122,1,57.5,2|2,0:0|0:0,0:0:0:0:
170,187,73346,1,0,3:0:0:0:
366,211,73631,6,0,P|399:226|348:269,1,115,4|0,3:2|3:0,0:0:0:0:
308,297,74060,1,0,3:0:0:0:
423,336,74346,2,0,L|491:343,1,57.5,2|2,0:0|3:1,0:0:0:0:
284,335,74774,6,0,L|164:322,1,115,0|2,3:0|3:2,0:0:0:0:
227,295,75203,1,2,3:2:0:0:
342,246,75489,2,0,L|402:251,1,57.5,2|0,0:0|3:0,0:0:0:0:
204,219,75917,6,0,P|172:202|220:151,1,115,0|0,3:0|3:0,0:0:0:0:
260,127,76346,1,0,3:0:0:0:
144,97,76631,2,0,L|75:93,1,57.5,2|2,0:0|3:1,0:0:0:0:
283,50,77060,6,0,L|417:55,2,115,0|2|2,3:2|0:0|0:0,0:0:0:0:
168,124,77917,2,0,L|165:191,1,57.5,2|2,0:0|0:0,0:0:0:0:
295,227,78203,6,0,P|325:246|284:298,1,115,4|0,3:2|3:2,0:0:0:0:
232,317,78631,1,0,3:2:0:0:
347,339,78917,2,0,L|420:346,1,57.5,2|2,0:0|3:1,0:0:0:0:
204,264,79346,6,0,L|87:244,1,115,0|2,3:0|3:2,0:0:0:0:
148,211,79774,1,2,0:0:0:0:
246,161,80060,2,0,L|305:161,2,57.5,2|0|2,0:0|3:2|0:0,0:0:0:0:
118,45,80489,6,0,P|84:60|124:105,1,115,0|0,3:0|3:0,0:0:0:0:
178,123,80917,1,0,3:0:0:0:
293,188,81203,2,0,L|297:261,1,57.5,2|2,0:0|3:1,0:0:0:0:
98,316,81631,5,2,0:0:0:0:
213,278,81917,1,2,0:0:0:0:
265,258,82059,1,2,0:0:0:0:
288,207,82202,1,2,0:0:0:0:
268,155,82345,1,2,0:0:0:0:
217,132,82488,1,2,0:0:0:0:
414,43,82774,6,0,P|454:69|402:74,1,115,4|0,3:2|3:2,0:0:0:0:
353,139,83203,1,0,3:2:0:0:
238,200,83489,2,0,L|236:274,1,57.5,2|2,0:0|3:1,0:0:0:0:
433,326,83917,6,0,L|304:319,1,115,0|2,3:0|3:2,0:0:0:0:
318,319,84346,1,2,3:2:0:0:
433,265,84631,2,0,L|434:197,1,57.5,2|2,3:2|3:2,0:0:0:0:
238,192,85060,6,0,P|204:177|243:131,1,115,0|0,3:0|3:0,0:0:0:0:
297,125,85489,1,0,3:0:0:0:
412,122,85774,2,0,L|480:125,1,57.5,2|2,0:0|1:0,0:0:0:0:
272,86,86203,6,0,L|194:78,1,57.5,2|2,0:0|0:0,0:0:0:0:
328,27,86631,2,0,L|328:99,1,57.5,2|2,0:0|0:0,0:0:0:0:
208,132,87060,2,0,L|208:210,1,57.5,2|2,0:0|0:0,0:0:0:0:
336,243,87346,6,0,P|369:267|321:314,1,115,4|2,3:2|3:2,0:0:0:0:
275,345,87774,1,0,3:0:0:0:
160,347,88060,2,0,L|83:340,1,57.5,2|2,0:0|3:1,0:0:0:0:
300,276,88489,6,0,P|324:258|283:198,1,115,2|2,3:2|3:2,0:0:0:0:
233,186,88917,1,2,0:0:0:0:
120,155,89203,2,0,L|181:154,1,57.5,2|2,0:0|3:2,0:0:0:0:
373,93,89631,6,0,L|247:86,1,115,0|0,3:0|3:0,0:0:0:0:
316,65,90060,1,0,3:0:0:0:
431,32,90346,2,2,L|371:22,1,57.5,2|2,0:0|3:1,0:0:0:0:
178,77,90774,6,0,L|114:73,1,57.5,2|2,0:0|0:0,0:0:0:0:
237,25,91203,2,0,L|239:92,1,57.5,2|2,0:0|0:0,0:0:0:0:
124,162,91631,1,0,3:0:0:0:
324,234,91917,6,0,L|208:229,1,115,4|0,3:2|3:0,0:0:0:0:
266,268,92346,1,0,3:0:0:0:
151,313,92631,2,0,L|77:313,1,57.5,2|2,0:0|3:1,0:0:0:0:
291,348,93060,6,0,L|417:353,1,115,0|2,3:0|3:2,0:0:0:0:
348,324,93489,1,2,3:2:0:0:
464,284,93774,2,0,L|466:225,1,57.5,2|0,0:0|3:0,0:0:0:0:
408,216,94060,1,2,0:0:0:0:
281,201,94203,6,0,P|241:177|277:124,1,115,0|0,3:0|3:0,0:0:0:0:
319,97,94631,1,0,3:0:0:0:
434,37,94917,2,2,L|356:36,1,57.5,2|2,0:0|3:1,0:0:0:0:
178,115,95346,6,0,L|303:147,2,115,0|2|2,3:2|0:0|0:0,0:0:0:0:
63,156,96203,2,0,L|61:222,1,57.5,2|0,0:0|0:0,0:0:0:0:
189,245,96489,6,0,P|218:261|177:326,1,115,4|0,3:2|3:2,0:0:0:0:
138,342,96917,1,0,3:2:0:0:
254,291,97203,2,0,L|316:294,1,57.5,2|2,0:0|3:1,0:0:0:0:
116,235,97631,6,0,P|95:210|148:160,1,115,0|2,3:0|3:2,0:0:0:0:
198,152,98060,1,2,0:0:0:0:
83,117,98346,2,0,L|84:53,1,57.5,2|0,0:0|3:2,0:0:0:0:
281,65,98774,6,0,L|410:78,1,115,0|0,3:0|3:0,0:0:0:0:
337,131,99203,1,0,3:0:0:0:
221,224,99489,2,2,L|161:224,1,57.5,2|2,0:0|3:1,0:0:0:0:
362,334,99917,5,2,0:0:0:0:
251,299,100203,1,2,0:0:0:0:
209,261,100345,1,2,0:0:0:0:
203,205,100488,1,2,0:0:0:0:
236,159,100631,1,2,0:0:0:0:
291,147,100774,1,2,0:0:0:0:
96,49,101060,6,0,P|70:65|108:125,1,115,4|0,3:2|3:2,0:0:0:0:
159,148,101489,1,0,3:2:0:0:
40,196,101774,2,0,L|39:262,1,57.5,2|2,0:0|3:1,0:0:0:0:
235,333,102203,6,0,L|361:335,1,115,0|2,3:0|3:2,0:0:0:0:
293,312,102631,1,2,3:2:0:0:
411,283,102917,2,0,L|472:284,1,57.5,2|2,3:2|3:2,0:0:0:0:
266,237,103346,6,0,P|231:221|274:175,1,115,0|0,3:0|3:0,0:0:0:0:
322,163,103774,1,0,3:0:0:0:
381,159,103917,1,2,0:0:0:0:
184,97,104203,6,0,L|122:87,1,57.5,0|0,3:0|0:0,0:0:0:0:
241,34,104631,2,0,L|240:110,1,57.5,0|2,3:0|0:0,0:0:0:0:
124,190,105060,2,0,L|49:178,2,57.5,0|2|2,3:0|0:0|0:0,0:0:0:0:
324,243,105631,5,4,3:2:0:0:
266,242,105773,1,0,0:0:0:0:
209,242,105916,1,2,3:2:0:0:
324,285,106203,2,0,L|386:298,2,57.5,2|2|0,3:2|0:0|3:0,0:0:0:0:
128,305,106774,6,0,L|55:316,2,57.5,2|2|2,3:2|0:0|3:2,0:0:0:0:
244,222,107346,1,0,3:0:0:0:
186,216,107488,1,2,0:0:0:0:
129,210,107631,1,0,3:0:0:0:
326,138,107917,6,0,L|464:142,1,115,0|2,3:0|3:2,0:0:0:0:
326,139,108489,2,0,L|450:141,1,115,0|0,3:0|3:0,0:0:0:0:
245,53,109060,6,0,L|161:46,2,57.5,0|0|2,3:0|3:0|3:2,0:0:0:0:
359,139,109631,2,0,P|397:159|354:199,1,115,0|0,3:0|3:0,0:0:0:0:
160,208,110203,6,0,P|131:221|169:274,1,115,4|8,3:2|0:0,0:0:0:0:
277,303,110774,2,0,L|153:306,1,115,2|8,3:2|0:0,0:0:0:0:
358,330,111346,6,0,L|491:341,1,115,6|8,3:2|0:0,0:0:0:0:
358,330,111917,2,0,L|484:342,1,115,0|8,3:2|0:0,0:0:0:0:
276,249,112489,5,4,3:2:0:0:
126,169,112917,2,0,L|209:164,1,57.5,0|0,3:0|3:0,0:0:0:0:
356,137,113489,2,0,L|274:120,1,57.5,0|0,3:0|3:0,0:0:0:0:
103,47,113917,5,2,0:0:0:0:
53,72,114059,1,2,0:0:0:0:
36,126,114202,1,2,0:0:0:0:
62,175,114345,1,2,0:0:0:0:
115,192,114488,1,2,0:0:0:0:
314,261,114774,6,0,L|187:266,2,115,4|0|0,1:2|1:0|1:0,0:0:0:0:
429,257,115631,1,0,1:0:0:0:
486,303,115774,6,2,L|482:172,1,115,2|2,0:1|0:1,0:1:0:0:
367,130,116346,2,2,L|498:123,1,115,2|2,0:1|0:1,0:1:0:0:
367,130,116917,1,2,0:1:0:0:
241,36,117060,6,0,L|230:158,1,115,4|0,1:2|1:2,0:0:0:0:
342,187,117631,2,0,L|346:313,1,115,0|0,1:0|1:0,0:0:0:0:
287,320,118060,1,0,0:0:0:0:
160,276,118203,6,0,L|42:263,1,115,4|0,1:2|1:0,0:0:0:0:
161,278,118774,2,0,L|40:264,1,115,0|0,1:0|1:0,0:0:0:0:
248,212,119346,6,0,P|279:202|237:157,1,115,4|0,1:2|1:0,0:0:0:0:
129,149,119917,1,0,1:0:0:0:
244,97,120203,1,0,1:0:0:0:
187,91,120346,6,2,L|57:82,1,115,2|2,0:1|0:1,0:1:0:0:
190,180,120917,2,2,P|221:200|190:256,1,115,2|2,0:1|0:1,0:1:0:0:
132,279,121346,1,0,1:0:0:0:
75,287,121489,1,2,0:1:0:0:
204,339,121631,6,0,L|331:343,1,115,4|0,1:2|1:0,0:0:0:0:
205,259,122203,2,0,P|167:240|217:197,1,115,0|0,1:0|1:0,0:0:0:0:
395,72,122774,6,0,P|446:94|368:303,1,345,0|0,1:0|1:0,0:0:0:0:
180,187,123917,6,0,L|111:197,2,57.5,0|0|0,3:0|1:0|3:0,0:0:0:0:
296,106,124489,1,0,3:0:0:0:
353,101,124631,1,0,1:0:0:0:
296,106,124774,1,0,3:0:0:0:
100,186,125060,6,0,L|234:204,2,115,4|8|0,3:2|0:0|3:0,0:0:0:0:
100,184,125917,1,8,0:0:0:0:
302,254,126203,6,0,L|425:259,1,115,0|8,3:0|0:0,0:0:0:0:
303,169,126774,1,0,3:0:0:0:
360,168,126916,1,2,3:2:0:0:
417,168,127059,1,8,0:0:0:0:
215,42,127346,6,0,P|185:68|237:110,1,115,0|8,3:0|0:0,0:0:0:0:
341,132,127917,1,0,3:0:0:0:
225,113,128203,1,8,0:0:0:0:
422,184,128489,6,0,P|465:207|427:266,1,115,0|8,3:0|0:0,0:0:0:0:
341,338,129060,2,0,L|474:343,1,115,0|8,3:0|0:0,0:0:0:0:
256,246,129631,6,0,L|257:115,1,115,0|8,3:0|0:0,0:0:0:0:
372,127,130203,2,0,L|373:7,1,115,0|8,3:0|0:0,0:0:0:0:
176,49,130774,6,0,P|141:59|193:85,1,115,0|8,3:0|0:0,0:0:0:0:
291,162,131346,2,0,L|149:159,1,115,0|8,3:0|0:0,0:0:0:0:
379,295,131917,5,0,3:0:0:0:
267,298,132203,2,0,L|266:163,1,115,8|8,0:0|0:0,0:0:0:0:
379,295,132774,1,0,3:0:0:0:
176,272,133060,6,0,P|146:254|189:203,1,115,8|8,0:0|0:0,0:0:0:0:
297,175,133631,2,0,L|357:178,2,57.5,0|2|8,3:0|0:0|0:0,0:0:0:0:
239,177,134060,1,0,0:0:0:0:
112,96,134203,6,0,P|84:108|122:160,1,115,4|8,3:2|0:0,0:0:0:0:
322,43,134774,2,0,L|196:25,1,115,0|8,3:0|0:0,0:0:0:0:
406,86,135346,6,0,P|449:103|399:126,1,115,0|8,3:0|0:0,0:0:0:0:
296,219,135917,1,0,3:0:0:0:
353,222,136059,1,2,3:2:0:0:
410,226,136202,1,8,0:0:0:0:
209,293,136489,6,0,L|75:274,1,115,0|8,3:0|0:0,0:0:0:0:
290,255,137060,2,0,L|408:250,1,115,0|8,3:0|0:0,0:0:0:0:
210,162,137631,6,0,L|129:171,2,57.5,0|2|8,3:0|3:2|0:0,0:0:0:0:
324,88,138203,2,0,L|187:77,1,115,0|8,3:0|0:0,0:0:0:0:
410,47,138774,6,0,P|449:61|405:109,1,115,4|2,3:2|0:0,0:0:0:0:
364,138,139203,2,0,L|299:145,1,57.5,0|2,3:0|0:0,0:0:0:0:
111,170,139631,2,0,P|82:185|132:241,1,115,0|2,3:0|0:0,0:0:0:0:
167,278,140060,6,0,L|98:282,1,57.5,0|2,3:0|0:0,0:0:0:0:
224,251,140489,1,0,3:0:0:0:
108,194,140774,1,0,3:0:0:0:
314,142,141060,5,4,3:2:0:0:
435,44,141346,2,0,P|473:61|428:119,1,115,8|0,0:0|3:0,0:0:0:0:
260,202,141917,1,8,0:0:0:0:
202,185,142060,6,0,L|343:192,1,115,2|2,0:0|0:0,0:0:0:0:
375,198,142489,1,8,0:0:0:0:
175,346,142774,2,0,P|140:331|175:283,1,115,0|8,3:0|0:0,0:0:0:0:
377,229,143346,6,0,P|414:249|376:303,1,115,4|2,3:2|0:0,0:0:0:0:
329,306,143774,2,0,L|407:301,1,57.5,0|2,3:0|0:0,0:0:0:0:
192,346,144203,2,0,P|159:321|208:273,1,115,0|2,3:0|0:0,0:0:0:0:
252,269,144631,6,0,L|330:266,1,57.5,0|2,3:0|0:0,0:0:0:0:
252,269,144917,1,2,0:0:0:0:
121,227,145060,2,0,P|90:207|134:150,1,115,0|0,3:0|3:0,0:0:0:0:
317,286,145631,5,6,3:2:0:0:
483,215,146203,2,0,L|409:207,1,57.5,2|2,0:0|0:0,0:0:0:0:
241,215,146774,6,0,L|170:209,1,57.5,0|2,3:0|0:0,0:0:0:0:
356,51,147346,1,8,0:0:0:0:
386,105,147489,1,0,0:0:0:0:
356,51,147631,1,0,0:0:0:0:
298,96,147774,1,0,0:0:0:0:
172,175,147917,6,0,P|142:194|190:244,1,115,4|8,3:2|0:0,0:0:0:0:
292,335,148489,2,0,L|357:332,1,57.5,0|2,3:0|0:0,0:0:0:0:
152,276,148917,6,0,L|32:252,1,115,2|2,0:0|0:0,0:0:0:0:
156,188,149489,2,0,L|238:190,1,57.5,2|0,0:0|3:0,0:0:0:0:
156,188,149774,2,0,L|158:112,1,57.5,2|8,0:0|0:0,0:0:0:0:
357,36,150203,6,0,P|389:50|354:108,1,115,0|8,3:0|0:0,0:0:0:0:
248,197,150774,2,0,L|317:207,1,57.5,0|2,3:0|0:0,0:0:0:0:
421,249,151203,1,2,0:0:0:0:
218,332,151489,6,0,P|179:305|225:287,1,115,2|2,0:0|0:0,0:0:0:0:
279,268,151917,1,8,0:0:0:0:
222,228,152060,2,0,L|156:216,1,57.5,2|8,0:0|0:0,0:0:0:0:
364,178,152489,6,0,P|392:167|360:108,1,115,0|8,3:0|0:0,0:0:0:0:
249,98,153060,2,0,L|186:92,1,57.5,0|2,3:0|0:0,0:0:0:0:
393,31,153489,6,0,P|424:46|390:101,1,115,2|2,0:0|0:0,0:0:0:0:
278,179,154060,2,0,L|218:171,1,57.5,2|0,0:0|3:0,0:0:0:0:
278,179,154346,2,0,L|346:181,1,57.5,2|8,0:0|0:0,0:0:0:0:
138,225,154774,6,0,P|110:240|146:293,1,115,0|8,3:0|0:0,0:0:0:0:
261,338,155346,2,0,L|191:340,1,57.5,0|2,3:0|0:0,0:0:0:0:
89,331,155774,1,2,0:0:0:0:
293,256,156060,6,0,P|321:238|285:178,1,115,2|2,0:0|0:0,0:0:0:0:
232,164,156489,1,8,0:0:0:0:
175,161,156631,2,0,L|235:162,1,57.5,2|8,0:0|0:0,0:0:0:0:
431,86,157060,6,0,L|305:75,1,115,4|8,3:2|0:0,0:0:0:0:
431,89,157631,2,0,L|489:93,1,57.5,0|2,3:0|0:0,0:0:0:0:
292,151,158060,6,0,P|265:166|305:220,1,115,2|2,0:0|0:0,0:0:0:0:
415,242,158631,1,2,0:0:0:0:
444,282,158774,1,0,3:0:0:0:
415,242,158917,1,2,0:0:0:0:
358,230,159060,1,8,0:0:0:0:
156,294,159346,6,0,L|296:301,1,115,0|8,3:0|0:0,0:0:0:0:
157,293,159917,2,0,L|160:218,1,57.5,0|2,3:0|0:0,0:0:0:0:
276,194,160346,1,2,0:0:0:0:
77,40,160631,6,0,P|43:51|79:96,1,115,2|2,0:0|0:0,0:0:0:0:
136,123,161060,1,8,0:0:0:0:
79,170,161203,2,0,L|76:231,1,57.5,2|8,0:0|0:0,0:0:0:0:
272,293,161631,6,0,L|141:310,1,115,0|8,3:0|0:0,0:0:0:0:
273,296,162203,2,0,L|334:303,1,57.5,0|2,3:0|0:0,0:0:0:0:
131,242,162631,6,0,P|103:223|138:162,1,115,2|2,0:0|0:0,0:0:0:0:
250,137,163203,2,0,L|251:75,1,57.5,2|0,0:0|3:0,0:0:0:0:
194,58,163489,2,0,L|131:52,1,57.5,2|8,0:0|0:0,0:0:0:0:
334,78,163917,6,0,L|453:93,1,115,0|8,3:0|0:0,0:0:0:0:
331,167,164489,2,0,L|271:180,1,57.5,0|2,3:0|0:0,0:0:0:0:
394,237,164917,1,2,0:0:0:0:
196,129,165203,6,0,P|164:150|216:187,1,115,2|2,0:0|0:0,0:0:0:0:
262,221,165631,1,8,0:0:0:0:
319,258,165774,2,0,L|320:324,1,57.5
123,349,166203,6,0,P|87:331|134:283,1,115,4|0,3:2|3:0,0:0:0:0:
234,237,166774,2,0,L|305:242,1,57.5,0|2,3:0|0:0,0:0:0:0:
176,179,167203,6,0,L|56:156,1,115,2|2,0:0|0:0,0:0:0:0:
183,112,167774,2,0,L|192:34,1,57.5,2|0,0:0|3:0,0:0:0:0:
132,38,168060,2,0,L|200:38,1,57.5,2|0,0:0|3:0,0:0:0:0:
389,53,168489,6,0,P|416:65|384:128,1,115,0|0,3:0|3:0,0:0:0:0:
277,214,169060,2,0,L|357:223,1,57.5,0|2,3:0|0:0,0:0:0:0:
451,273,169489,1,2,0:0:0:0:
253,336,169774,6,0,P|217:322|265:284,1,115,2|2,0:0|0:0,0:0:0:0:
311,252,170203,1,0,3:0:0:0:
253,246,170345,1,2,0:0:0:0:
196,240,170488,1,0,3:0:0:0:
396,169,170774,6,0,P|429:150|392:99,1,115,0|0,3:0|3:0,0:0:0:0:
278,86,171346,2,0,L|215:81,1,57.5,0|2,3:0|0:0,0:0:0:0:
335,43,171774,6,0,L|465:47,1,115,2|2,0:0|0:0,0:0:0:0:
332,137,172346,2,0,L|253:126,1,57.5,2|0,0:0|3:0,0:0:0:0:
332,146,172631,2,0,L|332:222,1,57.5,2|0,0:0|3:0,0:0:0:0:
132,298,173060,6,0,L|269:298,1,115,0|0,3:0|3:0,0:0:0:0:
361,257,173631,2,0,L|295:246,1,57.5,0|2,3:0|0:0,0:0:0:0:
189,212,174060,1,2,0:0:0:0:
390,179,174346,6,0,P|425:164|381:116,1,115,2|2,0:0|0:0,0:0:0:0:
336,101,174774,1,0,3:0:0:0:
392,108,174916,1,2,0:0:0:0:
449,116,175059,1,0,0:0:0:0:
249,55,175346,6,0,L|111:62,1,115,4|0,3:2|3:0,0:0:0:0:
250,158,175917,2,0,L|311:167,1,57.5,0|2,3:0|0:0,0:0:0:0:
190,212,176346,6,0,P|159:224|199:267,1,115,2|2,0:0|0:0,0:0:0:0:
313,353,176917,1,2,0:0:0:0:
342,307,177060,1,0,3:0:0:0:
313,353,177203,1,2,0:0:0:0:
255,347,177346,1,0,3:0:0:0:
57,292,177631,6,0,L|61:159,1,115,0|0,3:0|3:0,0:0:0:0:
175,151,178203,2,0,L|236:153,1,57.5,0|2,3:0|0:0,0:0:0:0:
117,119,178631,1,2,0:0:0:0:
314,98,178917,6,0,L|437:101,1,115,2|2,0:0|0:0,0:0:0:0:
371,98,179346,1,0,3:0:0:0:
429,100,179489,2,0,L|432:27,1,57.5,2|0,0:0|3:0,0:0:0:0:
225,38,179917,6,0,P|195:55|237:105,1,115,0|0,3:0|3:0,0:0:0:0:
348,172,180489,2,0,L|413:173,1,57.5,0|2,3:0|0:0,0:0:0:0:
290,264,180917,6,0,L|157:277,1,115,2|2,0:0|0:0,0:0:0:0:
275,339,181489,2,0,L|345:348,1,57.5,2|0,0:0|3:0,0:0:0:0:
271,333,181774,2,0,L|208:324,1,57.5,2|0,0:0|3:0,0:0:0:0:
412,258,182203,6,0,P|443:242|405:188,1,115,0|0,3:0|3:0,0:0:0:0:
296,164,182774,2,0,L|370:165,1,57.5,0|2,3:0|0:0,0:0:0:0:
470,136,183203,1,2,0:0:0:0:
328,69,183489,6,0,L|191:58,1,115,2|2,0:0|0:0,0:0:0:0:
271,69,183917,1,0,3:0:0:0:
385,89,184203,1,0,0:0:0:0:
178,167,184489,5,4,3:2:0:0:
256,192,184774,12,0,186203,0:0:0:0:
