osu file format v14

[General]
AudioFilename: audio.mp3
AudioLeadIn: 0
PreviewTime: 68570
Countdown: 0
SampleSet: Soft
StackLeniency: 0.7
Mode: 2
LetterboxInBreaks: 0
WidescreenStoryboard: 1

[Editor]
Bookmarks: 499,18784,37070,55356,69070,87356,105641,114784,125070,147927,166213,186213
DistanceSpacing: 1.1
BeatDivisor: 4
GridSize: 32
TimelineZoom: 2.2

[Metadata]
Title:I got it! (Slax Remix)
TitleUnicode:I got it! (Slax Remix)
Artist:Mia REGINA
ArtistUnicode:Mia REGINA
Creator:-Rustyy
Version:Rain
Source:天晴爛漫!
Tags:appare-ranman! -momox nosuri bighzonda bigh japanese anime electronic breakcore hardcore j-core jcore hardtek j-tek opening
BeatmapID:3681625
BeatmapSetID:1764078

[Difficulty]
HPDrainRate:5
CircleSize:3.8
OverallDifficulty:9
ApproachRate:9
SliderMultiplier:1.5
SliderTickRate:2

[Events]
//Background and Video events
0,0,"laplus.jpg",0,0
//Break Periods
//Storyboard Layer 0 (Background)
//Storyboard Layer 1 (Fail)
//Storyboard Layer 2 (Pass)
//Storyboard Layer 3 (Foreground)
//Storyboard Layer 4 (Overlay)
//Storyboard Sound Samples

[TimingPoints]
203,285.714285714286,4,2,2,40,1,0
203,-100,4,2,2,40,0,0
489,285.714285714286,4,2,1,40,1,0
5060,-100,4,2,2,50,0,0
9631,-100,4,2,2,60,0,0
18774,-100,4,2,1,70,0,1
36489,-100,4,2,1,70,0,1
37060,-100,4,2,1,60,0,0
54774,-90.9090909090909,4,2,1,60,0,0
55060,-100,4,2,1,60,0,0
55346,-100,4,2,1,40,0,0
59917,-100,4,2,1,50,0,0
63346,-100,4,2,1,60,0,0
64489,-100,4,2,1,60,0,0
64631,-100,4,2,1,60,0,0
67917,-100,4,2,3,60,0,0
68203,-100,4,2,4,60,0,0
69060,-100,4,2,2,70,0,1
87203,-100,4,2,2,70,0,0
87346,-100,4,2,2,70,0,1
105203,-100,4,2,1,70,0,1
105631,-100,4,2,2,60,0,0
110203,-100,4,2,1,60,0,0
110774,-100,4,2,2,60,0,0
111060,-100,4,2,1,60,0,0
111346,-100,4,2,2,60,0,0
111631,-100,4,2,1,60,0,0
111917,-100,4,2,2,60,0,0
112203,-100,4,2,1,60,0,0
112346,-100,4,2,2,60,0,0
114774,-100,4,2,1,40,0,0
119346,-100,4,2,1,50,0,0
122774,-100,4,2,1,60,0,0
123917,-100,4,2,1,60,0,0
125060,-100,4,2,1,70,0,1
134203,-100,4,2,1,70,0,1
145631,-100,4,2,1,60,0,0
147917,-100,4,2,1,70,0,1
165203,-100,4,2,1,70,0,1
165631,-100,4,2,1,70,0,1
166203,-100,4,2,1,50,0,0
175346,-100,4,2,1,40,0,0
182203,-100,4,2,1,30,0,0
185060,-100,4,2,1,25,0,0
185631,-100,4,2,1,20,0,0
186203,-100,4,2,1,15,0,0

[Colours]
Combo1 : 245,210,10
Combo2 : 116,10,245
Combo3 : 84,84,171
Combo4 : 200,32,223

[HitObjects]
353,324,345,6,2,L|291:310,1,37.5
162,265,488,6,0,P|123:239|176:172,1,150,4|0,3:2|3:0,0:0:0:0:
246,146,917,2,0,L|247:54,1,75,2|0,0:0|3:0,0:0:0:0:
118,59,1203,2,0,L|210:55,2,75,2|0|2,0:0|3:0|0:0,0:0:0:0:
243,224,1631,6,0,L|333:239,2,75,0|2|0,3:0|0:0|3:0,0:0:0:0:
114,311,2060,2,0,L|282:305,1,150,2|2,0:0|0:0,0:0:0:0:
188,283,2489,2,0,L|188:198,1,75,0|2,3:0|0:0,0:0:0:0:
390,198,2774,6,0,P|435:179|399:106,1,150,0|0,3:2|3:0,0:0:0:0:
324,81,3203,2,0,L|321:169,1,75,2|0,0:0|3:0,0:0:0:0:
447,241,3489,2,0,L|365:252,2,75,2|0|2,0:0|3:0|0:0,0:0:0:0:
319,318,3917,6,0,L|231:302,1,75,0|2,3:0|0:0,0:0:0:0:
376,212,4203,2,0,L|417:209,2,37.5,0|0|2,3:0|0:0|0:0,0:0:0:0:
301,171,4489,1,0,3:0:0:0:
338,170,4560,1,0,0:0:0:0:
375,169,4631,1,2,0:0:0:0:
247,96,4774,2,0,L|201:112,2,37.5,0|0|2,3:0|0:0|0:0,0:0:0:0:
451,38,5060,6,0,P|478:84|397:143,1,150,4|2,3:2|3:0,0:0:0:0:
345,202,5489,2,0,L|442:212,1,75,0|0,0:0|3:0,0:0:0:0:
291,285,5774,2,0,L|215:289,1,75,2|2,0:0|3:2,0:0:0:0:
216,288,6060,1,2,0:0:0:0:
343,194,6203,5,2,3:2:0:0:
268,189,6345,1,2,0:0:0:0:
193,184,6488,1,2,3:2:0:0:
321,47,6631,2,0,P|353:71|293:142,1,150,0|2,0:0|0:0,0:0:0:0:
230,172,7060,1,2,3:2:0:0:
156,192,7203,1,2,0:0:0:0:
362,279,7346,5,0,3:2:0:0:
438,250,7489,2,0,L|486:254,2,37.5,2|2|2,0:0|0:0|3:2,0:0:0:0:
362,279,7774,1,0,0:0:0:0:
234,252,7917,2,0,L|235:170,1,75,2|2,3:2|0:0,0:0:0:0:
310,160,8203,2,0,L|315:76,1,75,2|2,3:2|0:0,0:0:0:0:
185,51,8489,5,2,3:2:0:0:
111,79,8631,2,0,L|158:83,1,37.5,2|0,0:0|0:0,0:0:0:0:
286,120,8774,2,0,P|388:162|276:355,1,375,2|2,3:2|0:0,0:0:0:0:
102,186,9631,6,0,L|274:197,1,150,4|2,3:2|3:2,0:0:0:0:
177,191,10060,1,0,0:0:0:0:
310,307,10203,2,0,L|356:314,2,37.5,2|2|2,3:2|0:0|0:0,0:0:0:0:
234,254,10489,2,0,L|325:254,1,75,2|2,3:2|0:0,0:0:0:0:
180,210,10774,5,2,3:2:0:0:
103,184,10917,2,0,L|62:184,2,37.5,2|0|2,0:0|0:0|3:2,0:0:0:0:
180,210,11203,1,0,0:0:0:0:
306,134,11346,2,0,L|216:129,1,75,2|2,3:2|0:0,0:0:0:0:
306,57,11631,2,0,L|391:62,1,75,2|2,3:2|0:0,0:0:0:0:
176,37,11917,6,0,P|137:60|196:127,1,150,2|2,3:2|3:2,0:0:0:0:
259,162,12346,1,0,0:0:0:0:
388,229,12489,2,0,L|309:230,1,75,2|2,3:2|0:0,0:0:0:0:
389,262,12774,2,0,L|396:354,1,75,2|2,3:2|0:0,0:0:0:0:
183,313,13060,6,0,L|257:329,2,75,2|2|2,0:0|0:0|0:0,0:0:0:0:
312,217,13489,2,0,L|361:228,2,37.5,2|2|2,0:0|0:0|0:0,0:0:0:0:
236,167,13774,1,2,0:0:0:0:
310,171,13916,1,0,3:2:0:0:
385,176,14059,1,0,0:0:0:0:
179,45,14203,6,0,P|153:83|221:147,1,150,4|2,3:2|3:2,0:0:0:0:
288,164,14631,1,0,0:0:0:0:
160,189,14774,2,0,L|155:271,1,75,2|2,3:2|0:0,0:0:0:0:
233,306,15060,2,0,L|156:310,1,75,2|2,3:2|0:0,0:0:0:0:
287,344,15346,5,2,3:2:0:0:
362,312,15489,2,0,L|373:263,2,37.5,2|0|2,0:0|0:0|3:2,0:0:0:0:
287,344,15774,1,0,0:0:0:0:
416,235,15917,2,0,L|385:204,1,37.5,2|2,3:2|0:0,0:0:0:0:
334,201,16060,1,2,0:0:0:0:
464,171,16203,2,0,L|468:79,1,75,2|2,3:2|0:0,0:0:0:0:
259,70,16489,5,2,3:2:0:0:
333,73,16631,1,2,3:2:0:0:
259,70,16774,1,2,3:2:0:0:
184,65,16917,1,0,3:2:0:0:
312,158,17060,1,2,3:2:0:0:
237,160,17203,1,2,3:2:0:0:
312,158,17346,1,2,3:2:0:0:
387,187,17489,1,2,3:2:0:0:
137,293,17631,5,4,3:2:0:0:
368,251,18346,2,0,L|290:243,2,75
158,323,18774,6,0,L|161:243,1,75,4|2,3:2|0:0,0:0:0:0:
245,230,19060,2,0,L|244:135,1,75,8|2,0:0|0:0,0:0:0:0:
114,89,19346,2,0,L|195:85,2,75,0|2|8,3:0|0:0|0:0,0:0:0:0:
322,157,19774,6,0,L|405:161,1,75,2|0,0:0|3:0,0:0:0:0:
321,70,20060,2,0,L|321:166,1,75,2|8,0:0|0:0,0:0:0:0:
450,215,20346,1,2,0:0:0:0:
375,263,20489,2,0,L|450:269,1,75,0|2,3:0|0:0,0:0:0:0:
322,312,20774,2,0,L|226:297,1,75,8|2,0:0|0:0,0:0:0:0:
453,346,21060,6,0,L|450:253,1,75,0|2,3:0|0:0,0:0:0:0:
376,235,21346,2,0,L|470:235,1,75,8|2,0:0|0:0,0:0:0:0:
321,166,21631,1,0,3:0:0:0:
396,138,21774,2,0,L|398:42,1,75,2|8,0:0|0:0,0:0:0:0:
273,43,22060,6,0,L|366:37,1,75,2|0,0:0|3:0,0:0:0:0:
141,77,22346,2,0,P|104:109|173:171,1,150,2|2,0:0|0:0,0:0:0:0:
275,235,22774,2,0,L|191:237,1,75,8|2,0:0|0:0,0:0:0:0:
325,294,23060,2,0,L|434:313,1,75,8|0,0:0|3:0,0:0:0:0:
188,345,23346,6,0,L|191:262,1,75,0|2,3:0|0:0,0:0:0:0:
267,245,23631,2,0,L|271:152,1,75,8|2,0:0|0:0,0:0:0:0:
137,99,23917,1,0,3:0:0:0:
211,98,24059,1,2,0:0:0:0:
286,98,24202,1,8,0:0:0:0:
81,175,24346,6,0,L|176:181,1,75,2|0,0:0|3:0,0:0:0:0:
68,103,24631,2,0,L|60:211,1,75,2|8,0:0|0:0,0:0:0:0:
191,264,24917,1,2,0:0:0:0:
65,288,25060,2,0,L|143:299,1,75,0|2,3:0|0:0,0:0:0:0:
267,220,25346,2,0,L|191:217,1,75,8|2,0:0|0:0,0:0:0:0:
405,332,25631,6,0,L|408:243,1,75,0|2,3:0|0:0,0:0:0:0:
319,248,25917,2,0,L|316:153,1,75,8|2,0:0|0:0,0:0:0:0:
444,136,26203,1,0,3:0:0:0:
310,108,26346,2,0,L|231:93,1,75,2|8,0:0|0:0,0:0:0:0:
316,25,26631,2,0,L|317:112,1,75,2|0,0:0|3:0,0:0:0:0:
114,222,26917,6,0,L|288:236,1,150,2|2,0:0|0:0,0:0:0:0:
188,279,27346,1,8,0:0:0:0:
321,318,27489,2,0,L|247:300,2,75,2|8|0,0:0|0:0|3:0,0:0:0:0:
117,345,27917,6,0,L|112:254,1,75,4|2,3:2|0:0,0:0:0:0:
192,239,28203,2,0,L|102:229,1,75,8|2,0:0|0:0,0:0:0:0:
242,183,28489,1,0,3:0:0:0:
109,159,28631,2,0,L|106:77,1,75,2|8,0:0|0:0,0:0:0:0:
312,53,28917,6,0,L|226:44,1,75,2|0,0:0|3:0,0:0:0:0:
313,24,29203,2,0,L|314:105,1,75,2|8,0:0|0:0,0:0:0:0:
184,171,29489,1,2,0:0:0:0:
312,243,29631,2,0,L|406:246,1,75,0|2,3:0|0:0,0:0:0:0:
258,300,29917,2,0,L|174:313,1,75,8|2,0:0|0:0,0:0:0:0:
395,336,30203,6,0,L|393:251,1,75,0|2,3:0|0:0,0:0:0:0:
315,264,30489,2,0,L|311:181,1,75,8|2,0:0|0:0,0:0:0:0:
441,160,30774,1,0,3:0:0:0:
308,103,30917,2,0,L|211:101,1,75,2|8,0:0|0:0,0:0:0:0:
308,103,31203,2,0,L|406:108,1,75,2|0,0:0|3:0,0:0:0:0:
178,39,31489,6,0,P|146:66|197:137,1,150,2|2,0:0|0:0,0:0:0:0:
273,162,31917,1,8,0:0:0:0:
142,242,32060,2,0,L|66:233,2,75,2|8|0,0:0|0:0|3:0,0:0:0:0:
347,304,32489,6,0,L|248:308,1,75,0|2,3:0|0:0,0:0:0:0:
203,276,32774,2,0,L|286:271,1,75,8|2,0:0|0:0,0:0:0:0:
149,205,33060,1,0,3:0:0:0:
223,208,33203,2,0,L|135:204,1,75,2|8,0:0|0:0,0:0:0:0:
354,172,33489,6,0,L|354:90,1,75,2|0,0:0|3:0,0:0:0:0:
278,78,33774,2,0,L|183:76,1,75,2|8,0:0|0:0,0:0:0:0:
336,29,34060,1,2,0:0:0:0:
208,115,34203,2,0,L|209:192,1,75,0|2,3:0|0:0,0:0:0:0:
296,215,34489,2,0,L|300:297,1,75,8|0,0:0|3:0,0:0:0:0:
91,353,34774,6,0,L|177:355,1,75,0|2,3:0|0:0,0:0:0:0:
234,319,35060,2,0,L|152:315,1,75,8|2,0:0|0:0,0:0:0:0:
27,263,35346,1,0,3:0:0:0:
160,229,35489,2,0,L|162:148,1,75,2|8,0:0|0:0,0:0:0:0:
77,127,35774,2,0,L|75:45,1,75,2|0,0:0|3:0,0:0:0:0:
284,51,36060,6,0,P|322:75|269:149,1,150,2|2,0:0|0:0,0:0:0:0:
150,219,36489,2,0,L|329:237,1,150,8|0,0:0|0:0,0:0:0:0:
375,260,36917,1,0,3:0:0:0:
155,352,37060,6,0,L|74:351,1,75,4|2,3:2|0:0,0:0:0:0:
155,352,37346,2,0,L|245:347,1,75,8|2,0:0|0:0,0:0:0:0:
354,175,37631,2,0,L|270:161,2,75,0|2|8,3:0|0:0|0:0,0:0:0:0:
224,52,38060,6,0,L|223:135,1,75,2|0,0:0|3:0,0:0:0:0:
301,151,38346,2,0,L|303:248,1,75,2|8,0:0|0:0,0:0:0:0:
148,304,38631,2,0,L|325:317,1,150,2|2,0:0|0:0,0:0:0:0:
170,258,39060,2,0,L|76:247,1,75,8|2,0:0|0:0,0:0:0:0:
310,212,39346,6,0,L|413:206,1,75,0|2,3:0|0:0,0:0:0:0:
255,177,39631,2,0,L|257:80,1,75,8|2,0:0|0:0,0:0:0:0:
388,107,39917,2,0,L|390:13,1,75,0|2,3:0|0:0,0:0:0:0:
261,36,40203,1,8,0:0:0:0:
387,63,40346,6,0,L|277:66,1,75,2|0,0:0|3:0,0:0:0:0:
235,116,40631,2,0,L|317:123,1,75,2|0,0:0|3:0,0:0:0:0:
181,190,40917,2,0,P|155:206|208:291,1,150,2|2,0:0|0:0,0:0:0:0:
328,272,41346,2,0,L|231:275,1,75,8|0,0:0|3:0,0:0:0:0:
456,343,41631,6,0,L|459:245,1,75,4|2,3:2|0:0,0:0:0:0:
373,220,41917,2,0,L|463:215,1,75,8|2,0:0|0:0,0:0:0:0:
316,176,42203,2,0,L|311:86,1,75,0|2,3:0|0:0,0:0:0:0:
442,66,42489,1,8,0:0:0:0:
238,58,42631,6,0,L|142:51,1,75,2|0,0:0|3:0,0:0:0:0:
236,26,42917,2,0,L|240:136,1,75,2|8,0:0|0:0,0:0:0:0:
107,196,43203,2,0,L|189:209,2,75,2|0|2,0:0|3:0|3:2,0:0:0:0:
236,290,43631,2,0,L|317:291,1,75,8|2,0:0|0:0,0:0:0:0:
236,290,43917,5,0,3:0:0:0:
30,313,44060,2,0,L|132:311,2,75,8|2|0,0:0|0:0|3:0,0:0:0:0:
158,247,44489,2,0,L|241:253,2,75,8|2|0,0:0|0:0|3:0,0:0:0:0:
293,186,44917,6,0,L|294:104,1,75,8|2,0:0|0:0,0:0:0:0:
219,102,45203,1,0,3:0:0:0:
350,51,45346,2,0,L|437:53,1,75,8|2,0:0|0:0,0:0:0:0:
424,52,45631,1,0,3:0:0:0:
186,313,45774,2,0,L|20:278,1,150,2|2,0:0|0:0,0:0:0:0:
246,232,46203,6,0,L|343:233,1,75,4|2,3:2|0:0,0:0:0:0:
246,232,46489,2,0,L|241:132,1,75,8|2,0:0|0:0,0:0:0:0:
370,82,46774,2,0,L|271:76,1,75,0|2,3:0|0:0,0:0:0:0:
373,33,47060,2,0,L|378:130,1,75,8|2,0:0|0:0,0:0:0:0:
244,201,47346,5,0,3:0:0:0:
321,259,47489,1,2,0:0:0:0:
246,261,47631,1,8,0:0:0:0:
171,264,47774,1,2,0:0:0:0:
304,329,47917,2,0,L|305:231,1,75,0|2,3:0|0:0,0:0:0:0:
174,182,48203,1,8,0:0:0:0:
302,155,48346,1,2,3:2:0:0:
91,39,48489,6,0,L|90:135,1,75,0|2,3:0|0:0,0:0:0:0:
224,187,48774,2,0,L|143:187,1,75,8|2,0:0|0:0,0:0:0:0:
281,265,49060,2,0,L|367:277,1,75,0|2,3:0|0:0,0:0:0:0:
248,327,49346,2,0,L|242:220,1,75,8|2,0:0|0:0,0:0:0:0:
374,189,49631,5,0,3:0:0:0:
240,158,49774,1,2,3:2:0:0:
369,70,49917,2,0,L|374:177,1,75,8|2,0:0|0:0,0:0:0:0:
241,211,50203,2,0,P|219:258|286:313,1,150,0|8,3:2|0:0,0:0:0:0:
361,319,50631,1,2,0:0:0:0:
157,342,50774,6,0,L|161:232,1,75,4|2,3:2|0:0,0:0:0:0:
236,249,51060,2,0,L|236:161,1,75,8|2,0:0|0:0,0:0:0:0:
105,152,51346,2,0,L|108:62,1,75,0|2,3:2|0:0,0:0:0:0:
186,43,51631,2,0,L|107:33,1,75,8|2,0:0|0:0,0:0:0:0:
243,153,51917,6,0,L|334:152,1,75,0|2,3:2|0:0,0:0:0:0:
241,96,52203,2,0,L|236:174,1,75,8|2,0:0|0:0,0:0:0:0:
366,202,52489,2,0,L|366:304,1,75,0|2,3:2|0:0,0:0:0:0:
241,320,52774,1,8,0:0:0:0:
367,352,52917,1,2,3:2:0:0:
146,347,53060,5,4,3:2:0:0:
298,260,53489,1,0,3:2:0:0:
171,236,53631,1,8,0:0:0:0:
391,188,54060,1,0,3:2:0:0:
184,155,54203,5,8,0:0:0:0:
335,120,54489,1,2,0:0:0:0:
352,88,54560,1,2,0:0:0:0:
339,54,54631,1,2,0:0:0:0:
305,43,54703,1,2,0:0:0:0:
121,39,54774,6,0,L|118:213,1,165.000005035401,0|0,3:0|3:0,0:0:0:0:
470,245,55346,5,4,1:2:0:0:
344,307,55631,2,0,L|191:277,2,150,0|0|0,1:0|1:0|1:0,0:0:0:0:
214,338,56346,6,2,P|168:309|222:245,1,150,2|2,0:1|0:1,0:1:0:0:
361,188,56917,2,2,P|400:170|348:106,1,150,2|2,0:1|0:1,0:1:0:0:
196,97,57489,1,2,0:1:0:0:
316,20,57631,6,0,L|322:172,1,150,0|0,1:0|1:0,0:0:0:0:
169,174,58203,2,0,L|172:336,1,150,0|0,1:0|1:0,0:0:0:0:
303,285,58631,6,2,L|151:258,2,150,2|2|2,0:1|0:1|0:1,0:1:0:0:
435,348,59346,2,0,L|444:262,1,75,0|0,1:0|0:0,0:0:0:0:
321,232,59631,2,0,L|322:181,1,37.5,0|0,1:0|1:0,0:0:0:0:
371,181,59774,2,0,L|415:183,1,37.5,0|0,1:0|1:0,0:0:0:0:
277,131,59917,6,0,L|107:117,1,150,4|0,1:2|1:0,0:0:0:0:
273,82,60489,2,0,L|425:71,1,150,0|0,1:0|1:0,0:0:0:0:
295,27,60917,6,2,P|255:52|309:122,1,150,2|2,0:1|0:1,0:1:0:0:
421,178,61489,2,2,P|456:213|390:283,1,150,2|2,0:1|0:1,0:1:0:0:
253,324,62060,1,2,0:1:0:0:
456,326,62203,6,0,L|455:228,1,75,0|0,1:0|1:0,0:0:0:0:
325,214,62489,2,0,L|410:211,1,75,0|0,1:0|1:0,0:0:0:0:
270,162,62774,2,0,L|181:154,1,75,0|0,1:0|1:0,0:0:0:0:
319,83,63060,1,0,1:0:0:0:
183,69,63203,1,0,1:0:0:0:
409,39,63346,5,4,1:2:0:0:
419,74,63417,1,0,1:0:0:0:
405,107,63488,1,0,1:0:0:0:
371,122,63560,1,0,1:0:0:0:
227,164,63631,2,0,L|227:208,1,37.5,0|0,1:0|1:0,0:0:0:0:
286,218,63774,2,0,L|284:266,1,37.5,0|0,1:0|1:0,0:0:0:0:
136,331,63917,5,0,1:0:0:0:
120,298,63988,1,0,1:0:0:0:
136,265,64059,1,0,1:0:0:0:
172,257,64131,1,0,1:0:0:0:
323,209,64203,2,0,L|372:211,1,37.5,0|0,1:0|1:0,0:0:0:0:
226,161,64346,2,0,L|170:157,1,37.5,0|0,1:0|1:0,0:0:0:0:
376,110,64489,5,4,3:1:0:0:
376,110,64631,2,0,L|211:59,3,150,2|2|2|2,0:0|0:0|0:0|0:0,0:0:0:0:
83,199,65774,6,0,L|249:151,3,150,2|2|2|2,0:0|0:0|0:0|0:0,0:0:0:0:
399,271,66917,6,0,L|241:230,3,150,2|2|2|2,0:0|0:0|0:0|0:0,0:0:0:0:
50,282,67917,6,0,P|13:247|69:214,1,112.5,8|0,3:0|0:0,0:0:0:0:
208,182,68203,2,0,P|246:163|198:114,1,112.5,8|0,3:0|0:0,0:0:0:0:
161,101,68489,2,0,P|133:76|194:37,1,112.5,8|0,3:0|0:0,0:0:0:0:
320,66,68774,2,0,L|402:64,1,75
185,125,69060,6,0,P|151:156|214:224,1,150,4|2,3:2|3:2,0:0:0:0:
336,286,69489,2,0,L|181:292,1,150,0|2,3:0|0:0,0:0:0:0:
318,337,69917,2,0,L|419:339,1,75,2|0,3:1|3:0,0:0:0:0:
186,242,70203,5,2,3:2:0:0:
260,236,70345,1,2,0:0:0:0:
335,231,70488,1,2,3:2:0:0:
202,100,70631,1,2,0:0:0:0:
169,115,70702,1,2,0:0:0:0:
157,150,70773,1,2,0:0:0:0:
173,182,70845,1,2,0:0:0:0:
337,260,70916,1,2,0:0:0:0:
337,260,71060,1,2,3:2:0:0:
213,284,71203,1,2,0:0:0:0:
415,325,71346,6,0,P|458:303|399:243,1,150,0|0,3:0|3:0,0:0:0:0:
277,203,71774,2,0,L|441:191,1,150,0|2,3:0|0:0,0:0:0:0:
294,132,72203,2,0,L|209:127,1,75,2|0,3:1|3:0,0:0:0:0:
428,43,72489,5,2,0:0:0:0:
445,75,72560,1,0,0:0:0:0:
440,112,72631,1,2,0:0:0:0:
415,139,72703,1,2,0:0:0:0:
379,147,72774,1,2,0:0:0:0:
250,193,72917,1,2,0:0:0:0:
218,212,72988,1,2,0:0:0:0:
207,247,73059,1,2,0:0:0:0:
223,280,73131,1,2,0:0:0:0:
256,295,73202,1,2,0:0:0:0:
385,336,73346,2,0,L|299:336,1,75,0|0,3:0|0:0,0:0:0:0:
100,263,73631,6,0,L|280:255,1,150,4|0,3:2|3:0,0:0:0:0:
117,325,74060,2,0,P|72:297|124:224,1,150,0|2,3:0|0:0,0:0:0:0:
242,180,74489,2,0,L|156:174,1,75,2|0,3:1|3:0,0:0:0:0:
374,100,74774,6,0,L|284:99,2,75,0|2|2,3:0|0:0|3:2,0:0:0:0:
245,50,75203,1,2,3:2:0:0:
196,68,75274,2,0,L|175:108,2,37.5,2|2|2,0:0|0:0|0:0,0:0:0:0:
359,134,75489,2,0,L|454:141,1,75,2|0,0:0|3:0,0:0:0:0:
344,139,75774,1,2,0:0:0:0:
139,228,75917,6,0,P|126:262|210:331,1,150,0|0,3:0|3:0,0:0:0:0:
330,333,76346,2,0,P|370:310|312:238,1,150,0|2,3:0|0:0,0:0:0:0:
203,178,76774,2,0,L|306:168,1,75,2|0,3:1|3:2,0:0:0:0:
71,40,77060,6,0,L|67:85,3,37.5,0|0|2|2,3:2|0:0|0:0|0:0,0:0:0:0:
213,112,77346,2,0,L|222:158,3,37.5,2|2|2|2,0:0|0:0|0:0|0:0,0:0:0:0:
70,176,77631,2,0,L|76:273,1,75,2|2,0:0|0:0,0:0:0:0:
199,288,77917,2,0,L|96:295,1,75,2|2,0:0|0:0,0:0:0:0:
336,350,78203,6,0,P|379:345|376:253,1,150,4|0,3:2|3:2,0:0:0:0:
253,237,78631,2,0,P|223:207|296:139,1,150,0|2,3:2|0:0,0:0:0:0:
406,114,79060,2,0,L|410:33,1,75,2|0,3:1|3:0,0:0:0:0:
201,75,79346,5,0,3:0:0:0:
275,79,79488,1,2,0:0:0:0:
350,83,79631,1,2,3:2:0:0:
223,86,79774,2,0,L|225:143,1,37.5,2|2,0:0|0:0,0:0:0:0:
269,148,79917,1,2,0:0:0:0:
314,177,79989,1,2,0:0:0:0:
179,266,80060,1,2,0:0:0:0:
179,266,80203,1,0,3:2:0:0:
315,301,80346,1,2,0:0:0:0:
112,351,80489,6,0,P|76:305|151:249,1,150,0|0,3:0|3:0,0:0:0:0:
260,208,80917,2,0,P|230:175|119:152,1,150,0|2,3:0|0:0,0:0:0:0:
264,117,81346,2,0,L|374:118,1,75,2|2,3:1|0:0,0:0:0:0:
136,48,81631,6,0,L|138:136,1,75,2|2,0:0|0:0,0:0:0:0:
274,163,81917,1,2,0:0:0:0:
292,195,81988,1,2,0:0:0:0:
286,231,82059,1,2,0:0:0:0:
259,256,82131,1,2,0:0:0:0:
222,258,82202,1,2,0:0:0:0:
148,310,82346,1,2,0:0:0:0:
279,341,82489,2,0,L|421:354,1,112.5,2|0,0:0|0:0,0:0:0:0:
236,327,82774,6,0,P|194:311|243:242,1,150,4|0,3:2|3:2,0:0:0:0:
362,218,83203,2,0,P|398:192|326:129,1,150,0|2,3:2|0:0,0:0:0:0:
219,67,83631,2,0,L|321:64,1,75,2|0,3:1|3:0,0:0:0:0:
86,126,83917,6,0,L|170:130,2,75,0|2|2,3:0|0:0|3:2,0:0:0:0:
219,179,84346,2,0,L|216:225,1,37.5,2|2,3:2|0:0,0:0:0:0:
158,223,84489,2,0,L|158:267,1,37.5,2|2,0:0|3:2,0:0:0:0:
307,308,84631,1,2,3:2:0:0:
307,308,84774,1,2,3:2:0:0:
214,340,84917,1,2,0:0:0:0:
419,340,85060,6,0,P|441:298|368:221,1,150,0|0,3:0|3:0,0:0:0:0:
257,207,85489,2,0,L|95:169,1,150,0|2,3:0|0:0,0:0:0:0:
239,132,85917,2,0,L|329:125,1,75,2|0,1:0|0:0,0:0:0:0:
109,79,86203,5,2,0:0:0:0:
34,46,86346,2,0,L|36:138,1,75,2|2,0:0|0:0,0:0:0:0:
170,201,86631,1,2,0:0:0:0:
95,212,86774,2,0,L|93:292,1,75,2|2,0:0|0:0,0:0:0:0:
225,342,87060,2,0,L|141:324,1,75,2|2,0:0|0:0,0:0:0:0:
360,292,87346,6,0,P|402:270|348:192,1,150,4|2,3:2|3:2,0:0:0:0:
235,171,87774,2,0,P|205:145|279:82,1,150,0|2,3:0|0:0,0:0:0:0:
387,58,88203,2,0,L|483:57,1,75,2|0,3:1|3:0,0:0:0:0:
246,133,88489,6,0,L|169:117,2,75,2|2|2,3:2|0:0|3:2,0:0:0:0:
118,190,88917,1,2,0:0:0:0:
75,211,88988,1,2,0:0:0:0:
58,245,89059,1,2,0:0:0:0:
81,280,89131,1,2,0:0:0:0:
230,330,89202,1,2,0:0:0:0:
230,330,89346,1,2,3:2:0:0:
123,339,89489,1,2,0:0:0:0:
324,348,89631,6,0,P|364:343|348:252,1,150,0|0,3:0|3:0,0:0:0:0:
224,231,90060,2,0,P|257:196|361:167,1,150,0|2,3:0|0:0,0:0:0:0:
224,132,90489,2,0,L|120:118,1,75,2|0,3:1|3:0,0:0:0:0:
352,37,90774,5,2,0:0:0:0:
386,50,90845,1,0,0:0:0:0:
401,83,90916,1,2,0:0:0:0:
388,117,90988,1,2,0:0:0:0:
355,133,91059,1,2,0:0:0:0:
228,220,91203,1,2,0:0:0:0:
264,227,91274,1,2,0:0:0:0:
301,235,91345,1,2,0:0:0:0:
338,243,91417,1,2,0:0:0:0:
374,251,91488,1,2,0:0:0:0:
241,313,91631,2,0,L|159:312,1,75,0|0,3:0|0:0,0:0:0:0:
373,341,91917,6,0,P|413:327|374:250,1,150,4|0,3:2|3:0,0:0:0:0:
252,227,92346,2,0,L|88:207,1,150,0|2,3:0|0:0,0:0:0:0:
232,165,92774,2,0,L|321:155,1,75,2|0,3:1|3:0,0:0:0:0:
100,83,93060,5,0,3:0:0:0:
174,79,93202,1,2,0:0:0:0:
249,75,93345,1,2,3:2:0:0:
121,28,93489,1,2,3:2:0:0:
95,54,93560,1,2,0:0:0:0:
91,90,93631,1,2,0:0:0:0:
111,121,93703,1,2,0:0:0:0:
274,204,93774,1,2,0:0:0:0:
274,204,93917,1,0,3:0:0:0:
162,230,94060,1,2,0:0:0:0:
371,320,94203,6,0,L|211:296,1,150,0|0,3:0|3:0,0:0:0:0:
354,263,94631,2,0,P|398:228|333:162,1,150,0|2,3:0|0:0,0:0:0:0:
226,115,95060,2,0,L|133:102,1,75,2|0,3:1|3:2,0:0:0:0:
361,32,95346,5,0,3:2:0:0:
380,62,95417,1,0,0:0:0:0:
369,96,95488,1,2,0:0:0:0:
335,109,95560,1,2,0:0:0:0:
188,154,95631,1,2,0:0:0:0:
168,184,95702,1,2,0:0:0:0:
179,218,95773,1,2,0:0:0:0:
213,231,95845,1,2,0:0:0:0:
373,299,95917,2,0,L|417:299,2,37.5,2|2|2,0:0|0:0|0:0,0:0:0:0:
249,344,96203,2,0,L|351:353,1,75,2|0,0:0|0:0,0:0:0:0:
119,349,96489,6,0,P|79:331|128:250,1,150,4|0,3:2|3:2,0:0:0:0:
241,218,96917,2,0,L|68:176,1,150,0|2,3:2|0:0,0:0:0:0:
224,137,97346,2,0,L|324:132,1,75,2|0,3:1|3:0,0:0:0:0:
91,73,97631,6,0,L|186:79,2,75,0|2|2,3:0|0:0|3:2,0:0:0:0:
222,192,98060,2,0,L|227:260,1,37.5,2|2,0:0|0:0,0:0:0:0:
165,270,98203,2,0,L|231:271,1,37.5,2|2,0:0|0:0,0:0:0:0:
355,338,98346,2,0,L|354:253,1,75,2|0,0:0|3:2,0:0:0:0:
225,302,98631,1,2,0:0:0:0:
429,360,98774,6,0,P|444:318|369:257,1,150,0|0,3:0|3:0,0:0:0:0:
241,234,99203,2,0,P|200:217|243:147,1,150,0|2,3:0|0:0,0:0:0:0:
371,122,99631,2,0,L|297:115,1,75,2|2,3:1|0:0,0:0:0:0:
91,42,99917,6,0,L|92:138,1,75,2|2,0:0|0:0,0:0:0:0:
223,173,100203,2,0,L|223:233,1,37.5,2|2,0:0|0:0,0:0:0:0:
174,240,100346,1,2,0:0:0:0:
125,260,100417,2,0,L|125:311,1,37.5,2|2,0:0|0:0,0:0:0:0:
253,340,100631,1,2,0:0:0:0:
122,351,100774,2,0,P|86:311|134:273,1,112.5,2|0,0:0|0:0,0:0:0:0:
287,244,101060,6,0,L|444:252,1,150,4|0,3:2|3:2,0:0:0:0:
305,209,101489,2,0,P|272:179|330:104,1,150,0|2,3:2|0:0,0:0:0:0:
446,78,101917,2,0,L|361:66,1,75,2|0,3:1|3:0,0:0:0:0:
163,109,102203,5,0,3:0:0:0:
237,116,102345,1,2,0:0:0:0:
312,123,102488,1,2,3:2:0:0:
184,197,102631,2,0,L|185:244,1,37.5,2|2,3:2|0:0,0:0:0:0:
242,271,102774,2,0,L|293:275,1,37.5,2|2,0:0|3:2,0:0:0:0:
132,345,102917,2,0,L|131:262,1,75,2|2,3:2|3:2,0:0:0:0:
266,237,103203,1,2,0:0:0:0:
62,189,103346,6,0,P|112:157|220:130,1,150,0|0,3:0|3:0,0:0:0:0:
122,120,103774,1,0,3:0:0:0:
256,36,103917,2,0,P|294:61|240:134,1,150,2|0,0:0|3:0,0:0:0:0:
121,192,104346,6,0,P|93:235|159:293,1,150,0|0,0:0|3:0,0:0:0:0:
282,314,104774,1,2,0:0:0:0:
152,349,104917,2,0,L|73:348,1,75,2|0,0:0|3:0,0:0:0:0:
298,276,105203,6,0,L|461:282,1,150,2|2,0:0|0:0,0:0:0:0:
210,236,105631,6,0,L|110:231,1,75,4|0,3:2|0:0,0:0:0:0:
238,184,105917,2,0,L|143:175,1,75,2|0,3:2|0:0,0:0:0:0:
296,102,106203,2,0,L|383:99,1,75,2|2,3:2|0:0,0:0:0:0:
296,102,106489,2,0,L|395:99,1,75,0|0,3:0|0:0,0:0:0:0:
153,62,106774,5,2,3:2:0:0:
229,32,106917,1,2,0:0:0:0:
154,35,107059,1,2,3:2:0:0:
79,39,107202,1,0,0:0:0:0:
209,137,107346,2,0,L|297:146,1,75,0|2,3:0|0:0,0:0:0:0:
153,183,107631,2,0,L|152:285,1,75,0|2,3:0|0:0,0:0:0:0:
361,293,107917,6,0,L|256:300,1,75,0|0,3:0|0:0,0:0:0:0:
378,329,108203,2,0,L|378:232,1,75,2|0,3:2|0:0,0:0:0:0:
244,213,108489,2,0,L|330:207,1,75,0|2,3:0|0:0,0:0:0:0:
238,173,108774,2,0,L|234:88,1,75,0|0,3:0|0:0,0:0:0:0:
366,63,109060,5,0,3:0:0:0:
233,54,109203,1,0,3:0:0:0:
365,25,109346,2,0,L|366:124,1,75,2|0,3:2|0:0,0:0:0:0:
235,134,109631,2,0,L|230:244,1,75,0|0,3:0|0:0,0:0:0:0:
102,281,109917,2,0,L|195:309,1,75,0|0,3:0|3:0,0:0:0:0:
391,325,110203,6,0,L|219:311,1,150,4|8,3:2|0:0,0:0:0:0:
318,281,110631,1,0,0:0:0:0:
179,273,110774,2,0,L|174:197,1,75,2|2,3:2|0:0,0:0:0:0:
251,142,111060,2,0,L|161:135,1,75,8|0,0:0|0:0,0:0:0:0:
380,62,111346,6,0,L|303:52,2,75,6|2|8,3:2|0:0|0:0,0:0:0:0:
457,104,111774,1,0,0:0:0:0:
321,156,111917,2,0,L|322:240,1,75,0|2,3:2|0:0,0:0:0:0:
397,255,112203,2,0,L|401:342,1,75,8|2,0:0|0:0,0:0:0:0:
193,324,112489,5,4,3:2:0:0:
119,294,112631,2,0,L|110:246,2,37.5,2|2|2,0:0|0:0|0:0,0:0:0:0:
248,207,112917,1,0,3:0:0:0:
45,182,113060,1,0,3:0:0:0:
119,178,113202,1,2,0:0:0:0:
194,174,113345,1,2,0:0:0:0:
89,141,113489,1,0,3:0:0:0:
298,65,113631,6,0,L|300:149,1,75,0|0,3:0|0:0,0:0:0:0:
170,226,113917,2,0,L|114:221,2,37.5,2|2|2,0:0|0:0|0:0,0:0:0:0:
246,304,114203,1,2,0:0:0:0:
208,305,114274,1,2,0:0:0:0:
171,306,114345,1,2,0:0:0:0:
305,251,114489,2,0,L|429:258,1,112.5,2|0,0:0|0:0,0:0:0:0:
223,349,114774,6,0,P|181:333|231:263,1,150,4|0,1:2|1:0,0:0:0:0:
368,192,115346,2,0,L|186:171,1,150,0|0,1:0|1:0,0:0:0:0:
350,129,115774,6,2,P|392:111|342:34,1,150,2|2,0:1|0:1,0:1:0:0:
206,51,116346,2,2,P|171:72|227:147,1,150,2|2,0:1|0:1,0:1:0:0:
365,211,116917,1,2,0:1:0:0:
159,282,117060,6,0,L|326:286,1,150,4|0,1:2|1:2,0:0:0:0:
160,352,117631,2,0,P|113:334|165:257,1,150,0|0,1:0|1:0,0:0:0:0:
214,232,118060,1,0,0:0:0:0:
417,152,118203,6,0,L|238:135,2,150,4|0|0,1:2|1:0|1:0,0:0:0:0:
267,40,119060,2,0,L|267:82,1,37.5,0|0,1:0|1:0,0:0:0:0:
323,98,119203,2,0,L|326:148,1,37.5,0|0,1:0|1:0,0:0:0:0:
136,192,119346,6,0,P|98:214|153:289,1,150,4|0,1:2|1:0,0:0:0:0:
287,317,119917,2,0,L|108:332,1,150,0|0,1:0|1:0,0:0:0:0:
269,257,120346,6,2,L|452:274,1,150,2|2,0:1|0:1,0:1:0:0:
269,184,120917,2,2,L|115:164,2,150,2|2|2,0:1|0:1|0:1,0:1:0:0:
67,126,121631,6,0,L|65:30,1,75,4|0,1:2|1:0,0:0:0:0:
193,52,121917,2,0,L|102:44,1,75,0|0,1:0|1:0,0:0:0:0:
247,147,122203,2,0,L|340:143,1,75,0|0,1:0|1:0,0:0:0:0:
195,231,122489,2,0,L|297:233,1,75,0|0,1:0|1:0,0:0:0:0:
63,332,122774,5,0,1:0:0:0:
41,302,122845,1,0,1:0:0:0:
51,268,122916,1,0,1:0:0:0:
85,255,122988,1,0,1:0:0:0:
231,239,123060,2,0,L|232:185,1,37.5,0|0,1:0|1:0,0:0:0:0:
175,182,123203,2,0,L|178:132,1,37.5,0|0,1:0|1:0,0:0:0:0:
317,129,123346,1,0,1:0:0:0:
367,117,123417,2,0,L|387:78,2,37.5,0|0|0,1:0|1:0|1:0,0:0:0:0:
214,165,123631,2,0,L|150:164,1,37.5,0|0,1:0|1:0,0:0:0:0:
317,209,123774,2,0,L|373:209,1,37.5,0|0,1:0|1:0,0:0:0:0:
173,339,123917,6,0,L|175:237,1,75,0|0,3:0|1:0,0:0:0:0:
304,261,124203,2,0,L|307:181,1,75,0|0,3:0|1:0,0:0:0:0:
438,174,124489,2,0,L|442:76,1,75,0|0,3:0|1:0,0:0:0:0:
226,76,124774,2,0,L|110:64,1,112.5,0|0,3:0|0:0,0:0:0:0:
297,142,125060,6,0,L|381:137,1,75,4|2,3:2|0:0,0:0:0:0:
297,142,125346,2,0,L|394:139,1,75,8|2,0:0|0:0,0:0:0:0:
239,211,125631,2,0,L|242:298,1,75,0|2,3:0|0:0,0:0:0:0:
333,322,125917,2,0,L|333:232,1,75,8|2,0:0|0:0,0:0:0:0:
129,350,126203,6,0,L|131:259,1,75,0|2,3:0|0:0,0:0:0:0:
213,269,126489,2,0,L|217:176,1,75,8|2,0:0|0:0,0:0:0:0:
84,163,126774,1,0,3:0:0:0:
217,121,126917,1,2,3:2:0:0:
142,111,127059,1,8,0:0:0:0:
68,101,127202,1,2,0:0:0:0:
273,72,127346,6,0,L|369:73,1,75,0|2,3:0|0:0,0:0:0:0:
273,72,127631,2,0,L|271:152,1,75,8|2,0:0|0:0,0:0:0:0:
399,182,127917,2,0,L|401:263,1,75,0|2,3:0|0:0,0:0:0:0:
272,317,128203,2,0,L|186:316,1,75,8|2,0:0|0:0,0:0:0:0:
402,354,128489,6,0,L|481:356,1,75,0|2,3:0|0:0,0:0:0:0:
355,288,128774,2,0,L|464:286,1,75,8|2,0:0|0:0,0:0:0:0:
221,252,129060,2,0,L|216:168,1,75,0|2,3:0|0:0,0:0:0:0:
346,164,129346,2,0,L|350:74,1,75,8|2,0:0|0:0,0:0:0:0:
142,33,129631,6,0,P|120:78|204:133,1,150,0|8,3:0|0:0,0:0:0:0:
259,172,130060,1,2,0:0:0:0:
391,272,130203,2,0,L|206:288,1,150,0|8,3:0|0:0,0:0:0:0:
317,297,130631,1,2,0:0:0:0:
111,336,130774,6,0,L|275:354,1,150,0|8,3:0|0:0,0:0:0:0:
183,351,131203,1,2,0:0:0:0:
313,320,131346,2,0,P|372:294|321:239,1,150,0|8,3:0|0:0,0:0:0:0:
259,231,131774,1,2,0:0:0:0:
465,224,131917,6,0,L|383:214,1,75,0|2,3:0|0:0,0:0:0:0:
256,176,132203,2,0,L|252:89,1,75,8|2,0:0|0:0,0:0:0:0:
328,26,132489,2,0,L|335:109,1,75,8|2,0:0|0:0,0:0:0:0:
211,182,132774,2,0,L|304:187,1,75,0|2,3:0|0:0,0:0:0:0:
81,324,133060,6,0,L|82:241,1,75,8|2,0:0|0:0,0:0:0:0:
213,247,133346,2,0,L|105:237,1,75,8|2,0:0|0:0,0:0:0:0:
264,191,133631,2,0,L|352:190,1,75,0|2,3:0|0:0,0:0:0:0:
136,70,133917,2,0,P|98:99|154:136,1,112.5,8|0,0:0|0:0,0:0:0:0:
336,215,134203,6,0,L|440:215,1,75,4|2,3:2|0:0,0:0:0:0:
203,312,134489,2,0,L|112:305,1,75,8|2,0:0|0:0,0:0:0:0:
258,268,134774,2,0,L|260:181,1,75,0|2,3:0|0:0,0:0:0:0:
53,147,135060,2,0,L|145:135,1,75,8|2,0:0|0:0,0:0:0:0:
333,87,135346,6,0,L|239:82,1,75,0|2,3:0|0:0,0:0:0:0:
333,87,135631,2,0,L|419:90,1,75,8|2,0:0|0:0,0:0:0:0:
202,195,135917,2,0,L|121:191,1,75,0|2,3:0|3:2,0:0:0:0:
250,250,136203,1,8,0:0:0:0:
123,285,136346,1,2,0:0:0:0:
325,328,136489,6,0,L|326:245,1,75,0|2,3:0|0:0,0:0:0:0:
192,247,136774,2,0,L|190:157,1,75,8|2,0:0|0:0,0:0:0:0:
396,129,137060,2,0,L|483:122,1,75,0|2,3:0|0:0,0:0:0:0:
254,82,137346,2,0,L|151:73,1,75,8|2,0:0|0:0,0:0:0:0:
394,47,137631,6,0,L|309:38,1,75,0|2,3:0|3:2,0:0:0:0:
399,76,137917,2,0,L|404:179,1,75,8|2,0:0|3:2,0:0:0:0:
198,250,138203,2,0,L|209:155,1,75,0|2,3:0|0:0,0:0:0:0:
342,181,138489,2,0,L|440:187,1,75,8|2,0:0|0:0,0:0:0:0:
213,343,138774,6,0,L|119:337,1,75,4|2,3:2|0:0,0:0:0:0:
138,338,139060,1,2,0:0:0:0:
270,256,139203,1,0,3:0:0:0:
195,251,139345,1,2,0:0:0:0:
120,246,139488,1,2,0:0:0:0:
323,192,139631,2,0,L|413:189,1,75,0|2,3:0|0:0,0:0:0:0:
397,189,139917,5,2,0:0:0:0:
270,130,140060,1,0,3:0:0:0:
344,127,140202,1,2,0:0:0:0:
419,124,140345,1,2,0:0:0:0:
211,33,140489,2,0,L|210:113,1,75,0|2,3:0|0:0,0:0:0:0:
338,152,140774,2,0,L|342:234,1,75,0|2,3:0|0:0,0:0:0:0:
133,331,141060,6,0,P|85:312|138:257,1,150,4|8,3:2|0:0,0:0:0:0:
207,248,141489,1,2,0:0:0:0:
335,208,141631,2,0,L|242:196,2,75,0|2|8,3:0|0:0|0:0,0:0:0:0:
128,130,142060,6,0,L|286:125,1,150,2|2,0:0|0:0,0:0:0:0:
147,37,142489,2,0,L|148:142,1,75,8|2,0:0|0:0,0:0:0:0:
280,202,142774,2,0,L|194:203,1,75,0|2,3:0|0:0,0:0:0:0:
129,246,143060,2,0,L|209:252,1,75,8|0,0:0|3:0,0:0:0:0:
408,330,143346,5,4,3:2:0:0:
333,322,143488,1,2,0:0:0:0:
258,315,143631,1,2,0:0:0:0:
390,232,143774,2,0,L|307:222,2,75,0|2|2,3:0|0:0|0:0,0:0:0:0:
184,176,144203,5,0,3:0:0:0:
258,168,144345,1,2,0:0:0:0:
333,161,144488,1,2,0:0:0:0:
202,78,144631,2,0,L|285:68,2,75,0|2|2,3:0|0:0|0:0,0:0:0:0:
407,35,145060,6,0,L|408:129,1,75,0|2,3:0|0:0,0:0:0:0:
279,179,145346,2,0,L|356:186,1,75,0|2,3:0|0:0,0:0:0:0:
148,262,145631,6,0,L|66:259,1,75,6|2,3:2|0:0,0:0:0:0:
245,239,146203,2,0,L|327:240,1,75,2|2,0:0|0:0,0:0:0:0:
136,152,146774,5,0,3:0:0:0:
343,129,146917,1,2,0:0:0:0:
343,129,147203,1,2,0:0:0:0:
140,84,147346,1,8,0:0:0:0:
215,120,147489,1,0,0:0:0:0:
140,123,147631,1,0,0:0:0:0:
65,126,147774,1,0,0:0:0:0:
291,229,147917,6,0,L|391:236,1,75,4|2,3:2|0:0,0:0:0:0:
283,326,148203,2,0,L|278:230,1,75,8|2,0:0|0:0,0:0:0:0:
409,173,148489,2,0,L|325:162,2,75,0|2|8,3:0|0:0|0:0,0:0:0:0:
204,127,148917,6,0,L|124:117,1,75,2|0,0:0|3:0,0:0:0:0:
204,127,149203,2,0,L|313:133,1,75,2|8,0:0|0:0,0:0:0:0:
154,199,149489,1,2,0:0:0:0:
282,200,149631,2,0,L|284:278,1,75,0|2,3:0|0:0,0:0:0:0:
202,325,149917,2,0,L|199:237,1,75,8|2,0:0|0:0,0:0:0:0:
406,189,150203,6,0,L|322:187,1,75,0|2,3:0|0:0,0:0:0:0:
256,163,150489,2,0,L|343:162,1,75,8|2,0:0|0:0,0:0:0:0:
203,121,150774,1,0,3:0:0:0:
330,39,150917,2,0,L|335:116,1,75,2|8,0:0|0:0,0:0:0:0:
239,203,151203,2,0,L|324:207,1,75,2|0,0:0|3:0,0:0:0:0:
108,299,151489,6,0,P|67:274|121:212,1,150,2|2,0:0|0:0,0:0:0:0:
244,182,151917,2,0,L|165:182,1,75,8|2,0:0|0:0,0:0:0:0:
90,155,152203,2,0,L|176:148,1,75,8|0,0:0|3:0,0:0:0:0:
370,38,152489,6,0,L|366:135,1,75,0|2,3:0|0:0,0:0:0:0:
291,170,152774,2,0,L|381:175,1,75,8|2,0:0|0:0,0:0:0:0:
235,264,153060,1,0,3:0:0:0:
309,268,153202,1,2,0:0:0:0:
384,273,153345,1,8,0:0:0:0:
179,349,153489,6,0,L|101:343,1,75,2|0,0:0|3:0,0:0:0:0:
186,297,153774,2,0,L|191:208,1,75,2|8,0:0|0:0,0:0:0:0:
61,187,154060,1,2,0:0:0:0:
190,145,154203,2,0,L|193:68,1,75,0|2,3:0|0:0,0:0:0:0:
112,126,154489,2,0,L|108:37,1,75,8|2,0:0|0:0,0:0:0:0:
314,72,154774,6,0,L|216:73,1,75,0|2,3:0|0:0,0:0:0:0:
314,121,155060,2,0,L|316:207,1,75,8|2,0:0|0:0,0:0:0:0:
189,251,155346,1,0,3:0:0:0:
318,309,155489,2,0,L|396:313,1,75,2|8,0:0|0:0,0:0:0:0:
264,345,155774,2,0,L|158:349,1,75,2|0,0:0|3:0,0:0:0:0:
398,360,156060,6,0,P|437:332|385:260,1,150,2|2,0:0|0:0,0:0:0:0:
263,236,156489,2,0,L|348:233,1,75,8|2,0:0|0:0,0:0:0:0:
251,209,156774,2,0,L|243:123,1,75,8|0,0:0|3:0,0:0:0:0:
447,133,157060,6,0,L|446:54,1,75,4|2,3:2|0:0,0:0:0:0:
358,38,157346,2,0,L|260:39,1,75,8|2,0:0|0:0,0:0:0:0:
412,118,157631,2,0,L|498:120,2,75,0|2|8,3:0|0:0|0:0,0:0:0:0:
200,166,158060,6,0,L|197:254,1,75,2|0,0:0|3:0,0:0:0:0:
327,233,158346,2,0,L|326:323,1,75,2|8,0:0|0:0,0:0:0:0:
195,338,158631,1,2,0:0:0:0:
323,319,158774,2,0,L|407:323,1,75,0|2,3:0|0:0,0:0:0:0:
323,319,159060,2,0,L|405:322,1,75,8|2,0:0|0:0,0:0:0:0:
193,258,159346,6,0,L|93:250,1,75,0|2,3:0|0:0,0:0:0:0:
195,252,159631,2,0,L|200:166,1,75,8|2,0:0|0:0,0:0:0:0:
67,148,159917,1,0,3:0:0:0:
196,98,160060,2,0,L|288:98,1,75,2|8,0:0|0:0,0:0:0:0:
196,98,160346,2,0,L|101:96,1,75,2|0,0:0|3:0,0:0:0:0:
326,37,160631,6,0,L|154:30,1,150,2|2,0:0|0:0,0:0:0:0:
308,143,161060,2,0,L|396:144,1,75,8|2,0:0|0:0,0:0:0:0:
308,143,161346,2,0,L|389:144,1,75,8|0,0:0|3:0,0:0:0:0:
181,262,161631,6,0,L|97:261,1,75,0|2,3:0|0:0,0:0:0:0:
183,223,161917,2,0,L|188:136,1,75,8|2,0:0|0:0,0:0:0:0:
58,125,162203,1,0,3:0:0:0:
188,77,162346,2,0,L|281:76,1,75,2|8,0:0|0:0,0:0:0:0:
95,36,162631,6,0,L|96:125,1,75,2|0,0:0|3:0,0:0:0:0:
175,151,162917,2,0,L|179:238,1,75,2|8,0:0|0:0,0:0:0:0:
47,269,163203,1,2,0:0:0:0:
178,318,163346,2,0,L|100:321,1,75,0|2,3:0|0:0,0:0:0:0:
28,302,163631,2,0,L|116:288,1,75,8|0,0:0|3:0,0:0:0:0:
313,248,163917,6,0,L|313:157,1,75,0|2,3:0|0:0,0:0:0:0:
228,120,164203,2,0,L|310:119,1,75,8|2,0:0|0:0,0:0:0:0:
172,68,164489,1,0,3:0:0:0:
316,26,164631,2,0,L|312:108,1,75,2|8,0:0|0:0,0:0:0:0:
180,151,164917,2,0,L|181:232,1,75,2|0,0:0|3:0,0:0:0:0:
386,208,165203,6,0,P|422:263|357:308,1,150,2|2,0:0|0:0,0:0:0:0:
238,350,165631,2,0,L|398:352,1,150,8|0,0:0|0:0,0:0:0:0:
464,354,166060,1,0,3:0:0:0:
254,323,166203,6,0,L|159:304,1,75,4|2,3:2|0:0,0:0:0:0:
266,270,166489,2,0,L|270:187,1,75,0|2,3:0|0:0,0:0:0:0:
138,159,166774,2,0,L|242:152,2,75,0|2|0,3:0|0:0|3:0,0:0:0:0:
269,65,167203,6,0,L|270:144,1,75,2|0,0:0|3:0,0:0:0:0:
347,163,167489,2,0,L|345:248,1,75,2|0,0:0|3:0,0:0:0:0:
216,300,167774,1,2,0:0:0:0:
347,333,167917,2,0,L|247:325,1,75,0|2,3:0|0:0,0:0:0:0:
355,321,168203,2,0,L|358:237,1,75,0|2,3:0|0:0,0:0:0:0:
223,223,168489,6,0,L|224:145,1,75,0|2,3:0|0:0,0:0:0:0:
321,120,168774,2,0,L|230:114,1,75,0|2,3:0|0:0,0:0:0:0:
119,99,169060,1,0,3:0:0:0:
251,36,169203,2,0,L|251:124,1,75,2|0,0:0|3:0,0:0:0:0:
164,154,169489,2,0,L|164:252,1,75,2|0,0:0|3:0,0:0:0:0:
370,218,169774,6,0,P|389:260|314:314,1,150,2|2,0:0|0:0,0:0:0:0:
191,300,170203,2,0,L|296:301,1,75,0|2,3:0|0:0,0:0:0:0:
342,275,170489,2,0,L|241:266,1,75,0|2,3:0|3:2,0:0:0:0:
136,234,170774,6,0,L|140:143,1,75,0|2,3:0|0:0,0:0:0:0:
216,123,171060,2,0,L|137:115,1,75,0|2,3:0|0:0,0:0:0:0:
276,56,171346,2,0,L|357:51,2,75,0|2|0,3:0|0:0|3:0,0:0:0:0:
147,112,171774,6,0,L|147:198,1,75,2|0,0:0|3:0,0:0:0:0:
225,232,172060,2,0,L|308:237,1,75,2|0,0:0|3:0,0:0:0:0:
169,322,172346,1,2,0:0:0:0:
302,334,172489,2,0,L|305:250,1,75,0|2,3:0|0:0,0:0:0:0:
224,241,172774,2,0,L|219:152,1,75,0|2,3:0|0:0,0:0:0:0:
353,85,173060,6,0,L|268:77,1,75,0|2,3:0|0:0,0:0:0:0:
360,21,173346,2,0,L|367:108,1,75,0|2,3:0|0:0,0:0:0:0:
236,164,173631,1,0,3:0:0:0:
363,230,173774,2,0,L|276:228,1,75,2|0,0:0|3:0,0:0:0:0:
363,230,174060,2,0,L|448:232,1,75,2|0,0:0|3:0,0:0:0:0:
306,346,174346,6,0,P|260:338|282:256,1,150,2|2,0:0|0:0,0:0:0:0:
408,243,174774,2,0,L|406:165,1,75,0|2,3:0|0:0,0:0:0:0:
314,143,175060,2,0,L|396:131,1,75,0|0,0:0|3:0,0:0:0:0:
180,95,175346,6,0,L|95:93,1,75,4|2,3:2|0:0,0:0:0:0:
187,98,175631,2,0,L|271:95,1,75,0|2,3:0|0:0,0:0:0:0:
129,37,175917,2,0,L|226:38,2,75,0|2|0,3:0|0:0|3:0,0:0:0:0:
261,119,176346,6,0,L|264:210,1,75,2|0,0:0|3:0,0:0:0:0:
187,199,176631,2,0,L|190:299,1,75,2|0,0:0|3:0,0:0:0:0:
314,310,176917,1,2,0:0:0:0:
181,333,177060,2,0,L|271:342,1,75,0|2,3:0|0:0,0:0:0:0:
181,333,177346,2,0,L|95:327,1,75,0|2,3:0|0:0,0:0:0:0:
236,251,177631,6,0,L|235:171,1,75,0|2,3:0|0:0,0:0:0:0:
155,163,177917,2,0,L|151:70,1,75,0|2,3:0|0:0,0:0:0:0:
276,59,178203,1,0,3:0:0:0:
148,96,178346,2,0,L|252:102,1,75,2|0,0:0|3:0,0:0:0:0:
305,166,178631,2,0,L|206:174,1,75,2|0,0:0|3:0,0:0:0:0:
435,217,178917,6,0,P|457:258|392:322,1,150,2|2,0:0|0:0,0:0:0:0:
267,329,179346,2,0,L|191:335,3,75,0|2|0|0,3:0|0:0|3:0|3:0,0:0:0:0:
321,262,179917,6,0,L|321:176,1,75,0|2,3:0|0:0,0:0:0:0:
242,184,180203,2,0,L|335:180,1,75,0|2,3:0|0:0,0:0:0:0:
447,148,180489,2,0,L|360:140,2,75,0|2|0,3:0|0:0|3:0,0:0:0:0:
317,25,180917,6,0,L|320:122,1,75,2|0,0:0|3:0,0:0:0:0:
389,103,181203,2,0,L|391:182,1,75,2|0,0:0|3:0,0:0:0:0:
260,236,181489,1,2,0:0:0:0:
387,303,181631,2,0,L|302:310,1,75,0|2,3:0|0:0,0:0:0:0:
234,347,181917,2,0,L|325:344,1,75,0|2,3:0|0:0,0:0:0:0:
178,299,182203,6,0,L|175:200,1,75,0|2,3:0|0:0,0:0:0:0:
251,200,182489,2,0,L|253:124,1,75,0|2,3:0|0:0,0:0:0:0:
115,97,182774,1,0,3:0:0:0:
243,36,182917,2,0,L|246:116,1,75,2|0,0:0|3:0,0:0:0:0:
162,135,183203,2,0,L|163:222,1,75,2|0,0:0|3:0,0:0:0:0:
292,227,183489,6,0,P|327:250|281:328,1,150,2|2,0:0|0:0,0:0:0:0:
138,350,183917,2,0,P|100:332|156:196,1,225,0|2,3:0|0:0,0:0:0:0:
362,152,184489,5,4,3:2:0:0:
256,192,184631,12,0,186203,0:0:0:0:
