osu file format v14

[General]
AudioFilename: audio.mp3
AudioLeadIn: 0
PreviewTime: 68570
Countdown: 0
SampleSet: Soft
StackLeniency: 0.7
Mode: 2
LetterboxInBreaks: 0
WidescreenStoryboard: 1

[Editor]
Bookmarks: 499,18784,37070,55356,69070,87356,105641,114784,125070,147927,166213,186213
DistanceSpacing: 1.1
BeatDivisor: 4
GridSize: 32
TimelineZoom: 2.2

[Metadata]
Title:I got it! (Slax Remix)
TitleUnicode:I got it! (Slax Remix)
Artist:Mia REGINA
ArtistUnicode:Mia REGINA
Creator:-Rustyy
Version:Cup
Source:天晴爛漫!
Tags:appare-ranman! -momox nosuri bighzonda bigh japanese anime electronic breakcore hardcore j-core jcore hardtek j-tek opening
BeatmapID:3672979
BeatmapSetID:1764078

[Difficulty]
HPDrainRate:2
CircleSize:2.5
OverallDifficulty:6
ApproachRate:6
SliderMultiplier:1.02
SliderTickRate:0.5

[Events]
//Background and Video events
0,0,"laplus.jpg",0,0
//Break Periods
2,64689,66867
//Storyboard Layer 0 (Background)
//Storyboard Layer 1 (Fail)
//Storyboard Layer 2 (Pass)
//Storyboard Layer 3 (Foreground)
//Storyboard Layer 4 (Overlay)
//Storyboard Sound Samples

[TimingPoints]
203,285.714285714286,4,2,2,40,1,0
203,-100,4,2,2,40,0,0
489,285.714285714286,4,2,1,40,1,0
5060,-100,4,2,2,50,0,0
9631,-100,4,2,2,60,0,0
18774,-100,4,2,1,70,0,1
36489,-100,4,2,1,70,0,1
37060,-100,4,2,1,60,0,0
54774,-90.9090909090909,4,2,1,60,0,0
55060,-100,4,2,1,60,0,0
55346,-100,4,2,1,40,0,0
59917,-100,4,2,1,50,0,0
63346,-100,4,2,1,60,0,0
64489,-100,4,2,1,60,0,0
64631,-100,4,2,1,60,0,0
67917,-100,4,2,3,60,0,0
68203,-100,4,2,4,60,0,0
69060,-100,4,2,2,70,0,1
87203,-100,4,2,2,70,0,0
87346,-100,4,2,2,70,0,1
105203,-100,4,2,1,70,0,1
105631,-100,4,2,2,60,0,0
110203,-100,4,2,1,60,0,0
110774,-100,4,2,2,60,0,0
111060,-100,4,2,1,60,0,0
111346,-100,4,2,2,60,0,0
111631,-100,4,2,1,60,0,0
111917,-100,4,2,2,60,0,0
112203,-100,4,2,1,60,0,0
112346,-100,4,2,2,60,0,0
114774,-100,4,2,1,40,0,0
119346,-100,4,2,1,50,0,0
122774,-100,4,2,1,60,0,0
123917,-100,4,2,1,60,0,0
125060,-100,4,2,1,70,0,1
134203,-100,4,2,1,70,0,1
145631,-100,4,2,1,60,0,0
147917,-100,4,2,1,70,0,1
165203,-100,4,2,1,70,0,1
165631,-100,4,2,1,70,0,1
166203,-100,4,2,1,50,0,0
175346,-100,4,2,1,40,0,0
182203,-100,4,2,1,30,0,0
185060,-100,4,2,1,25,0,0
185631,-100,4,2,1,20,0,0
186203,-100,4,2,1,15,0,0

[Colours]
Combo1 : 245,210,10
Combo2 : 116,10,245
Combo3 : 84,84,171
Combo4 : 200,32,223

[HitObjects]
207,335,489,6,0,P|174:307|215:285,1,102,4|0,3:2|3:0,0:0:0:0:
314,225,1060,2,0,P|345:215|306:172,1,102,0|0,3:0|3:0,0:0:0:0:
218,127,1631,6,0,L|336:127,1,102,0|0,3:0|3:0,0:0:0:0:
218,49,2203,2,0,L|111:37,1,102,0|0,3:0|3:0,0:0:0:0:
219,39,2774,6,0,L|219:161,1,102,0|0,3:2|3:0,0:0:0:0:
116,191,3346,2,0,L|56:183,2,51,0|2|0,3:0|0:0|3:0,0:0:0:0:
218,283,3917,5,0,3:0:0:0:
106,358,4203,2,0,L|231:345,2,102,0|0|0,3:0|3:0|3:0,0:0:0:0:
217,302,5060,6,0,L|326:300,1,102,4|2,3:2|3:0,0:0:0:0:
216,251,5631,2,0,P|185:225|236:192,1,102,0|2,3:0|3:2,0:0:0:0:
324,135,6203,5,2,3:2:0:0:
273,127,6345,1,2,0:0:0:0:
223,119,6488,1,2,3:2:0:0:
119,37,6774,2,0,P|82:49|125:83,1,102,2|2,3:2|3:2,0:0:0:0:
212,112,7346,6,0,L|326:114,1,102,0|2,3:2|3:2,0:0:0:0:
212,112,7917,2,0,L|334:112,1,102,2|2,3:2|3:2,0:0:0:0:
416,288,8489,5,2,3:2:0:0:
298,338,8774,2,0,P|240:285|314:202,1,204,2|0,3:2|0:0,0:0:0:0:
416,144,9631,5,4,3:2:0:0:
315,106,9917,1,2,3:2:0:0:
416,144,10203,2,0,L|470:144,2,51,2|2|2,3:2|0:0|3:2,0:0:0:0:
314,240,10774,5,2,3:2:0:0:
364,240,10916,1,2,0:0:0:0:
415,241,11059,1,2,3:2:0:0:
314,240,11346,2,0,L|195:243,1,102,2|2,3:2|3:2,0:0:0:0:
316,331,11917,6,0,L|317:207,1,102,2|2,3:2|3:2,0:0:0:0:
214,212,12489,2,0,L|216:98,1,102,2|2,3:2|3:2,0:0:0:0:
328,60,13060,5,2,0:0:0:0:
277,55,13202,1,2,0:0:0:0:
226,50,13345,1,2,0:0:0:0:
125,111,13631,2,0,L|249:109,1,102,2|0,0:0|3:2,0:0:0:0:
124,112,14203,6,0,P|95:127|123:177,1,102,4|2,3:2|3:2,0:0:0:0:
223,254,14774,2,0,L|116:268,1,102,2|2,3:2|3:2,0:0:0:0:
224,341,15346,6,0,L|220:270,2,51,2|2|2,3:2|0:0|3:2,0:0:0:0:
326,258,15917,2,0,L|329:153,1,102,2|2,3:2|3:2,0:0:0:0:
226,127,16489,5,2,3:2:0:0:
276,124,16631,1,2,3:2:0:0:
327,122,16774,1,2,3:2:0:0:
430,50,17060,1,2,3:2:0:0:
379,46,17202,1,2,3:2:0:0:
328,42,17345,1,2,3:2:0:0:
439,137,17631,5,4,3:2:0:0:
201,246,18346,6,0,L|134:238,1,51
262,308,18774,6,0,L|380:319,1,102,4|8,3:2|0:0,0:0:0:0:
261,235,19346,2,0,L|210:221,1,51,0|2,3:0|0:0,0:0:0:0:
313,159,19774,6,0,P|346:135|301:88,1,102,2|2,0:0|0:0,0:0:0:0:
220,57,20346,2,0,L|168:53,1,51,2|0,0:0|3:0,0:0:0:0:
66,51,20774,1,8,0:0:0:0:
169,193,21060,6,0,L|271:205,1,102,0|8,3:0|0:0,0:0:0:0:
169,193,21631,2,0,L|169:125,1,51,0|2,3:0|0:0,0:0:0:0:
271,131,22060,5,2,0:0:0:0:
374,73,22346,2,0,P|404:88|363:134,1,102,2|2,0:0|0:0,0:0:0:0:
327,145,22774,1,8,0:0:0:0:
431,225,23060,1,8,0:0:0:0:
330,307,23346,6,0,L|209:296,1,102,0|8,3:0|0:0,0:0:0:0:
332,249,23917,2,0,L|323:191,1,51,0|2,3:0|0:0,0:0:0:0:
186,167,24346,6,0,P|156:145|191:91,1,102,2|2,0:0|0:0,0:0:0:0:
280,54,24917,2,0,L|216:44,1,51,2|0,0:0|3:0,0:0:0:0:
127,52,25346,1,8,0:0:0:0:
230,114,25631,6,0,L|347:126,1,102,0|8,3:0|0:0,0:0:0:0:
435,210,26203,2,0,L|372:213,1,51,0|2,3:0|0:0,0:0:0:0:
279,267,26631,5,2,0:0:0:0:
177,233,26917,2,0,P|146:216|184:176,1,102,2|2,0:0|0:0,0:0:0:0:
229,167,27346,1,8,0:0:0:0:
330,101,27631,1,8,0:0:0:0:
216,47,27917,6,0,L|95:45,1,102,4|8,3:2|0:0,0:0:0:0:
216,186,28489,2,0,L|217:125,1,51,0|2,3:0|0:0,0:0:0:0:
113,253,28917,6,0,L|219:268,1,102,2|2,0:0|0:0,0:0:0:0:
113,352,29489,2,0,L|112:297,1,51,2|0,0:0|3:0,0:0:0:0:
214,268,29917,1,8,0:0:0:0:
316,262,30203,6,0,P|347:241|311:197,1,102,0|8,3:0|0:0,0:0:0:0:
213,139,30774,2,0,L|153:141,1,51,0|2,3:0|0:0,0:0:0:0:
265,116,31203,5,2,0:0:0:0:
366,78,31489,2,0,P|393:92|360:145,1,102,2|2,0:0|0:0,0:0:0:0:
317,182,31917,1,8,0:0:0:0:
419,225,32203,1,8,0:0:0:0:
307,325,32489,6,0,L|188:332,1,102,0|8,3:0|0:0,0:0:0:0:
307,325,33060,2,0,L|367:335,1,51,0|2,3:0|0:0,0:0:0:0:
460,252,33489,6,0,L|345:247,1,102,2|2,0:0|0:0,0:0:0:0:
248,148,34060,2,0,L|240:85,1,51,2|0,0:0|3:0,0:0:0:0:
343,70,34489,1,8,0:0:0:0:
240,132,34774,6,0,P|211:157|249:201,1,102,0|8,3:0|0:0,0:0:0:0:
345,269,35346,2,0,L|291:267,1,51,0|2,3:0|0:0,0:0:0:0:
192,336,35774,5,2,0:0:0:0:
295,348,36060,2,0,L|421:353,1,102,2|2,0:0|0:0,0:0:0:0:
345,341,36489,1,8,0:0:0:0:
441,194,36774,1,0,0:0:0:0:
329,196,37060,6,0,L|230:175,2,102,4|8|0,3:2|0:0|3:0,0:0:0:0:
227,88,37917,2,0,L|155:75,1,51,8|2,0:0|0:0,0:0:0:0:
277,32,38346,5,2,0:0:0:0:
165,156,38631,2,0,P|134:165|169:201,1,102,2|2,0:0|0:0,0:0:0:0:
217,257,39060,1,8,0:0:0:0:
319,320,39346,5,0,3:0:0:0:
217,334,39631,1,8,0:0:0:0:
115,334,39917,1,0,3:0:0:0:
217,334,40203,2,0,L|285:342,1,51,8|2,0:0|0:0,0:0:0:0:
166,258,40631,5,2,0:0:0:0:
62,232,40917,2,0,P|27:211|76:178,1,102,2|2,0:0|0:0,0:0:0:0:
108,163,41346,1,8,0:0:0:0:
220,353,41631,5,4,3:2:0:0:
323,322,41917,1,8,0:0:0:0:
205,257,42203,2,0,P|171:242|211:204,1,102,0|8,3:0|0:0,0:0:0:0:
251,181,42631,1,2,0:0:0:0:
353,138,42917,5,2,0:0:0:0:
251,93,43203,2,0,L|253:27,1,51,2|0,0:0|3:0,0:0:0:0:
353,138,43631,1,8,0:0:0:0:
240,202,43917,6,0,L|182:200,1,51,0|8,3:0|0:0,0:0:0:0:
291,301,44346,2,0,L|355:313,1,51,0|8,3:0|0:0,0:0:0:0:
239,263,44774,2,0,L|236:191,1,51,0|8,3:0|0:0,0:0:0:0:
340,166,45203,6,0,L|285:158,1,51,0|8,3:0|0:0,0:0:0:0:
184,175,45631,2,0,L|119:167,1,51,0|2,3:0|0:0,0:0:0:0:
287,99,46203,6,0,L|393:105,1,102,4|8,3:2|0:0,0:0:0:0:
286,100,46774,2,0,L|227:87,2,51,0|2|8,3:0|0:0|0:0,0:0:0:0:
388,188,47346,6,0,L|271:183,1,102,0|8,3:0|0:0,0:0:0:0:
388,255,47917,2,0,L|458:250,2,51,0|2|8,3:0|0:0|0:0,0:0:0:0:
286,335,48489,6,0,L|401:348,1,102,0|8,3:0|0:0,0:0:0:0:
285,278,49060,2,0,L|173:285,1,102,0|8,3:0|0:0,0:0:0:0:
285,202,49631,6,0,L|287:143,2,51,0|2|8,3:0|3:2|0:0,0:0:0:0:
182,244,50203,1,0,3:2:0:0:
283,200,50489,1,8,0:0:0:0:
171,154,50774,6,0,L|53:144,1,102,4|8,3:2|0:0,0:0:0:0:
172,154,51346,2,0,L|62:142,1,102,0|8,3:2|0:0,0:0:0:0:
172,76,51917,6,0,L|280:69,1,102,0|8,3:2|0:0,0:0:0:0:
171,77,52489,2,0,L|284:66,1,102,0|8,3:2|0:0,0:0:0:0:
386,180,53060,5,4,3:2:0:0:
234,282,53489,2,0,L|167:274,1,51,0|8,3:2|0:0,0:0:0:0:
306,334,54060,2,0,L|305:273,1,51,0|8,3:2|0:0,0:0:0:0:
190,280,54489,5,2,0:0:0:0:
67,258,54774,2,0,L|65:132,1,112.200003424072,0|0,3:0|3:0,0:0:0:0:
177,83,55346,6,0,L|66:61,2,102,4|0|0,1:2|1:0|1:0,0:0:0:0:
279,156,56203,1,0,1:0:0:0:
330,198,56346,6,2,L|211:199,3,102,2|2|2|2,0:1|0:1|0:1|0:1,0:1:0:0:
126,275,57489,1,2,0:1:0:0:
76,244,57631,6,0,L|201:242,2,102,0|0|0,1:0|1:0|1:0,0:0:0:0:
179,323,58489,1,0,1:0:0:0:
129,302,58631,6,2,L|26:254,2,102,2|2|2,0:1|0:1|0:1,0:1:0:0:
270,242,59631,2,0,L|342:244,1,51,0|0,1:0|1:0,0:0:0:0:
269,162,59917,6,0,L|163:152,2,102,4|0|0,1:2|1:0|1:0,0:0:0:0:
371,85,60774,1,0,1:0:0:0:
422,55,60917,6,2,L|320:40,3,102,2|2|2|2,0:1|0:1|0:1|0:1,0:1:0:0:
219,120,62060,1,2,0:1:0:0:
169,128,62203,6,0,P|144:147|181:193,1,102,0|0,1:0|1:0,0:0:0:0:
281,215,62774,1,0,1:0:0:0:
179,253,63060,1,0,1:0:0:0:
331,344,63346,6,0,P|376:332|320:155,1,306,4|0,1:2|1:0,0:0:0:0:
206,60,64489,5,4,3:1:0:0:
212,47,67917,5,8,3:0:0:0:
85,133,68203,1,8,3:0:0:0:
188,187,68489,1,8,3:0:0:0:
86,251,68774,1,0,0:0:0:0:
204,340,69060,6,0,P|236:329|197:246,1,153,4|0,3:2|3:0,0:0:0:0:
98,206,69774,2,0,L|31:201,1,51,2|2,0:0|3:1,0:0:0:0:
150,175,70203,6,0,L|306:168,1,153,2|2,3:2|0:0,0:0:0:0:
201,41,70917,2,0,L|209:95,1,51,2|2,0:0|3:2,0:0:0:0:
321,122,71346,6,0,P|352:141|295:218,1,153,0|0,3:0|3:0,0:0:0:0:
204,242,72060,2,0,L|143:247,1,51,2|2,0:0|3:1,0:0:0:0:
257,337,72489,6,0,L|103:313,2,153,2|2|0,0:0|0:0|3:0,0:0:0:0:
368,282,73631,6,0,P|430:268|386:204,1,153,4|0,3:2|3:0,0:0:0:0:
297,152,74346,2,0,L|364:154,1,51,2|2,0:0|3:1,0:0:0:0:
460,94,74774,6,0,L|299:88,1,153,0|2,3:0|3:2,0:0:0:0:
204,206,75489,2,0,L|195:267,1,51,2|0,0:0|3:0,0:0:0:0:
309,317,75917,6,0,L|152:341,1,153,0|0,3:0|3:0,0:0:0:0:
261,304,76631,2,0,L|334:306,1,51,2|2,0:0|3:1,0:0:0:0:
209,244,77060,6,0,L|94:224,1,102,0|2,3:2|0:0,0:0:0:0:
210,176,77631,2,0,L|99:163,1,102,2|2,0:0|0:0,0:0:0:0:
223,119,78203,6,0,L|395:118,1,153,4|0,3:2|3:2,0:0:0:0:
274,189,78917,2,0,L|277:135,1,51,2|2,0:0|3:1,0:0:0:0:
382,195,79346,6,0,P|420:207|389:295,1,153,0|2,3:0|0:0,0:0:0:0:
290,325,80060,2,0,L|223:325,1,51,2|0,0:0|3:2,0:0:0:0:
136,268,80489,6,0,P|97:245|166:205,1,153,0|0,3:0|3:0,0:0:0:0:
258,110,81203,2,0,L|321:119,1,51,2|2,0:0|3:1,0:0:0:0:
205,49,81631,5,2,0:0:0:0:
308,43,81917,1,2,0:0:0:0:
358,42,82059,1,2,0:0:0:0:
409,42,82202,1,2,0:0:0:0:
308,43,82489,1,2,0:0:0:0:
192,117,82774,6,0,P|157:129|201:212,1,153,4|0,3:2|3:2,0:0:0:0:
292,277,83489,2,0,L|353:279,1,51,2|2,0:0|3:1,0:0:0:0:
242,325,83917,6,0,L|85:328,1,153,0|2,3:0|3:2,0:0:0:0:
191,276,84631,2,0,L|261:275,1,51,2|2,3:2|3:2,0:0:0:0:
344,276,85060,6,0,P|371:272|331:191,1,153,0|0,3:0|3:0,0:0:0:0:
243,120,85774,2,0,L|294:122,1,51,2|2,0:0|1:0,0:0:0:0:
397,76,86203,6,0,L|394:134,1,51,2|2,0:0|0:0,0:0:0:0:
286,190,86631,2,0,L|234:194,1,51,2|2,0:0|0:0,0:0:0:0:
134,266,87060,1,2,0:0:0:0:
243,354,87346,6,0,L|406:343,1,153,4|0,3:2|3:0,0:0:0:0:
296,283,88060,2,0,L|233:273,1,51,2|2,0:0|3:1,0:0:0:0:
349,221,88489,6,0,P|377:208|329:121,1,153,2|2,3:2|0:0,0:0:0:0:
241,94,89203,2,0,L|168:85,1,51,2|2,0:0|3:2,0:0:0:0:
75,55,89631,6,0,L|250:43,1,153,0|0,3:0|3:0,0:0:0:0:
124,254,90346,2,2,L|63:248,1,51,2|2,0:0|3:1,0:0:0:0:
186,346,90774,6,2,L|35:290,2,153,2|2|0,0:0|0:0|3:0,0:0:0:0:
299,324,91917,6,0,P|336:305|287:222,1,153,4|0,3:2|3:0,0:0:0:0:
199,201,92631,2,0,L|135:196,1,51,2|2,0:0|3:1,0:0:0:0:
256,108,93060,6,0,L|430:104,1,153,0|2,3:0|3:2,0:0:0:0:
306,72,93774,2,0,L|250:61,1,51,2|0,0:0|3:0,0:0:0:0:
359,148,94203,6,0,P|402:166|348:233,1,153,0|0,3:0|3:0,0:0:0:0:
258,308,94917,2,2,L|319:311,1,51,2|2,0:0|3:1,0:0:0:0:
411,264,95346,6,0,L|301:259,1,102,0|2,3:2|0:0,0:0:0:0:
210,242,95917,2,0,L|333:247,1,102,2|2,0:0|0:0,0:0:0:0:
192,348,96489,6,0,P|167:337|205:248,1,153,4|0,3:2|3:2,0:0:0:0:
99,203,97203,2,0,L|40:197,1,51,2|2,0:0|3:1,0:0:0:0:
151,161,97631,6,0,L|306:165,1,153,0|2,3:0|0:0,0:0:0:0:
201,131,98346,2,0,L|133:121,1,51,2|0,0:0|3:2,0:0:0:0:
266,37,98774,6,0,P|316:70|263:126,1,153,0|0,3:0|3:0,0:0:0:0:
166,203,99489,2,2,L|235:214,1,51,2|2,0:0|3:1,0:0:0:0:
319,308,99917,5,2,0:0:0:0:
424,342,100203,2,0,L|479:341,2,51,2|2|2,0:0|0:0|0:0,0:0:0:0:
319,308,100774,1,2,0:0:0:0:
205,291,101060,6,0,P|170:276|219:200,1,153,4|0,3:2|3:2,0:0:0:0:
313,168,101774,2,0,L|373:176,1,51,2|2,0:0|3:1,0:0:0:0:
258,51,102203,6,0,L|86:35,1,153,0|2,3:0|3:2,0:0:0:0:
207,90,102917,2,0,L|270:92,1,51,2|2,3:2|3:2,0:0:0:0:
156,139,103346,5,0,3:0:0:0:
271,263,103631,1,0,3:0:0:0:
321,277,103773,1,0,3:0:0:0:
271,263,103916,1,2,0:0:0:0:
171,191,104203,2,0,L|171:129,1,51,0|0,3:0|0:0,0:0:0:0:
275,121,104631,6,0,L|336:121,1,51,0|2,3:0|0:0,0:0:0:0:
220,200,105060,1,0,3:0:0:0:
169,202,105202,1,2,0:0:0:0:
118,205,105345,1,2,0:0:0:0:
228,95,105631,6,0,L|345:95,1,102,4|2,3:2|3:2,0:0:0:0:
229,45,106203,2,0,L|171:33,2,51,2|2|0,3:2|0:0|3:0,0:0:0:0:
331,104,106774,6,0,L|441:107,1,102,2|2,3:2|3:2,0:0:0:0:
332,199,107346,2,0,L|271:202,2,51,0|2|0,3:0|0:0|3:0,0:0:0:0:
435,311,107917,6,0,L|333:306,1,102,0|2,3:0|3:2,0:0:0:0:
222,328,108489,2,0,P|192:307|232:262,1,102,0|0,3:0|3:0,0:0:0:0:
326,214,109060,5,0,3:0:0:0:
275,210,109202,1,0,3:0:0:0:
224,207,109345,1,2,3:2:0:0:
120,190,109631,2,0,L|230:173,1,102,0|0,3:0|3:0,0:0:0:0:
103,133,110203,6,0,P|76:114|108:64,1,102,4|8,3:2|0:0,0:0:0:0:
210,138,110774,2,0,L|326:142,1,102,2|8,3:2|0:0,0:0:0:0:
207,212,111346,6,0,P|180:230|218:276,1,102,6|8,3:2|0:0,0:0:0:0:
312,296,111917,2,0,L|435:310,1,102,0|8,3:2|0:0,0:0:0:0:
299,353,112489,5,4,3:2:0:0:
406,297,112917,2,0,L|341:292,1,51,0|0,3:0|3:0,0:0:0:0:
220,306,113489,6,0,L|222:234,1,51,0|0,3:0|3:0,0:0:0:0:
323,169,113917,2,0,L|215:161,2,102,2|2|2,0:0|0:0|0:0,0:0:0:0:
209,65,114774,6,0,L|93:73,2,102,4|0|0,1:2|1:0|1:0,0:0:0:0:
311,143,115631,1,0,1:0:0:0:
362,194,115774,6,2,L|245:195,3,102,2|2|2|2,0:1|0:1|0:1|0:1,0:1:0:0:
156,293,116917,1,2,0:1:0:0:
104,262,117060,6,0,L|206:258,2,102,4|0|0,1:2|1:2|1:0,0:0:0:0:
206,195,117917,1,0,1:0:0:0:
257,182,118060,1,0,0:0:0:0:
308,167,118203,6,0,L|186:143,2,102,4|0|0,1:2|1:0|1:0,0:0:0:0:
409,192,119060,1,0,1:0:0:0:
295,299,119346,6,0,L|184:275,2,102,4|0|0,1:2|1:0|1:0,0:0:0:0:
193,215,120203,1,0,1:0:0:0:
143,193,120346,6,2,L|259:179,3,102,2|2|2|2,0:1|0:1|0:1|0:1,0:1:0:0:
141,301,121489,6,0,L|79:298,1,51,0|4,0:0|1:2,0:0:0:0:
191,234,121917,1,0,1:0:0:0:
293,203,122203,1,0,1:0:0:0:
191,234,122489,1,0,1:0:0:0:
344,317,122774,6,0,P|396:311|341:149,1,306,0|0,1:0|1:0,0:0:0:0:
228,106,123917,6,0,L|299:100,1,51,0|0,3:0|1:0,0:0:0:0:
329,92,124203,1,0,3:0:0:0:
432,64,124489,1,0,3:0:0:0:
381,61,124631,1,0,1:0:0:0:
330,58,124774,1,0,3:0:0:0:
216,54,125060,6,0,P|189:69|221:120,1,102,4|8,3:2|0:0,0:0:0:0:
319,179,125631,1,0,3:0:0:0:
217,249,125917,2,0,L|110:257,1,102,8|0,0:0|3:0,0:0:0:0:
218,322,126489,5,8,0:0:0:0:
321,350,126774,2,0,L|384:358,2,51,0|2|8,3:0|3:2|0:0,0:0:0:0:
238,283,127346,6,0,L|129:268,2,102,0|8|0,3:0|0:0|3:0,0:0:0:0:
126,217,128203,1,8,0:0:0:0:
238,188,128489,6,0,L|362:190,1,102,0|8,3:0|0:0,0:0:0:0:
228,136,129060,2,0,L|126:117,1,102,0|8,3:0|0:0,0:0:0:0:
230,66,129631,5,0,3:0:0:0:
118,44,129917,2,0,P|94:58|127:109,1,102,8|0,0:0|3:0,0:0:0:0:
226,172,130489,1,8,0:0:0:0:
329,223,130774,6,0,P|359:237|324:280,1,102,0|8,3:0|0:0,0:0:0:0:
226,339,131346,2,0,L|349:353,1,102,0|8,3:0|0:0,0:0:0:0:
433,341,131917,5,0,3:0:0:0:
327,219,132203,2,0,L|443:230,2,102,8|8|0,0:0|0:0|3:0,0:0:0:0:
225,167,133060,6,0,L|334:165,1,102,8|8,0:0|0:0,0:0:0:0:
225,106,133631,2,0,L|154:93,2,51,0|2|8,3:0|0:0|0:0,0:0:0:0:
348,48,134203,6,0,L|231:36,1,102,4|8,3:2|0:0,0:0:0:0:
140,132,134774,2,0,L|244:139,1,102,0|8,3:0|0:0,0:0:0:0:
342,189,135346,6,0,L|340:298,1,102,0|8,3:0|0:0,0:0:0:0:
238,289,135917,2,0,L|223:360,2,51,0|2|8,3:0|3:2|0:0,0:0:0:0:
344,245,136489,6,0,L|456:248,1,102,0|8,3:0|0:0,0:0:0:0:
346,203,137060,2,0,L|245:198,1,102,0|8,3:0|0:0,0:0:0:0:
314,114,137631,6,0,L|376:119,2,51,0|2|8,3:0|3:2|0:0,0:0:0:0:
212,57,138203,2,0,L|336:53,1,102,0|8,3:0|0:0,0:0:0:0:
191,133,138774,6,0,P|156:157|201:190,1,102,4|2,3:2|0:0,0:0:0:0:
239,215,139203,1,0,3:0:0:0:
392,240,139631,6,0,P|426:257|395:309,1,102,0|2,3:0|0:0,0:0:0:0:
369,300,140060,1,0,3:0:0:0:
191,219,140489,6,0,L|303:194,1,102,0|0,3:0|3:0,0:0:0:0:
178,118,141060,5,4,3:2:0:0:
281,74,141346,2,0,L|158:64,1,102,8|0,0:0|3:0,0:0:0:0:
74,91,141917,2,0,L|134:88,1,51,8|2,0:0|0:0,0:0:0:0:
227,162,142346,6,0,L|288:159,1,51,2|8,0:0|0:0,0:0:0:0:
176,214,142774,1,0,3:0:0:0:
278,252,143060,1,8,0:0:0:0:
159,335,143346,6,0,P|130:317|162:273,1,102,4|2,3:2|0:0,0:0:0:0:
214,254,143774,1,0,3:0:0:0:
340,248,144203,2,0,P|380:229|336:190,1,102,0|2,3:0|0:0,0:0:0:0:
308,163,144631,1,0,3:0:0:0:
206,166,144917,6,0,L|139:163,1,51,2|0,0:0|3:0,0:0:0:0:
257,66,145346,1,0,3:0:0:0:
369,47,145631,5,6,3:2:0:0:
226,142,146203,1,2,0:0:0:0:
84,198,146774,5,0,3:0:0:0:
255,257,147346,2,0,L|381:268,1,102,8|0,0:0|0:0,0:0:0:0:
244,335,147917,6,0,P|211:313|250:278,1,102,4|8,3:2|0:0,0:0:0:0:
347,224,148489,2,0,L|418:227,1,51,0|2,3:0|0:0,0:0:0:0:
496,163,148917,6,0,L|394:163,1,102,2|2,0:0|0:0,0:0:0:0:
291,221,149489,2,0,L|294:165,1,51,2|0,0:0|3:0,0:0:0:0:
394,163,149917,1,8,0:0:0:0:
287,68,150203,6,0,L|177:76,1,102,0|8,3:0|0:0,0:0:0:0:
290,154,150774,2,0,L|297:208,1,51,0|2,3:0|0:0,0:0:0:0:
192,298,151203,1,2,0:0:0:0:
304,338,151489,6,0,P|332:324|292:282,1,102,2|2,0:0|0:0,0:0:0:0:
250,273,151917,1,8,0:0:0:0:
148,235,152203,1,8,0:0:0:0:
47,165,152489,6,0,L|168:149,1,102,0|8,3:0|0:0,0:0:0:0:
47,136,153060,2,0,L|45:84,1,51,0|2,3:0|0:0,0:0:0:0:
148,49,153489,6,0,L|273:57,1,102,2|2,0:0|0:0,0:0:0:0:
349,183,154060,2,0,L|281:192,1,51,2|0,0:0|3:0,0:0:0:0:
196,245,154489,1,8,0:0:0:0:
304,351,154774,6,0,P|334:328|295:278,1,102,0|8,3:0|0:0,0:0:0:0:
205,234,155346,2,0,L|271:225,1,51,0|2,3:0|0:0,0:0:0:0:
358,200,155774,1,2,0:0:0:0:
255,161,156060,6,0,P|230:147|273:96,1,102,2|2,0:0|0:0,0:0:0:0:
306,83,156489,1,8,0:0:0:0:
408,67,156774,1,8,0:0:0:0:
296,58,157060,6,0,L|188:46,1,102,4|8,3:2|0:0,0:0:0:0:
297,201,157631,2,0,L|297:144,1,51,0|2,3:0|0:0,0:0:0:0:
194,217,158060,6,0,P|166:231|204:275,1,102,2|2,0:0|0:0,0:0:0:0:
298,328,158631,2,0,L|355:334,1,51,2|0,0:0|3:0,0:0:0:0:
246,261,159060,1,8,0:0:0:0:
349,233,159346,6,0,P|375:221|334:178,1,102,0|8,3:0|0:0,0:0:0:0:
242,136,159917,2,0,L|306:133,1,51,0|2,3:0|0:0,0:0:0:0:
396,103,160346,1,2,0:0:0:0:
295,61,160631,6,0,L|185:49,1,102,2|2,0:0|0:0,0:0:0:0:
245,32,161060,1,8,0:0:0:0:
347,83,161346,1,8,0:0:0:0:
245,157,161631,6,0,P|216:168|246:214,1,102,0|8,3:0|0:0,0:0:0:0:
347,291,162203,2,0,L|401:299,1,51,0|2,3:0|0:0,0:0:0:0:
295,347,162631,6,0,L|174:355,1,102,2|2,0:0|0:0,0:0:0:0:
295,347,163203,2,0,L|360:351,1,51,2|0,0:0|3:0,0:0:0:0:
244,276,163631,1,8,0:0:0:0:
130,168,163917,6,0,L|255:162,1,102,0|8,3:0|0:0,0:0:0:0:
127,132,164489,2,0,L|127:70,1,51,0|2,3:0|0:0,0:0:0:0:
230,61,164917,1,2,0:0:0:0:
332,155,165203,6,0,P|361:164|323:202,1,102,2|2,0:0|0:0,0:0:0:0:
281,223,165631,1,8,0:0:0:0:
178,276,165917,1,0,0:0:0:0:
290,343,166203,6,0,P|316:334|289:286,1,102,4|0,3:2|3:0,0:0:0:0:
195,239,166774,2,0,L|137:232,1,51,0|2,3:0|0:0,0:0:0:0:
238,190,167203,6,0,L|348:189,1,102,2|2,0:0|0:0,0:0:0:0:
238,190,167774,2,0,L|241:137,1,51,2|0,0:0|3:0,0:0:0:0:
343,113,168203,1,0,3:0:0:0:
435,42,168489,6,0,L|315:53,1,102,0|0,3:0|3:0,0:0:0:0:
428,184,169060,2,0,L|433:237,1,51,0|2,3:0|0:0,0:0:0:0:
342,327,169489,1,2,0:0:0:0:
241,341,169774,6,0,L|130:331,1,102,2|2,0:0|0:0,0:0:0:0:
191,303,170203,1,0,3:0:0:0:
284,250,170489,1,0,3:0:0:0:
192,214,170774,6,0,P|163:197|201:153,1,102,0|0,3:0|3:0,0:0:0:0:
286,100,171346,2,0,L|351:102,1,51,0|2,3:0|0:0,0:0:0:0:
244,50,171774,6,0,L|126:50,1,102,2|2,0:0|0:0,0:0:0:0:
51,128,172346,2,0,L|54:198,1,51,2|0,0:0|3:0,0:0:0:0:
144,245,172774,1,0,3:0:0:0:
236,318,173060,6,0,L|132:312,1,102,0|0,3:0|3:0,0:0:0:0:
42,257,173631,2,0,L|99:259,1,51,0|2,3:0|0:0,0:0:0:0:
185,206,174060,1,2,0:0:0:0:
277,176,174346,6,0,P|303:166|268:115,1,102,2|2,0:0|0:0,0:0:0:0:
229,104,174774,1,0,3:0:0:0:
137,95,175060,1,0,0:0:0:0:
249,49,175346,6,0,L|363:52,1,102,4|0,3:2|3:0,0:0:0:0:
258,117,175917,2,0,L|259:174,1,51,0|2,3:0|0:0,0:0:0:0:
351,201,176346,6,0,P|378:216|346:267,1,102,2|2,0:0|0:0,0:0:0:0:
258,314,176917,2,0,L|320:326,1,51,2|0,0:0|3:0,0:0:0:0:
400,333,177346,1,0,3:0:0:0:
309,258,177631,6,0,L|203:256,1,102,0|0,3:0|3:0,0:0:0:0:
299,201,178203,2,0,L|352:203,1,51,0|2,3:0|0:0,0:0:0:0:
442,187,178631,1,2,0:0:0:0:
348,123,178917,6,0,L|236:119,1,102,2|2,0:0|0:0,0:0:0:0:
292,59,179346,1,0,3:0:0:0:
384,33,179631,1,0,3:0:0:0:
292,114,179917,6,0,P|263:118|294:161,1,102,0|0,3:0|3:0,0:0:0:0:
380,233,180489,2,0,L|451:236,1,51,0|2,3:0|0:0,0:0:0:0:
339,325,180917,6,0,L|225:334,1,102,2|2,0:0|0:0,0:0:0:0:
144,272,181489,2,0,L|209:267,1,51,2|0,0:0|3:0,0:0:0:0:
288,161,181917,1,0,3:0:0:0:
196,137,182203,6,0,P|166:120|206:76,1,102,0|0,3:0|3:0,0:0:0:0:
287,35,182774,2,0,L|234:32,1,51,0|2,3:0|0:0,0:0:0:0:
143,77,183203,1,2,0:0:0:0:
235,137,183489,6,0,P|260:154|224:202,1,102,2|2,0:0|0:0,0:0:0:0:
179,224,183917,1,0,3:0:0:0:
87,259,184203,1,0,0:0:0:0:
199,306,184489,5,4,3:2:0:0:
256,192,184774,12,0,186203,0:0:0:0:
