osu file format v14

[General]
AudioFilename: audio.mp3
AudioLeadIn: 0
PreviewTime: 102844
Countdown: 0
SampleSet: Soft
StackLeniency: 0.7
Mode: 0
LetterboxInBreaks: 0
WidescreenStoryboard: 1

[Editor]
Bookmarks: 21292,41660,61870,82081,92186,103555,123765,126291,146502,166712,180449,200818,223555,246133,255765,290502,310712
DistanceSpacing: 1
BeatDivisor: 4
GridSize: 32
TimelineZoom: 2.799999

[Metadata]
Title:Choumusubi Amulet (nenpulse bootleg remix)
TitleUnicode:蝶結びアミュレット (nenpulse bootleg remix)
Artist:Mia REGINA
ArtistUnicode:Mia REGINA
Creator:cococolaco
Version:Dispel
Source:装神少女まとい
Tags:OP Opening Risuko Sasakama Fuuri Uebana Waka Kirishima 霧島若歌 上花楓裏 ささかまリス子 Soushin Shoujo Matoi the Sacred Slayer
BeatmapID:1520055
BeatmapSetID:719896

[Difficulty]
HPDrainRate:6
CircleSize:4
OverallDifficulty:8.5
ApproachRate:9.3
SliderMultiplier:1.7
SliderTickRate:1

[Events]
//Background and Video events
0,0,"63866356_p0 (1).jpg",0,0
//Break Periods
//Storyboard Layer 0 (Background)
//Storyboard Layer 1 (Fail)
//Storyboard Layer 2 (Pass)
//Storyboard Layer 3 (Foreground)
//Storyboard Sound Samples

[TimingPoints]
11402.9803948946,315.789473684211,4,2,1,45,1,0
18981,-83.3333333333333,4,2,1,45,0,0
20087,612.244897959184,4,2,1,55,1,0
20694,645.161290322581,4,2,1,20,1,0
21338,315.789473684211,4,2,1,30,1,0
21338,-142.857142857143,4,2,1,30,0,0
25443,-142.857142857143,4,2,1,15,0,0
25759,-142.857142857143,4,2,1,5,0,0
26548,-142.857142857143,4,2,1,30,0,0
31600,315.789473684211,4,2,1,45,1,0
31600,-100,4,2,1,45,0,0
32231,-83.3333333333333,4,2,1,45,0,0
32705,-90.9090909090909,4,2,1,45,0,0
33178,-100,4,2,1,45,0,0
34126,-90.9090909090909,4,2,1,45,0,0
34442,-100,4,2,1,45,0,0
36652,-83.3333333333333,4,2,1,45,0,0
39178,-83.3333333333333,4,2,1,45,0,0
41389,-166.666666666667,4,2,1,55,0,0
41705,-76.9230769230769,4,2,1,55,0,0
42021,-100,4,2,1,55,0,0
42336,-76.9230769230769,4,2,1,55,0,0
42810,-100,4,2,1,55,0,0
43757,-76.9230769230769,4,2,1,55,0,0
44863,-71.4285714285714,4,2,1,55,0,0
45336,-100,4,2,1,55,0,0
46442,-90.9090909090909,4,2,1,55,0,0
46757,-76.9230769230769,4,2,1,55,0,0
47073,-100,4,2,1,55,0,0
47389,-66.6666666666667,4,2,1,55,0,0
47863,-100,4,2,1,55,0,0
49284,-76.9230769230769,4,2,1,55,0,0
49915,-66.6666666666667,4,2,1,55,0,0
50389,-100,4,2,1,55,0,0
51336,-76.9230769230769,4,2,1,55,0,0
52126,-100,4,2,1,55,0,0
52442,-76.9230769230769,4,2,1,55,0,0
52915,-100,4,2,1,55,0,0
53863,-76.9230769230769,4,2,1,55,0,0
54968,-71.4285714285714,4,2,1,55,0,0
55442,-100,4,2,1,55,0,0
56389,-76.9230769230769,4,2,1,55,0,0
56863,-90.9090909090909,4,2,1,55,0,0
59389,-76.9230769230769,4,2,1,55,0,0
60021,-58.8235294117647,4,2,1,55,0,0
60652,-76.9230769230769,4,2,1,55,0,0
61915,-111.111111111111,4,2,1,45,0,0
63178,-90.9090909090908,4,2,1,45,0,0
63652,-111.111111111111,4,2,1,45,0,0
66968,-90.9090909090908,4,2,1,45,0,0
67600,-111.111111111111,4,2,1,45,0,0
68231,-90.9090909090908,4,2,1,45,0,0
70126,-111.111111111111,4,2,1,45,0,0
70757,-90.9090909090908,4,2,1,45,0,0
71389,-111.111111111111,4,2,1,45,0,0
71705,-90.9090909090908,4,2,1,45,0,0
72652,-111.111111111111,4,2,1,50,0,0
74547,-90.9090909090908,4,2,1,50,0,0
75336,-111.111111111111,4,2,1,50,0,0
75968,-90.9090909090908,4,2,1,50,0,0
76442,-111.111111111111,4,2,1,50,0,0
77073,-90.9090909090908,4,2,1,50,0,0
77705,-111.111111111111,4,2,1,50,0,0
78336,-90.9090909090908,4,2,1,50,0,0
78968,-111.111111111111,4,2,1,50,0,0
80863,-90.9090909090908,4,2,1,50,0,0
81178,-111.111111111111,4,2,1,50,0,0
82126,-100,4,2,1,50,0,0
82442,-83.3333333333333,4,2,1,50,0,0
83231,-100,4,2,1,50,0,0
84652,-83.3333333333333,4,2,1,50,0,0
85284,-100,4,2,1,50,0,0
87494,-83.3333333333333,4,2,1,50,0,0
87810,-100,4,2,1,50,0,0
92231,-111.111111111111,4,2,1,50,0,0
95863,-90.9090909090908,4,2,1,50,0,0
97284,-83.3333333333333,4,2,1,50,0,0
97915,-100,4,2,1,50,0,0
99810,-83.3333333333333,4,2,1,50,0,0
101073,-71.4285714285714,4,2,1,50,0,0
101863,-200,4,2,1,50,0,0
103284,-100,4,2,1,50,0,0
103442,-76.9230769230769,4,2,1,60,0,1
103915,-71.4285714285714,4,2,1,60,0,1
104231,-83.3333333333333,4,2,1,60,0,1
104705,-71.4285714285714,4,2,1,60,0,1
105178,-90.9090909090909,4,2,1,60,0,1
105494,-83.3333333333333,4,2,1,60,0,1
105810,-76.9230769230769,4,2,1,60,0,1
106126,-66.6666666666667,4,2,1,60,0,1
106442,-83.3333333333333,4,2,1,60,0,1
107231,-76.9230769230769,4,2,1,60,0,1
107704,-83.3333333333333,4,2,1,60,0,1
108336,-76.9230769230769,4,2,1,60,0,0
108494,-71.4285714285714,4,2,1,60,0,1
108968,-71.4285714285714,4,2,1,60,0,1
109284,-83.3333333333333,4,2,1,60,0,1
109600,-71.4285714285714,4,2,1,60,0,1
109915,-62.5,4,2,1,60,0,1
110231,-83.3333333333333,4,2,1,60,0,1
111178,-62.5,4,2,1,60,0,1
112284,-76.9230769230769,4,2,1,60,0,1
113073,-90.9090909090909,4,2,1,60,0,1
113547,-111.111111111111,4,2,1,30,0,0
114021,-62.5,4,2,1,60,0,1
114336,-83.3333333333333,4,2,1,60,0,1
114810,-76.9230769230769,4,2,1,60,0,1
115284,-90.9090909090909,4,2,1,60,0,1
115915,-71.4285714285714,4,2,1,60,0,1
116231,-66.6666666666667,4,2,1,60,0,1
116547,-83.3333333333333,4,2,1,60,0,1
117336,-76.9230769230769,4,2,1,60,0,1
117968,-83.3333333333333,4,2,1,60,0,1
118757,-76.9230769230769,4,2,1,60,0,1
120021,-62.5,4,2,1,60,0,1
120494,-90.9090909090909,4,2,1,60,0,1
123810,-71.4285714285714,4,2,1,40,0,0
126021,-200,4,2,1,60,0,0
126336,-76.9230769230769,4,2,1,55,0,0
126652,-100,4,2,1,55,0,0
126968,-71.4285714285714,4,2,1,55,0,0
127442,-100,4,2,1,55,0,0
128863,-76.9230769230769,4,2,1,55,0,0
129178,-100,4,2,1,55,0,0
129494,-66.6666666666667,4,2,1,55,0,0
129968,-100,4,2,1,55,0,0
131073,-71.4285714285714,4,2,1,55,0,0
131705,-100,4,2,1,55,0,0
132021,-76.9230769230769,4,2,1,55,0,0
132494,-100,4,2,1,55,0,0
133915,-76.9230769230769,4,2,1,55,0,0
134231,-100,4,2,1,55,0,0
134547,-71.4285714285714,4,2,1,55,0,0
135021,-100,4,2,1,55,0,0
136126,-90.9090909090909,4,2,1,55,0,0
136442,-76.9230769230769,4,2,1,55,0,0
136757,-100,4,2,1,55,0,0
137073,-71.4285714285714,4,2,1,55,0,0
137547,-100,4,2,1,55,0,0
138968,-76.9230769230769,4,2,1,55,0,0
139284,-100,4,2,1,55,0,0
139600,-76.9230769230769,4,2,1,55,0,0
140073,-100,4,2,1,55,0,0
141494,-90.9090909090909,4,2,1,55,0,0
144021,-76.9230769230769,4,2,1,55,0,0
144652,-58.8235294117647,4,2,1,55,0,0
145284,-62.5,4,2,1,55,0,0
145994,-58.8235294117647,4,2,1,55,0,0
146547,-111.111111111111,4,2,1,45,0,0
150336,-99.9999999999999,4,2,1,45,0,0
151600,-90.9090909090908,4,2,1,45,0,0
152231,-111.111111111111,4,2,1,45,0,0
152863,-90.9090909090908,4,2,1,45,0,0
154757,-111.111111111111,4,2,1,45,0,0
155389,-90.9090909090909,4,2,1,45,0,0
156021,-111.111111111111,4,2,1,45,0,0
156336,-90.9090909090909,4,2,1,45,0,0
157284,-111.111111111111,4,2,1,45,0,0
159178,-90.9090909090908,4,2,1,45,0,0
159968,-111.111111111111,4,2,1,45,0,0
161705,-90.9090909090908,4,2,1,45,0,0
162336,-111.111111111111,4,2,1,45,0,0
162968,-90.9090909090908,4,2,1,45,0,0
163600,-111.111111111111,4,2,1,45,0,0
165494,-90.9090909090908,4,2,1,45,0,0
165810,-111.111111111111,4,2,1,45,0,0
166757,-100,4,2,1,55,0,0
167073,-83.3333333333333,4,2,1,50,0,0
167863,-100,4,2,1,50,0,0
169284,-83.3333333333333,4,2,1,50,0,0
170389,-100,4,2,1,50,0,0
171178,-83.3333333333333,4,2,1,50,0,0
171810,-100,4,2,1,50,0,0
172126,-83.3333333333333,4,2,1,50,0,0
172915,-100,4,2,1,50,0,0
174336,-83.3333333333333,4,2,1,50,0,0
174968,-100,4,2,1,50,0,0
175600,-76.9230769230769,4,2,1,50,0,0
176231,-100,4,2,1,50,0,0
176863,-76.9230769230769,4,2,1,50,0,0
177494,-83.3333333333333,4,2,1,50,0,0
178126,-71.4285714285714,4,2,1,60,0,0
178915,-200,4,2,1,50,0,0
180178,-100,4,2,1,55,0,0
180494,-71.4285714285714,4,2,1,60,0,1
181284,-83.3333333333333,4,2,1,60,0,1
181757,-71.4285714285714,4,2,1,60,0,1
182231,-90.9090909090909,4,2,1,60,0,1
182547,-83.3333333333333,4,2,1,60,0,1
183178,-62.5,4,2,1,60,0,1
183494,-83.3333333333333,4,2,1,60,0,1
184284,-76.9230769230769,4,2,1,60,0,1
184757,-90.9090909090909,4,2,1,60,0,1
185073,-83.3333333333333,4,2,1,60,0,1
185389,-83.3333333333333,4,2,1,60,0,0
185547,-71.4285714285714,4,2,1,60,0,1
186021,-66.6666666666667,4,2,1,60,0,1
186336,-83.3333333333333,4,2,1,60,0,1
186652,-90.9090909090909,4,2,1,60,0,1
186968,-62.5,4,2,1,60,0,1
187284,-83.3333333333333,4,2,1,60,0,1
188230,-62.5,4,2,1,60,0,1
188547,-62.5,4,2,1,60,0,1
189336,-76.9230769230769,4,2,1,60,0,1
189968,-83.3333333333333,4,2,1,60,0,1
190600,-111.111111111111,4,2,1,60,0,0
191073,-62.5,4,2,1,60,0,1
191389,-83.3333333333333,4,2,1,60,0,1
191863,-71.4285714285714,4,2,1,60,0,1
192336,-90.9090909090909,4,2,1,60,0,1
192652,-83.3333333333333,4,2,1,60,0,1
192968,-62.5,4,2,1,60,0,1
193600,-83.3333333333333,4,2,1,60,0,1
194389,-76.9230769230769,4,2,1,60,0,1
194863,-83.3333333333333,4,2,1,60,0,1
195810,-71.4285714285714,4,2,1,60,0,1
196126,-83.3333333333333,4,2,1,60,0,1
197073,-62.5,4,2,1,60,0,1
197389,-83.3333333333333,4,2,1,60,0,1
197547,-90.9090909090909,4,2,1,60,0,1
199442,-71.4285714285714,4,2,1,60,0,1
200231,-90.9090909090909,4,2,1,60,0,1
200863,-90.9090909090909,4,2,1,60,0,0
203073,-166.666666666667,4,2,1,60,0,0
203389,-100,4,2,1,50,0,0
203705,-76.9230769230769,4,2,1,50,0,0
204494,-100,4,2,1,50,0,0
205915,-76.9230769230769,4,2,1,50,0,0
207021,-100,4,2,1,50,0,0
208757,-76.9230769230769,4,2,1,50,0,0
209547,-100,4,2,1,50,0,0
211600,-76.9230769230769,4,2,1,50,0,0
213494,-100,4,2,1,50,0,0
213810,-66.6666666666667,4,2,1,50,0,0
214126,-76.9230769230769,4,2,1,50,0,0
214600,-100,4,2,1,50,0,0
216021,-76.9230769230769,4,2,1,50,0,0
217126,-100,4,2,1,50,0,0
218547,-90.9090909090909,4,2,1,50,0,0
221073,-62.5,4,2,1,50,0,0
222810,-76.9230769230769,4,2,1,50,0,0
225494,-100,4,2,1,50,0,0
226126,-76.9230769230769,4,2,1,50,0,0
226600,-100,4,2,1,50,0,0
228968,-76.9230769230769,4,2,1,50,0,0
230231,-100,4,2,1,50,0,0
231178,-76.9230769230769,4,2,1,50,0,0
232284,-62.5,4,2,1,50,0,0
232915,-83.3333333333333,4,2,1,50,0,0
233705,-76.9230769230769,4,2,1,50,0,0
235284,-100,4,2,1,50,0,0
235915,-90.9090909090909,4,2,1,50,0,0
236231,-76.9230769230769,4,2,1,50,0,0
237336,-90.9090909090909,4,2,1,50,0,0
237810,-100,4,2,1,50,0,0
238757,-90.9090909090909,4,2,1,50,0,0
241284,-166.666666666667,4,2,1,50,0,0
243573,-166.666666666667,4,2,1,5,0,0
243652,-166.666666666667,4,2,1,50,0,0
243810,-166.666666666667,4,2,1,30,0,0
255810,-90.909090909091,4,2,1,40,0,0
256284,-111.111111111111,4,2,1,40,0,0
256757,-62.5,4,2,2,60,0,1
257073,-83.3333333333333,4,2,2,60,0,1
257547,-76.9230769230769,4,2,2,60,0,1
258021,-90.9090909090909,4,2,2,60,0,1
258652,-62.5,4,2,2,60,0,1
258968,-76.9230769230769,4,2,2,60,0,1
259284,-90.9090909090909,4,2,2,60,0,1
260073,-76.9230769230769,4,2,2,60,0,1
260705,-90.9090909090909,4,2,2,60,0,1
261494,-76.9230769230769,4,2,2,60,0,1
263231,-90.9090909090909,4,2,2,60,0,1
264021,-76.9230769230769,4,2,2,60,0,1
264652,-90.9090909090909,4,2,2,60,0,1
266389,-111.111111111111,4,2,2,60,0,0
266863,-62.5,4,2,2,60,0,1
267178,-83.3333333333333,4,2,2,60,0,1
267652,-71.4285714285714,4,2,2,60,0,1
268442,-83.3333333333333,4,2,2,60,0,1
268757,-62.5,4,2,2,60,0,1
269389,-83.3333333333333,4,2,2,60,0,1
270178,-71.4285714285714,4,2,2,60,0,1
270652,-90.9090909090909,4,2,2,60,0,1
270968,-83.3333333333333,4,2,2,60,0,1
271284,-83.3333333333333,4,2,2,60,0,0
271442,-71.4285714285714,4,2,2,60,0,1
271915,-90.9090909090909,4,2,2,60,0,1
272231,-83.3333333333333,4,2,2,60,0,1
272863,-62.5,4,2,2,60,0,1
273178,-83.3333333333333,4,2,2,60,0,1
274126,-62.5,4,2,2,60,0,1
274757,-83.3333333333333,4,2,2,60,0,1
275231,-66.6666666666667,4,2,2,60,0,1
275863,-83.3333333333333,4,2,2,60,0,1
276494,-111.111111111111,4,2,2,60,0,0
276968,-62.5,4,2,2,60,0,1
277284,-83.3333333333333,4,2,2,60,0,1
277757,-71.4285714285714,4,2,2,60,0,1
278231,-90.9090909090909,4,2,2,60,0,1
278547,-83.3333333333333,4,2,2,60,0,1
278863,-62.5,4,2,2,60,0,1
279494,-83.3333333333333,4,2,2,60,0,1
280284,-71.4285714285714,4,2,2,60,0,1
280915,-83.3333333333333,4,2,2,60,0,1
282968,-62.5,4,2,2,60,0,1
283284,-83.3333333333333,4,2,2,60,0,1
285336,-62.5,4,2,2,60,0,1
286126,-83.3333333333333,4,2,2,60,0,1
286757,-83.3333333333333,4,2,2,40,0,0
290231,-83.3333333333333,4,2,1,65,0,0
290546,-76.9230769230769,4,2,1,55,0,0
290862,-100,4,2,1,55,0,0
291178,-71.4285714285714,4,2,1,55,0,0
291652,-100,4,2,1,55,0,0
293073,-76.9230769230769,4,2,1,55,0,0
293388,-100,4,2,1,55,0,0
293704,-66.6666666666667,4,2,1,55,0,0
294178,-100,4,2,1,55,0,0
295283,-71.4285714285714,4,2,1,55,0,0
295600,-76.9230769230769,4,2,1,55,0,0
295915,-100,4,2,1,55,0,0
296231,-66.6666666666667,4,2,1,55,0,0
296704,-100,4,2,1,55,0,0
298125,-76.9230769230769,4,2,1,55,0,0
298441,-100,4,2,1,55,0,0
298757,-71.4285714285714,4,2,1,55,0,0
299231,-100,4,2,1,55,0,0
300336,-90.9090909090909,4,2,1,55,0,0
300652,-76.9230769230769,4,2,1,55,0,0
300967,-100,4,2,1,55,0,0
301283,-71.4285714285714,4,2,1,55,0,0
301757,-100,4,2,1,55,0,0
303178,-76.9230769230769,4,2,1,55,0,0
303494,-100,4,2,1,55,0,0
303810,-76.9230769230769,4,2,1,55,0,0
304283,-100,4,2,1,55,0,0
305704,-90.9090909090909,4,2,1,55,0,0
310442,-90.9090909090909,4,2,1,65,0,0

[Colours]
Combo1 : 132,239,244
Combo2 : 219,219,219
Combo3 : 240,134,137
Combo4 : 243,213,120

[HitObjects]
256,192,8875,12,0,11086,1:0:0:0:
156,45,11402,6,0,P|165:89|164:139,1,85,6|0,0:1|0:0,0:0:0:0:
143,166,11638,1,0,0:0:0:0:
143,166,11718,2,0,L|90:163,1,42.5,2|0,1:0|0:0,0:0:0:0:
10,106,11875,1,2,0:0:0:0:
265,191,12034,2,0,P|265:148|274:107,1,85,2|0,0:1|0:0,0:0:0:0:
328,32,12270,1,0,0:0:0:0:
328,32,12349,1,2,1:0:0:0:
452,168,12508,6,0,L|360:155,1,85,2|0,0:1|0:0,0:0:0:0:
235,293,12823,2,0,L|319:281,1,85,2|0,0:1|1:0,0:0:0:0:
121,361,13138,1,2,0:1:0:0:
102,334,13217,1,0,0:0:0:0:
94,304,13296,1,0,0:0:0:0:
97,272,13375,1,0,0:0:0:0:
111,244,13455,2,0,L|156:237,1,42.5,2|0,0:1|0:0,0:0:0:0:
153,56,13612,1,2,1:0:0:0:
32,149,13770,1,2,0:1:0:0:
272,84,13929,6,0,P|263:128|264:178,1,85,6|0,0:1|0:0,0:0:0:0:
222,0,14244,1,2,1:0:0:0:
365,137,14402,1,0,0:0:0:0:
164,200,14560,2,0,P|173:241|172:293,1,85,2|0,0:1|0:0,0:0:0:0:
148,371,14796,1,0,0:0:0:0:
148,371,14875,1,2,1:0:0:0:
353,267,15034,6,0,P|312:258|260:259,1,85,2|0,0:1|0:0,0:0:0:0:
125,97,15350,2,0,P|166:106|218:105,1,85,2|0,0:1|1:0,0:0:0:0:
359,37,15665,1,2,0:1:0:0:
371,66,15744,1,0,0:0:0:0:
376,97,15823,1,0,0:0:0:0:
372,129,15902,1,0,0:0:0:0:
361,159,15981,2,0,L|307:165,1,42.5,2|0,0:1|0:0,0:0:0:0:
470,299,16139,2,0,P|414:266|350:266,1,127.5,2|0,1:1|0:0,0:0:0:0:
287,330,16455,6,0,L|290:381,3,42.5,6|0|0|0,0:1|0:0|0:0|0:0,0:0:0:0:
176,276,16771,2,0,L|173:327,3,42.5,2|0|0|0,0:1|0:0|0:0|0:0,0:0:0:0:
322,170,17087,2,0,L|324:212,3,42.5,2|0|0|0,0:1|0:0|0:0|0:0,0:0:0:0:
349,179,17402,1,2,0:1:0:0:
380,178,17480,1,0,0:0:0:0:
409,166,17559,1,2,0:1:0:0:
432,143,17638,1,0,0:0:0:0:
444,115,17718,6,0,L|495:112,3,42.5,4|0|2|0,0:1|0:0|0:1|0:0,0:0:0:0:
393,262,18034,2,0,L|444:265,3,42.5,0|0|2|0,0:1|0:0|0:1|0:0,0:0:0:0:
242,175,18350,2,0,L|284:172,3,42.5,0|0|2|0,0:0|0:0|0:1|0:0,0:0:0:0:
91,235,18666,2,0,L|87:151,1,85,2|2,0:1|0:1,0:0:0:0:
54,55,18902,1,0,0:0:0:0:
54,55,18981,6,0,P|111:52|159:81,1,101.999996887207,6|0,0:1|0:0,0:0:0:0:
183,180,19217,1,0,0:0:0:0:
182,179,19297,2,0,L|283:173,1,101.999996887207,6|0,1:0|0:0,0:0:0:0:
390,119,19533,1,0,0:0:0:0:
390,119,19613,2,0,L|396:87,2,25.4999992218018,6|0|0,0:1|0:0|0:0,0:0:0:0:
366,0,19770,1,0,0:0:0:0:
485,169,19928,1,0,0:0:0:0:
246,280,20086,5,8,0:1:0:0:
102,143,20694,6,0,L|98:167,3,14.1666666666667,2|2|2|0,0:0|0:0|0:0|0:0,0:0:0:0:
29,246,21338,6,0,B|164:289|131:206|264:250,1,237.999992736817,4|2,0:3|0:0,0:0:0:0:
316,376,22127,2,0,P|261:351|204:337,1,118.999996368408,2|2,0:0|0:0,0:0:0:0:
105,175,22600,2,0,B|135:251|74:269|112:333|112:333|115:293|150:258,1,237.999992736817,2|0,0:0|0:0,0:0:0:0:
219,212,23389,1,2,0:0:0:0:
15,220,23705,1,2,0:0:0:0:
309,148,24021,6,0,B|246:139|215:84|215:84|188:142|123:152,1,237.999992736817,2|2,0:0|0:0,0:0:0:0:
56,55,24811,2,0,L|122:59,1,59.4999981842042,2|2,0:0|0:0,0:0:0:0:
219,212,25127,2,0,P|433:181|313:42,1,475.999985473633,2|0,0:0|0:0,0:0:0:0:
247,128,26548,6,0,B|224:75|246:29|246:29|208:46|166:24,1,178.499994552612,2|2,0:0|0:0,0:0:0:0:
95,125,27179,2,0,P|137:122|165:111,2,59.4999981842042,2|2|2,0:0|0:0|0:0,0:0:0:0:
11,95,27653,2,0,B|74:127|79:211|31:264|31:264|62:229|120:226,1,297.499990921021,2|2,0:0|0:0,0:0:0:0:
0,348,28758,1,2,0:0:0:0:
289,349,29074,6,0,B|211:364|209:300|103:329,1,178.499994552612,2|2,0:0|0:0,0:0:0:0:
265,254,29706,2,0,P|297:253|341:243,2,59.4999981842042,2|2|2,0:0|0:0|0:0,0:0:0:0:
378,327,30179,1,2,0:0:0:0:
422,52,30969,6,0,P|415:99|422:159,1,89.2499972763062
422,160,31284,1,0,0:0:0:0:
337,87,31442,1,0,0:0:0:0:
390,254,31600,6,0,L|484:243,1,85,4|0,0:1|0:0,0:0:0:0:
413,368,31915,2,0,L|314:356,1,85
244,175,32231,2,0,B|270:157|270:157|324:201|291:266,1,152.999995330811,2|0,0:0|0:0,0:0:0:0:
273,283,32547,1,0,0:0:0:0:
62,368,32705,6,0,B|108:366|142:327|142:327|178:368|224:366,1,187.000005706787,2|0,0:0|0:0,0:0:0:0:
81,194,33179,2,0,P|70:235|68:277,1,85
179,120,33494,2,0,P|168:78|166:36,1,85,2|0,0:0|0:0,0:0:0:0:
35,105,33810,1,0,0:0:0:0:
168,246,33968,1,4,0:3:0:0:
297,268,34126,6,0,P|236:235|168:246,1,140.25000428009,4|0,0:3|0:0,0:0:0:0:
123,341,34442,2,0,P|164:349|206:342,1,85,2|0,0:0|0:0,0:0:0:0:
339,258,34757,2,0,L|328:342,1,85,2|0,0:0|0:0,0:0:0:0:
272,180,35073,1,2,0:0:0:0:
426,317,35231,1,2,0:0:0:0:
415,93,35389,6,0,P|377:101|320:99,1,85,4|0,0:3|0:0,0:0:0:0:
174,42,35705,2,0,P|212:34|269:36,1,85,0|0,0:3|0:3,0:3:0:0:
109,118,36021,2,0,P|109:160|101:202,1,85,4|0,0:3|0:3,0:3:0:0:
207,129,36336,1,4,0:3:0:0:
26,254,36494,1,4,0:3:0:0:
197,302,36652,6,0,P|192:276|192:251,3,50.9999984436036,4|0|0|0,0:1|0:3|0:3|0:3,0:3:0:0:
294,327,36968,2,0,P|293:352|289:377,3,50.9999984436036,4|0|0|0,0:3|0:3|0:3|0:3,0:3:0:0:
287,231,37284,1,4,0:3:0:0:
287,231,37363,1,0,0:0:0:0:
287,231,37442,2,0,P|314:232|344:238,1,50.9999984436036
237,75,37600,2,0,P|264:74|294:68,1,50.9999984436036,4|0,0:3|0:0,0:0:0:0:
441,153,37757,1,2,0:0:0:0:
441,153,37836,1,0,0:0:0:0:
441,153,37915,6,0,L|380:143,1,50.9999984436036,4|0,0:1|0:0,0:0:0:0:
183,218,38073,2,0,P|189:186|189:155,1,50.9999984436036,2|0,0:0|0:0,0:0:0:0:
278,19,38231,2,0,P|280:44|287:69,1,50.9999984436036,4|0,0:3|0:0,0:0:0:0:
105,176,38389,1,0,0:0:0:0:
105,176,38468,1,0,0:0:0:0:
105,176,38547,2,0,P|51:169|8:149,1,101.999996887207,4|0,0:3|0:0,0:0:0:0:
0,64,38784,1,0,0:0:0:0:
0,64,38863,1,4,0:3:0:0:
0,248,39021,1,4,0:3:0:0:
148,151,39179,6,0,L|132:261,1,101.999996887207,2|0,0:0|0:0,0:0:0:0:
101,66,39494,2,0,L|161:56,1,50.9999984436036,2|0,0:0|0:0,0:0:0:0:
278,226,39652,2,0,L|218:216,1,50.9999984436036,4|0,0:3|0:0,0:0:0:0:
85,353,39810,2,0,P|132:342|189:344,1,101.999996887207,2|0,0:0|0:0,0:0:0:0:
384,209,40126,2,0,L|377:264,1,50.9999984436036
281,384,40284,2,0,L|274:329,1,50.9999984436036,4|0,0:3|0:0,0:0:0:0:
423,183,40442,5,4,3:0:0:0:
467,208,40521,1,0,3:0:0:0:
467,260,40600,1,0,3:0:0:0:
422,285,40679,1,0,3:0:0:0:
378,260,40757,5,4,3:0:0:0:
332,237,40836,1,0,3:0:0:0:
282,229,40915,1,0,3:0:0:0:
231,235,40994,1,0,3:0:0:0:
210,281,41073,5,4,3:0:0:0:
239,323,41152,1,0,3:0:0:0:
290,319,41231,1,0,3:0:0:0:
312,272,41310,1,0,3:0:0:0:
282,229,41389,6,0,P|273:191|273:142,1,76.4999976654053,8|0,0:1|0:0,0:0:0:0:
311,92,41705,6,0,P|264:121|210:126,1,110.499994941712,6|2,0:1|0:0,0:0:0:0:
301,11,41942,1,0,0:0:0:0:
301,11,42021,2,0,L|343:9,1,42.5,2|0,1:0|0:0,0:0:0:0:
434,163,42179,2,0,L|499:160,1,42.5
311,92,42336,2,0,B|374:95|374:95|406:76|406:76|471:81,1,165.749992412568,2|0,0:1|0:0,0:0:0:0:
497,84,42652,1,2,1:0:0:0:
357,194,42810,6,0,P|310:193|265:204,1,85,2|0,0:1|0:0,0:0:0:0:
118,115,43126,2,0,P|163:126|209:125,1,85,2|0,0:1|1:0,0:0:0:0:
202,329,43442,1,2,0:1:0:0:
163,314,43521,1,0,0:0:0:0:
133,285,43600,1,0,0:0:0:0:
117,248,43679,1,0,0:0:0:0:
116,207,43757,2,0,P|82:212|56:211,1,55.2499974708558,2|0,0:1|0:0,0:0:0:0:
82,359,43915,2,0,P|48:353|22:354,1,55.2499974708558,2|0,1:1|0:0,0:0:0:0:
267,230,44073,2,0,P|233:235|207:234,1,55.2499974708558,2|0,0:1|0:0,0:0:0:0:
221,16,44231,6,0,B|237:56|237:56|236:124,1,110.499994941712,6|0,0:1|0:0,0:0:0:0:
147,162,44468,1,0,0:0:0:0:
147,162,44547,2,0,P|142:127|133:102,1,55.2499974708558,2|0,1:0|0:0,0:0:0:0:
327,143,44705,2,0,P|332:108|341:83,1,55.2499974708558
438,254,44863,2,0,B|345:273|368:214|266:229,1,178.499994552612,2|0,0:1|0:0,0:0:0:0:
300,317,45179,1,2,1:1:0:0:
468,230,45336,6,0,P|462:276|463:328,1,85,2|0,0:1|0:0,0:0:0:0:
327,143,45652,2,0,P|373:143|420:137,1,85,2|0,0:1|1:0,0:0:0:0:
240,46,45968,1,2,0:1:0:0:
242,80,46047,1,0,0:0:0:0:
233,114,46126,1,0,0:0:0:0:
213,143,46205,1,0,0:0:0:0:
185,164,46284,2,0,L|134:162,1,42.5,2|0,0:1|0:0,0:0:0:0:
0,307,46442,2,0,P|59:272|128:271,1,140.25000428009,2|0,1:0|0:0,0:0:0:0:
144,378,46757,6,0,P|126:321|132:258,1,110.499994941712,2|0,0:1|0:0,0:0:0:0:
215,237,46994,1,0,0:0:0:0:
215,237,47073,2,0,L|225:283,1,42.5,2|0,1:1|0:0,0:0:0:0:
60,120,47231,2,0,L|50:166,1,42.5,0|0,0:1|0:0,0:0:0:0:
282,127,47389,2,0,B|214:148|147:123|147:123|174:134|185:159,1,191.250007295609,2|0,0:1|0:0,0:0:0:0:
215,237,47705,1,2,1:0:0:0:
137,39,47863,6,0,P|145:80|147:123,1,85,2|0,0:1|0:0,0:0:0:0:
320,150,48179,2,0,P|321:103|332:57,1,85,2|0,0:1|1:0,0:0:0:0:
475,296,48494,1,2,0:1:0:0:
454,267,48573,1,0,0:0:0:0:
426,247,48652,1,0,0:0:0:0:
392,237,48731,1,0,0:0:0:0:
357,239,48810,2,0,L|309:251,1,42.5,2|0,0:1|0:0,0:0:0:0:
481,171,48968,2,0,L|432:159,1,42.5,2|0,1:0|0:0,0:0:0:0:
387,335,49126,2,0,L|338:346,1,42.5,2|0,0:1|0:0,0:0:0:0:
198,188,49284,6,0,P|208:252|238:299,1,110.499994941712,2|0,0:1|0:0,0:0:0:0:
140,358,49521,1,0,0:0:0:0:
140,358,49600,2,0,L|135:300,1,55.2499974708558,2|0,1:0|0:0,0:0:0:0:
311,250,49757,2,0,L|316:192,1,55.2499974708558
62,191,49915,2,0,B|129:211|198:188|198:188|171:199|159:224,1,191.250007295609,2|0,0:1|0:0,0:0:0:0:
136,303,50231,1,2,1:0:0:0:
25,169,50389,6,0,P|35:214|34:273,1,85,2|0,0:1|0:0,0:0:0:0:
210,104,50705,2,0,P|208:146|198:188,1,85,2|0,0:1|1:0,0:0:0:0:
199,0,51021,1,2,0:1:0:0:
165,0,51100,1,0,0:0:0:0:
135,13,51179,1,0,0:0:0:0:
113,40,51257,1,0,0:0:0:0:
101,72,51336,2,0,P|65:69|32:57,1,55.2499974708558,2|0,0:1|0:0,0:0:0:0:
229,133,51494,2,0,B|150:111|166:180|71:161,1,165.749992412568,2|0,1:0|0:0,0:0:0:0:
122,290,51810,6,0,P|152:236|154:181,1,110.499994941712,6|0,0:1|0:0,0:0:0:0:
218,85,52047,1,0,0:0:0:0:
218,85,52126,2,0,P|224:107|226:131,1,42.5,2|0,1:0|0:0,0:0:0:0:
423,111,52284,2,0,P|417:133|416:157,1,42.5
282,210,52442,2,0,B|309:245|309:245|321:124,1,165.749992412568,2|0,0:1|0:0,0:0:0:0:
331,35,52757,1,2,1:0:0:0:
499,141,52915,6,0,P|457:142|415:151,1,85,2|0,0:1|0:0,0:0:0:0:
301,328,53231,2,0,P|308:286|308:244,1,85,2|0,0:1|0:0,0:0:0:0:
491,347,53547,1,2,0:1:0:0:
480,313,53626,1,0,0:0:0:0:
460,284,53705,1,0,0:0:0:0:
434,261,53784,1,0,0:0:0:0:
403,245,53863,2,0,P|404:214|398:174,1,55.2499974708558,2|0,0:1|0:0,0:0:0:0:
387,351,54021,2,0,P|355:350|315:356,1,55.2499974708558,2|0,1:0|0:0,0:0:0:0:
510,208,54179,2,0,P|509:176|515:136,1,55.2499974708558,2|0,0:1|0:0,0:0:0:0:
232,148,54336,6,0,B|285:164|345:129,1,110.499994941712,2|0,0:1|0:0,0:0:0:0:
310,251,54573,1,0,0:0:0:0:
310,251,54652,2,0,L|248:240,1,55.2499974708558,2|0,1:0|0:0,0:0:0:0:
294,48,54810,2,0,L|232:59,1,55.2499974708558
69,152,54968,2,0,B|108:155|148:120|148:120|191:154|232:148,1,178.499994552612,2|0,0:1|0:0,0:0:0:0:
152,221,55284,1,2,1:0:0:0:
23,128,55442,6,0,P|33:171|34:229,1,85,2|0,0:1|0:0,0:0:0:0:
158,36,55757,2,0,P|149:77|148:119,1,85,2|0,0:1|1:0,0:0:0:0:
291,260,56073,1,2,0:1:0:0:
263,240,56152,1,0,0:0:0:0:
230,227,56231,1,0,0:0:0:0:
196,221,56310,1,0,0:0:0:0:
161,223,56389,2,0,P|161:260|151:296,1,55.2499974708558,2|0,0:1|0:0,0:0:0:0:
326,180,56547,2,0,P|315:234|316:289,1,110.499994941712,2|0,1:0|3:0,0:0:0:0:
383,375,56784,1,0,3:0:0:0:
383,375,56863,6,0,L|437:381,3,46.7500014266968,4|0|0|0,3:1|0:0|0:0|0:0,0:0:0:0:
256,376,57179,2,0,L|202:382,3,46.7500014266968,2|0|0|0,1:2|0:0|0:0|0:0,0:0:0:0:
423,242,57494,2,0,L|417:296,3,46.7500014266968,2|0|0|0,0:0|0:0|0:0|0:0,0:0:0:0:
216,243,57810,2,0,L|222:297,3,46.7500014266968,2|0|0|0,1:2|0:0|0:0|0:0,0:0:0:0:
457,156,58126,6,0,L|410:150,3,46.7500014266968,6|0|0|0,0:2|0:0|0:0|0:0,0:0:0:0:
181,156,58442,2,0,L|227:150,3,46.7500014266968,2|0|0|0,1:2|0:0|0:0|0:0,0:0:0:0:
323,200,58757,1,2,0:0:0:0:
186,18,58915,2,0,L|191:64,1,46.7500014266968,2|0,0:0|0:0,0:0:0:0:
320,0,59073,2,0,L|320:46,1,46.7500014266968,2|0,1:2|0:0,0:0:0:0:
451,18,59231,2,0,L|445:64,1,46.7500014266968,2|0,0:0|0:0,0:0:0:0:
323,200,59389,6,0,B|368:187|368:187|446:209,1,110.499994941712,6|0,0:1|3:3,0:0:0:0:
512,259,59626,1,0,3:0:0:0:
512,259,59705,1,2,3:1:0:0:
242,187,59863,1,0,3:0:0:0:
242,187,59942,1,0,3:0:0:0:
242,187,60021,2,0,L|237:237,2,36.1250006890297,2|0|0,3:1|3:0|3:0,3:0:0:0:
370,273,60179,1,0,1:0:0:0:
148,193,60336,1,4,0:0:0:0:
320,46,60494,1,4,0:0:0:0:
113,222,60652,6,0,B|121:153|121:153|113:111,1,110.499994941712,0|0,1:0|2:0,0:0:0:0:
79,24,60889,1,0,2:0:0:0:
79,24,60968,1,0,2:0:0:0:
156,330,61126,1,0,1:0:0:0:
118,311,61205,1,0,2:0:0:0:
77,306,61284,1,0,2:0:0:0:
37,316,61363,2,0,L|4:334,2,27.6249987354279,0|0|0,2:0|2:0|2:0,2:0:0:0:
86,384,61600,2,0,B|145:392|130:356|191:363,1,110.499994941712,8|0,0:1|0:0,0:0:0:0:
273,375,61836,1,0,0:0:0:0:
273,375,61915,6,0,P|283:329|286:289,1,76.4999976654053,2|0,0:0|0:0,0:0:0:0:
375,120,62231,2,0,P|379:158|387:195,1,76.4999976654053,0|0,1:2|0:0,0:0:0:0:
191,199,62547,2,0,P|228:190|266:186,1,76.4999976654053
436,300,62863,2,0,P|474:296|512:289,1,76.4999976654053,2|0,1:2|0:0,0:0:0:0:
327,248,63179,6,0,B|345:231|351:204|351:204|370:273|333:272|359:346,1,187.000005706787,2|0,0:0|1:0,0:0:0:0:
266,185,63652,2,0,P|269:146|279:109,1,76.4999976654053,2|0,0:0|0:0,0:0:0:0:
185,237,63968,1,2,0:0:0:0:
287,94,64126,1,0,1:0:0:0:
36,132,64284,1,2,0:0:0:0:
36,132,64363,1,0,0:0:0:0:
35,131,64442,6,0,B|116:113|115:167|183:151,1,152.999995330811,6|0,0:0|1:0,0:0:0:0:
67,298,64915,2,0,P|65:245|72:212,1,76.4999976654053
5,361,65231,1,0,0:0:0:0:
156,281,65389,2,0,L|79:287,1,76.4999976654053,0|0,1:0|0:0,0:0:0:0:
215,358,65705,5,0,0:0:0:0:
256,189,65863,1,0,0:0:0:0:
354,311,66021,1,0,0:0:0:0:
512,254,66179,1,2,0:0:0:0:
512,254,66257,1,0,0:0:0:0:
512,254,66336,2,0,L|504:341,1,76.4999976654053,2|0,0:0|0:0,0:0:0:0:
346,219,66652,2,0,L|338:142,1,76.4999976654053,2|0,1:2|0:0,0:0:0:0:
506,145,66968,6,0,B|446:110|446:110|406:151|338:142,1,187.000005706787,6|2,0:0|1:2,0:0:0:0:
278,28,67442,1,2,0:0:0:0:
278,28,67521,1,0,0:0:0:0:
278,28,67600,2,0,P|315:37|353:38,1,76.4999976654053,2|0,0:0|0:0,0:0:0:0:
163,0,67915,2,0,P|126:10|92:28,1,76.4999976654053,2|0,1:2|0:0,0:0:0:0:
148,212,68231,6,0,B|189:235|189:235|165:97,1,187.000005706787,4|0,0:0|1:0,0:0:0:0:
313,191,68705,1,0,0:0:0:0:
148,212,68863,2,0,B|189:235|189:235|238:173|318:192,1,187.000005706787,0|2,0:0|1:2,0:0:0:0:
135,298,69336,1,2,0:0:0:0:
341,161,69494,6,0,B|333:231|382:263|382:263|414:249|457:259,1,187.000005706787,6|0,0:0|1:0,0:0:0:0:
381,358,69968,1,0,0:0:0:0:
381,358,70047,1,0,0:0:0:0:
381,358,70126,2,0,P|372:314|373:268,1,76.4999976654053,2|0,0:0|0:0,0:0:0:0:
424,170,70442,1,0,1:0:0:0:
288,322,70600,1,0,0:0:0:0:
475,253,70757,6,0,B|369:277|392:222|292:237,1,187.000005706787,6|0,0:0|1:0,0:0:0:0:
260,36,71231,1,0,0:0:0:0:
260,36,71310,1,0,0:0:0:0:
260,36,71389,2,0,P|297:43|335:42,1,76.4999976654053,2|0,0:0|0:0,0:0:0:0:
437,152,71705,2,0,B|409:124|409:124|367:153|302:142,1,140.25000428009,2|0,1:2|0:0,0:0:0:0:
159,204,72021,6,0,B|205:223|205:223|250:153|194:98,1,187.000005706787,4|2,0:1|1:2,0:0:0:0:
111,49,72494,1,2,0:0:0:0:
20,154,72652,2,0,L|105:143,1,76.4999976654053,2|0,0:0|0:0,0:0:0:0:
0,252,72968,1,2,1:2:0:0:
20,65,73126,6,0,P|29:107|29:151,1,76.4999976654053,2|0,0:0|0:0,0:0:0:0:
155,314,73442,2,0,P|156:275|164:238,1,76.4999976654053,2|0,0:0|1:0,0:0:0:0:
222,97,73757,1,2,0:0:0:0:
222,97,73836,1,0,0:0:0:0:
222,97,73915,2,0,L|133:112,1,76.4999976654053,2|0,0:0|0:0,0:0:0:0:
9,230,74231,1,2,1:2:0:0:
159,204,74389,1,2,0:0:0:0:
0,141,74547,6,0,B|62:149|62:149|91:196|91:196|175:207,1,187.000005706787,4|2,0:0|1:2,0:0:0:0:
9,230,75021,1,2,0:0:0:0:
207,196,75179,1,2,0:0:0:0:
207,196,75257,1,0,0:0:0:0:
207,196,75336,2,0,L|202:238,1,38.2499988327027
244,331,75494,1,2,1:2:0:0:
297,137,75652,6,0,L|307:221,1,76.4999976654053,2|0,0:0|0:0,0:0:0:0:
421,13,75968,2,0,L|409:105,1,93.5000028533936,2|0,0:0|1:0,0:0:0:0:
245,51,76284,1,0,0:0:0:0:
245,51,76363,1,0,0:0:0:0:
245,51,76442,2,0,P|288:41|341:45,1,76.4999976654053,2|0,0:0|0:0,0:0:0:0:
373,219,76757,2,0,P|371:161|386:106,1,114.749996498108,2|0,1:2|0:0,0:0:0:0:
458,107,77073,6,0,B|423:118|387:106|387:106|367:137|367:137|331:119|288:133,1,187.000005706787,6|0,0:0|1:0,0:0:0:0:
233,281,77547,1,2,0:0:0:0:
233,281,77626,1,0,0:0:0:0:
233,281,77705,2,0,P|277:278|310:267,1,76.4999976654053,2|0,0:0|0:0,0:0:0:0:
142,200,78021,1,0,1:0:0:0:
85,366,78179,1,2,0:0:0:0:
56,170,78336,6,0,B|42:230|83:273|83:273|41:272|16:303,1,187.000005706787,4|0,0:1|1:0,0:0:0:0:
216,184,78810,1,0,0:0:0:0:
216,184,78889,1,0,0:0:0:0:
216,184,78968,2,0,L|130:202,1,76.4999976654053
37,69,79284,2,0,L|111:84,1,76.4999976654053,2|0,1:2|0:0,0:0:0:0:
345,68,79600,5,6,0:1:0:0:
491,248,80863,6,0,P|432:208|357:209,1,140.25000428009,6|0,0:0|0:0,0:0:0:0:
282,272,81179,2,0,L|288:348,1,76.4999976654053,2|0,1:2|0:0,0:0:0:0:
141,225,81494,1,2,3:2:0:0:
160,227,81573,1,0,3:0:0:0:
179,229,81652,1,0,1:2:0:0:
282,272,81810,1,2,3:2:0:0:
139,125,81968,1,0,3:2:0:0:
120,127,82047,1,0,3:0:0:0:
100,131,82126,6,0,P|45:168|38:238,1,127.5,4|0,0:1|0:0,0:0:0:0:
111,317,82442,2,0,B|160:331|201:298|201:298|208:324|235:346,1,152.999995330811,2|0,1:2|0:0,0:0:0:0:
99,130,82757,2,0,B|158:90|158:90|137:221,1,203.999993774414,2|0,0:0|1:0,0:0:0:0:
233,0,83231,6,0,P|234:45|248:94,1,85,2|0,0:0|0:0,0:0:0:0:
0,175,83547,2,0,P|9:134|10:92,1,85,2|0,0:0|1:0,0:0:0:0:
186,163,83863,2,0,P|144:152|102:152,1,85,2|0,0:0|0:0,0:0:0:0:
317,310,84179,1,2,3:2:0:0:
336,308,84257,1,0,3:0:0:0:
355,306,84336,1,0,1:0:0:0:
155,252,84494,1,0,0:0:0:0:
342,214,84652,6,0,B|273:213|273:213|231:255|231:255|156:253,1,203.999993774414,0|2,0:0|1:2,0:0:0:0:
317,310,85126,1,0,0:0:0:0:
102,151,85284,2,0,P|143:161|185:161,1,85,2|0,0:0|0:0,0:0:0:0:
380,74,85600,1,2,1:2:0:0:
291,216,85757,6,0,P|291:164|305:123,1,85,2|0,0:0|0:0,0:0:0:0:
158,261,86073,1,0,3:0:0:0:
177,259,86152,1,0,3:0:0:0:
196,257,86231,1,2,1:2:0:0:
395,181,86389,1,2,3:2:0:0:
414,183,86468,1,0,3:0:0:0:
433,185,86547,1,2,1:2:0:0:
211,125,86705,1,0,3:0:0:0:
209,144,86784,1,0,3:0:0:0:
207,163,86863,1,2,1:2:0:0:
317,310,87021,1,2,3:2:0:0:
319,329,87100,1,0,3:0:0:0:
321,348,87179,6,0,P|369:321|453:329,1,127.5,4|0,1:1|0:0,0:0:0:0:
414,183,87494,2,0,B|385:164|385:164|338:215|379:271,1,152.999995330811,2|0,1:2|0:0,0:0:0:0:
249,167,87810,2,0,B|341:147|319:208|419:181,1,170,2|0,0:0|1:0,0:0:0:0:
211,131,88284,6,0,P|221:177|221:217,1,85,2|0,0:0|0:0,0:0:0:0:
390,16,88600,2,0,P|380:62|380:102,1,85,2|0,0:0|1:0,0:0:0:0:
167,37,88915,1,2,0:0:0:0:
202,29,88994,1,0,0:0:0:0:
236,34,89073,1,0,0:0:0:0:
267,50,89152,1,0,0:0:0:0:
291,75,89231,2,0,L|299:129,1,42.5,2|0,0:0|0:0,0:0:0:0:
390,16,89389,1,0,1:0:0:0:
202,126,89547,1,0,0:0:0:0:
265,290,89705,6,0,P|267:237|260:204,1,85,0|2,0:0|0:0,0:0:0:0:
371,281,90021,1,2,1:2:0:0:
202,126,90179,1,2,0:0:0:0:
90,240,90336,2,0,L|181:250,1,85,2|0,0:0|0:0,0:0:0:0:
260,205,90652,1,0,1:0:0:0:
123,336,90810,1,2,1:2:0:0:
202,126,90968,5,0,0:0:0:0:
236,322,91126,1,4,0:0:0:0:
163,211,91284,1,0,0:0:0:0:
371,281,91442,1,4,0:0:0:0:
202,126,91600,1,4,0:0:0:0:
30,191,91757,1,0,1:0:0:0:
49,193,91836,1,0,1:0:0:0:
68,195,91915,1,2,1:2:0:0:
171,39,92073,1,0,1:0:0:0:
190,37,92152,1,0,1:0:0:0:
209,35,92231,6,0,B|273:32|326:68|326:68|292:111|311:174,1,229.499992996216,4|0,1:0|0:0,0:0:0:0:
246,216,92863,2,0,B|304:190|304:190|416:224,1,152.999995330811,0|2,1:0|0:0,0:0:0:0:
389,215,93336,6,0,B|414:257|402:299|402:299|365:301|341:320,2,152.999995330811,2|0|0,0:0|0:0|0:0,0:0:0:0:
405,384,94126,1,0,1:0:0:0:
254,306,94284,1,2,3:2:0:0:
235,308,94363,1,0,3:0:0:0:
216,310,94442,1,0,1:0:0:0:
116,230,94600,1,2,0:0:0:0:
90,369,94757,6,0,P|126:309|98:205,1,152.999995330811,2|2,0:0|0:0,0:0:0:0:
41,55,95231,2,0,L|130:59,1,76.4999976654053,2|0,0:0|1:0,0:0:0:0:
230,195,95547,1,2,0:0:0:0:
78,147,95705,1,2,0:0:0:0:
253,106,95863,6,0,B|188:113|188:113|152:145|152:145|77:148,1,187.000005706787,6|0,0:0|0:0,0:0:0:0:
70,55,96257,1,0,0:0:0:0:
70,55,96336,2,0,L|117:58,1,46.7500014266968,2|0,1:2|0:0,0:0:0:0:
230,195,96494,2,0,L|276:192,1,46.7500014266968,0|0,3:0|3:0,0:0:0:0:
358,45,96652,1,0,1:0:0:0:
345,77,96731,1,0,0:0:0:0:
343,112,96810,1,0,3:0:0:0:
352,146,96889,1,0,3:0:0:0:
371,175,96968,2,0,L|368:221,1,46.7500014266968,8|0,1:0|3:0,0:0:0:0:
232,289,97126,1,0,3:0:0:0:
429,261,97284,6,0,B|298:240|361:307|224:288,1,203.999993774414,4|2,0:1|1:2,0:0:0:0:
276,192,97757,1,0,0:0:0:0:
389,346,97915,2,0,P|431:347|472:357,1,85,2|0,0:0|0:0,0:0:0:0:
232,289,98231,1,2,1:2:0:0:
368,221,98389,1,2,0:0:0:0:
248,101,98547,6,0,B|283:69|283:69|275:191,1,170,4|0,0:0|1:0,0:0:0:0:
179,191,98942,1,0,0:0:0:0:
179,191,99021,2,0,L|171:140,1,42.5
368,221,99179,2,0,L|376:170,1,42.5,2|0,0:0|0:0,0:0:0:0:
283,69,99336,1,0,0:0:0:0:
465,221,99494,1,0,1:0:0:0:
275,191,99652,1,2,0:0:0:0:
390,0,99810,6,0,P|390:47|403:101,1,101.999996887207,4|0,0:0|3:0,0:0:0:0:
490,133,100047,1,0,3:0:0:0:
490,133,100126,1,0,1:0:0:0:
302,71,100284,1,2,3:2:0:0:
283,69,100363,1,0,3:0:0:0:
263,65,100442,2,0,L|191:52,1,50.9999984436036,0|0,1:0|1:0,0:0:0:0:
63,139,100600,1,0,3:0:0:0:
199,258,100757,2,0,L|223:151,1,101.999996887207,0|0,1:0|3:0,0:0:0:0:
207,138,100994,1,0,3:0:0:0:
207,138,101073,6,0,B|138:193|63:140|63:140|61:93|91:59,1,237.999992736817,4|4,1:0|1:2,0:0:0:0:
297,235,101547,1,0,0:0:0:0:
35,285,101863,2,0,L|27:226,2,42.5
119,343,102336,5,0,0:0:0:0:
119,343,102415,1,0,0:0:0:0:
119,343,102494,1,0,0:0:0:0:
119,343,102573,1,0,0:0:0:0:
119,343,102652,5,0,0:0:0:0:
144,349,102731,1,0,0:0:0:0:
171,348,102810,1,0,0:0:0:0:
196,341,102889,1,0,0:0:0:0:
219,328,102968,5,0,0:0:0:0:
250,293,103047,1,0,0:0:0:0:
260,247,103126,1,0,3:0:0:0:
294,214,103205,1,0,3:0:0:0:
341,204,103284,6,0,P|365:204|389:207,1,42.5,8|0,1:0|0:0,0:0:0:0:
83,162,103442,6,2,B|111:102|111:102|154:250,1,220.999989883423,6|2,0:1|0:1,0:1:0:0:
96,338,103836,1,0,0:0:0:0:
96,338,103915,2,0,B|139:321|164:279|164:279|201:301|248:288,1,178.499994552612,0|2,1:1|0:0,0:1:0:0:
291,189,104231,1,2,0:1:0:0:
291,189,104310,1,0,0:0:0:0:
291,189,104389,2,0,L|229:197,1,50.9999984436036
191,380,104547,1,2,1:0:0:0:
460,252,104705,6,2,B|416:261|372:247|372:247|340:290|340:290|296:270|245:288,1,237.999992736817,2|2,0:1|0:1,0:1:0:0:
505,364,105179,2,0,P|461:347|415:342,1,93.5000028533936,0|0,1:0|0:0,0:0:0:0:
292,371,105415,1,0,0:0:0:0:
292,371,105494,2,0,L|303:315,1,50.9999984436036,2|0,0:1|0:0,0:0:0:0:
410,165,105652,2,0,L|399:109,1,50.9999984436036,0|0,0:1|0:0,0:0:0:0:
224,110,105810,2,2,B|203:148|203:148|268:188|322:157,1,165.749992412568,2|0,1:1|0:1,0:1:0:0:
466,48,106126,6,0,B|506:12|506:12|496:151,1,191.250007295609,2|0,0:1|0:0,0:0:0:0:
510,237,106442,2,0,L|454:232,1,50.9999984436036,2|0,1:0|0:0,0:0:0:0:
374,283,106600,1,0,0:0:0:0:
314,107,106757,1,2,0:1:0:0:
314,107,106836,1,0,0:0:0:0:
314,107,106915,2,0,L|319:163,1,50.9999984436036
186,279,107073,1,2,1:0:0:0:
358,240,107231,6,2,B|239:269|270:161|141:200,1,220.999989883423,2|2,0:1|0:1,0:1:0:0:
88,308,107705,2,0,P|135:288|185:278,1,101.999996887207,0|0,1:0|0:0,0:0:0:0:
220,384,107942,1,0,0:0:0:0:
220,384,108021,2,0,L|170:375,1,50.9999984436036,2|0,0:1|0:0,0:0:0:0:
18,205,108179,2,0,L|68:214,1,50.9999984436036
26,374,108336,1,2,1:0:0:0:
236,167,108494,6,2,B|190:128|190:128|108:210|178:286,1,237.999992736817,6|2,0:1|0:1,0:1:0:0:
429,218,108968,2,0,B|360:191|301:222|301:222|318:201|320:180,1,178.499994552612,0|0,1:0|0:0,0:0:0:0:
375,112,109284,2,0,L|437:127,1,50.9999984436036,2|0,0:1|0:0,0:0:0:0:
429,310,109442,2,0,L|478:298,1,50.9999984436036
226,314,109600,2,0,B|207:243|247:202|247:202|279:201|300:221,1,178.499994552612,2|0,1:0|0:0,0:0:0:0:
271,110,109915,6,0,B|185:88|181:172|72:140,1,204,2|0,0:1|0:0,0:0:0:0:
65,44,110231,2,0,L|121:56,1,50.9999984436036,2|0,1:0|0:0,0:0:0:0:
247,202,110389,1,0,0:0:0:0:
352,77,110547,1,2,0:1:0:0:
352,77,110626,1,0,0:0:0:0:
352,77,110705,2,0,L|361:141,1,50.9999984436036
479,335,110863,1,2,1:0:0:0:
331,218,111021,1,0,3:0:0:0:
331,218,111100,1,0,3:0:0:0:
331,218,111179,6,2,B|367:226|405:213|405:213|434:251|434:251|472:232|515:248,1,204,6|0,1:1|0:0,0:0:0:0:
267,286,111494,2,0,B|223:316|223:316|234:165,1,204,2|0,1:0|0:0,0:0:0:0:
260,71,111810,1,2,3:1:0:0:
241,69,111889,1,0,3:0:0:0:
222,67,111968,1,0,1:0:0:0:
45,209,112126,1,2,1:0:0:0:
153,123,112284,6,2,B|140:108|134:79|134:79|88:169|152:155|125:257,1,220.999989883423,6|2,0:1|3:1,0:1:0:0:
85,327,112679,1,0,3:0:0:0:
85,327,112757,1,0,1:0:0:0:
219,186,112915,1,0,3:1:0:0:
238,188,112994,1,0,3:0:0:0:
257,190,113073,2,0,L|307:194,1,46.7500014266968,2|0,0:1|0:0,0:0:0:0:
466,318,113231,1,0,0:0:0:0:
305,345,113389,1,2,1:0:0:0:
495,168,113547,6,0,P|440:226|415:150,1,191.249994163513,2|0,0:0|0:0,0:0:0:0:
488,313,114021,6,2,B|446:323|406:310|406:310|379:347|379:347|342:337|303:343,1,204,4|0,1:1|0:0,0:0:0:0:
213,369,114336,2,0,L|220:307,1,50.9999984436036,2|0,1:0|0:0,0:0:0:0:
219,186,114494,1,0,0:0:0:0:
305,344,114652,1,2,1:0:0:0:
49,235,114810,6,2,B|168:200|137:308|256:279,1,220.999989883423,2|2,0:1|0:1,0:1:0:0:
24,155,115284,2,0,P|24:205|17:250,1,93.5000028533936,0|0,1:0|0:0,0:0:0:0:
94,367,115521,1,0,0:0:0:0:
94,367,115600,2,0,L|87:320,1,46.7500014266968,2|0,0:1|0:0,0:0:0:0:
219,181,115757,2,0,L|225:135,1,46.7500014266968
43,101,115915,2,0,B|23:122|24:154|24:154|84:182|147:137,1,178.499994552612,2|0,1:0|0:0,0:0:0:0:
271,63,116231,6,0,B|303:21|303:21|317:158,1,191.250007295609,2|0,0:1|0:0,0:0:0:0:
298,249,116547,2,0,L|358:244,1,50.9999984436036,2|0,1:0|0:0,0:0:0:0:
451,131,116705,1,0,0:0:0:0:
458,323,116863,1,2,0:1:0:0:
458,323,116942,1,0,0:0:0:0:
458,323,117021,2,0,L|407:318,1,50.9999984436036
318,158,117179,1,2,1:0:0:0:
188,234,117336,6,2,B|270:210|325:281|325:281|352:265|370:224,1,220.999989883423,2|2,0:1|0:1,0:1:0:0:
232,319,117810,1,2,1:2:0:0:
318,158,117968,2,0,L|313:107,1,50.9999984436036,2|0,0:0|0:0,0:0:0:0:
148,257,118126,2,0,L|152:206,1,50.9999984436036,2|0,0:0|0:0,0:0:0:0:
49,30,118284,1,2,0:0:0:0:
197,120,118442,2,0,P|150:126|87:107,1,101.999996887207,2|0,1:0|0:0,0:0:0:0:
97,112,118757,6,0,P|74:169|34:202,1,110.499994941712,6|0,1:1|0:0,0:0:0:0:
148,374,119073,2,0,P|147:321|131:261,1,110.499994941712,0|2,1:0|0:1,0:0:0:0:
37,200,119389,1,2,1:0:0:0:
242,236,119547,1,0,3:0:0:0:
261,234,119626,1,0,3:0:0:0:
280,232,119705,1,0,1:0:0:0:
386,384,119863,1,2,0:1:0:0:
244,324,120021,6,0,B|283:308|321:326|321:326|349:288|349:288|384:303|426:292,1,204,4|0,1:1|0:1,0:1:0:0:
494,249,120336,1,2,1:0:0:0:
400,112,120494,2,0,P|392:159|390:205,1,93.5000028533936,2|0,0:1|1:0,0:0:0:0:
293,40,120810,1,2,3:1:0:0:
312,42,120889,1,0,3:0:0:0:
331,44,120968,1,0,1:0:0:0:
472,167,121126,1,2,3:1:0:0:
491,165,121205,1,0,3:0:0:0:
510,163,121284,5,0,1:0:0:0:
300,124,121442,1,0,3:1:0:0:
298,143,121521,1,0,3:0:0:0:
296,162,121600,1,0,1:0:0:0:
202,291,121757,1,0,3:0:0:0:
202,291,121836,1,0,3:0:0:0:
202,291,121915,2,0,L|193:232,1,46.7500014266968,0|0,1:0|1:0,0:0:0:0:
97,108,122073,2,0,L|106:49,1,46.7500014266968,0|0,3:0|3:0,0:0:0:0:
43,220,122231,1,0,1:0:0:0:
287,252,122389,5,4,0:1:0:0:
66,57,122705,1,0,3:1:0:0:
85,59,122784,1,0,3:0:0:0:
104,61,122863,1,0,1:0:0:0:
230,201,123021,1,0,3:1:0:0:
249,199,123100,1,0,3:0:0:0:
270,195,123179,2,0,L|321:185,1,46.7500014266968,0|0,1:2|1:0,0:0:0:0:
157,136,123336,1,0,0:0:0:0:
304,293,123494,1,0,1:0:0:0:
374,76,123652,1,0,3:1:0:0:
372,95,123731,1,0,3:0:0:0:
370,114,123810,5,4,1:1:0:0:
256,24,125863,5,0,3:0:0:0:
256,24,125942,1,0,3:0:0:0:
256,24,126021,2,0,L|256:92,1,63.75,8|0,1:1|0:0,0:0:0:0:
327,202,126336,6,0,B|286:187|286:187|219:202,1,110.499994941712,6|0,0:1|0:0,0:0:0:0:
137,154,126573,1,0,0:0:0:0:
137,154,126652,2,0,L|174:118,1,42.5,2|0,1:0|0:0,0:0:0:0:
200,289,126810,2,0,L|248:294,1,42.5,0|0,0:1|0:0,0:0:0:0:
91,226,126968,2,0,B|68:216|51:186|51:186|66:251|51:307,1,178.499994552612,2|0,0:1|0:0,0:0:0:0:
0,384,127284,1,2,1:0:0:0:
191,372,127442,6,0,P|191:330|200:288,1,85,2|0,0:1|0:0,0:0:0:0:
45,102,127757,2,0,P|52:144|51:186,1,85,2|0,0:1|1:0,0:0:0:0:
107,294,128073,1,2,0:1:0:0:
115,260,128152,1,0,0:0:0:0:
134,230,128231,1,0,0:0:0:0:
161,208,128310,1,0,0:0:0:0:
193,195,128389,2,0,L|248:202,1,42.5,2|0,0:1|0:0,0:0:0:0:
50,159,128547,2,0,L|120:152,1,42.5,2|0,1:0|0:0,0:0:0:0:
200,289,128705,2,0,L|270:296,1,42.5,2|0,0:1|0:0,0:0:0:0:
418,87,128863,6,0,P|380:131|367:189,1,110.499994941712,2|0,0:1|0:0,0:0:0:0:
228,119,129100,1,0,0:0:0:0:
228,119,129179,2,0,L|270:113,1,42.5,2|0,1:1|0:0,0:0:0:0:
398,6,129336,2,0,L|444:0,1,42.5
246,28,129494,2,0,B|315:40|315:40|347:77|347:77|420:88,1,191.250007295609,2|0,0:1|0:0,0:0:0:0:
493,115,129810,1,2,1:0:0:0:
281,201,129968,6,0,P|326:189|372:189,1,85,2|0,0:1|0:0,0:0:0:0:
164,359,130284,2,0,P|117:359|71:348,1,85,2|0,0:1|0:0,0:0:0:0:
183,218,130600,1,2,0:1:0:0:
190,251,130679,1,0,0:0:0:0:
211,279,130757,1,0,0:0:0:0:
241,296,130836,1,0,0:0:0:0:
276,299,130915,2,0,L|326:291,1,42.5,2|0,0:1|0:0,0:0:0:0:
49,197,131073,2,0,B|79:149|79:149|101:268,1,178.499994552612,2|0,1:0|0:0,0:0:0:0:
183,218,131389,6,0,P|183:171|204:99,1,118.999996368408,2|0,0:1|0:0,0:0:0:0:
251,27,131626,1,0,0:0:0:0:
251,27,131705,2,0,L|204:19,1,42.5,2|0,1:0|0:0,0:0:0:0:
79,149,131863,2,0,L|28:157,1,42.5,0|0,0:1|0:0,0:0:0:0:
30,0,132021,2,0,B|13:31|21:62|21:62|76:76|119:49,1,165.749992412568,2|0,0:1|0:0,0:0:0:0:
195,0,132336,1,2,1:0:0:0:
355,125,132494,6,0,P|304:113|256:112,1,85,2|0,0:1|0:0,0:0:0:0:
467,173,132810,2,0,P|455:127|453:81,1,85,2|0,0:1|1:0,0:0:0:0:
302,209,133126,1,2,0:1:0:0:
302,243,133205,1,0,0:0:0:0:
316,276,133284,1,0,0:0:0:0:
340,301,133363,1,0,0:0:0:0:
371,315,133442,2,0,L|418:310,1,42.5,2|0,0:1|0:0,0:0:0:0:
221,339,133600,2,0,L|267:344,1,42.5,2|0,1:1|0:0,0:0:0:0:
392,224,133757,2,0,L|397:177,1,42.5,2|0,0:1|0:0,0:0:0:0:
276,0,133915,6,0,P|328:15|384:15,1,110.499994941712,2|0,0:1|0:0,0:0:0:0:
415,93,134152,1,0,0:0:0:0:
415,93,134231,2,0,L|373:98,1,42.5,2|0,1:1|0:0,0:0:0:0:
262,244,134389,2,0,L|215:239,1,42.5,0|0,0:1|0:0,0:0:0:0:
405,183,134547,2,0,B|325:201|318:133|234:154,1,178.499994552612,2|0,0:1|0:0,0:0:0:0:
145,177,134863,1,2,1:0:0:0:
253,327,135021,6,0,P|261:286|261:243,1,85,2|0,0:1|0:0,0:0:0:0:
134,93,135336,2,0,P|135:135|145:177,1,85,2|0,0:1|1:0,0:0:0:0:
0,286,135652,1,2,0:1:0:0:
31,270,135731,1,0,0:0:0:0:
64,260,135810,1,0,0:0:0:0:
99,257,135889,1,0,0:0:0:0:
134,261,135968,2,0,L|196:275,1,42.5,2|0,0:1|0:0,0:0:0:0:
5,130,136126,2,0,P|74:129|133:93,1,140.25000428009,2|0,1:0|0:0,0:0:0:0:
300,162,136442,6,0,B|261:177|261:177|177:158,1,110.499994941712,6|0,0:1|0:0,0:0:0:0:
293,69,136679,1,0,0:0:0:0:
293,69,136757,2,0,L|349:75,1,42.5,2|0,1:0|0:0,0:0:0:0:
322,252,136915,2,0,L|368:246,1,42.5
482,82,137073,2,0,B|446:69|415:92|415:92|405:152|439:193,1,178.499994552612,2|0,0:1|0:0,0:0:0:0:
512,249,137389,1,2,1:0:0:0:
348,371,137547,6,0,P|354:329|353:287,1,85,2|0,0:1|0:0,0:0:0:0:
207,168,137863,2,0,P|253:168|299:161,1,85,2|0,0:1|0:0,0:0:0:0:
176,266,138179,1,2,0:1:0:0:
144,250,138257,1,0,0:0:0:0:
121,224,138336,1,0,0:0:0:0:
108,192,138415,1,0,0:0:0:0:
108,157,138494,2,0,L|115:99,1,42.5,2|0,0:1|0:0,0:0:0:0:
41,297,138652,2,0,L|33:239,1,42.5,2|0,1:0|0:0,0:0:0:0:
207,168,138810,2,0,L|214:110,1,42.5,2|0,0:1|0:0,0:0:0:0:
408,146,138968,6,0,P|354:160|299:160,1,110.499994941712,2|0,0:1|0:0,0:0:0:0:
267,244,139205,1,0,0:0:0:0:
267,244,139284,2,0,L|312:257,1,42.5,2|0,1:0|0:0,0:0:0:0:
343,67,139442,2,0,L|388:54,1,42.5
460,231,139600,2,0,B|488:264|488:264|504:143,1,165.749992412568,2|0,0:1|0:0,0:0:0:0:
497,50,139915,1,0,1:0:0:0:
316,161,140073,6,0,P|363:158|408:146,1,85,2|0,0:1|0:0,0:0:0:0:
197,302,140389,2,0,P|152:289|105:286,1,85,2|0,0:1|1:0,0:0:0:0:
285,377,140705,1,2,0:1:0:0:
306,349,140784,1,0,0:0:0:0:
316,315,140863,1,0,0:0:0:0:
313,281,140942,1,0,0:0:0:0:
299,249,141021,2,0,L|247:230,1,42.5,2|0,0:1|0:0,0:0:0:0:
30,298,141179,2,0,P|76:295|121:282,1,85,2|0,0:1|3:0,0:0:0:0:
165,200,141415,1,0,3:0:0:0:
165,200,141494,6,0,L|159:148,3,46.7500014266968,6|0|0|0,0:0|0:0|0:0|0:0,0:0:0:0:
299,249,141810,2,0,L|305:197,3,46.7500014266968,2|0|0|0,1:2|0:0|0:0|0:0,0:0:0:0:
188,79,142126,2,0,L|141:73,3,46.7500014266968,2|0|0|0,0:0|0:0|0:0|0:0,0:0:0:0:
291,120,142442,2,0,L|337:125,3,46.7500014266968,2|0|0|0,1:2|0:0|0:0|0:0,0:0:0:0:
60,87,142757,6,0,L|65:40,3,46.7500014266968,6|0|0|0,0:2|0:0|0:0|0:0,0:0:0:0:
319,46,143073,2,0,L|324:0,3,46.7500014266968,2|0|0|0,1:2|0:0|0:0|0:0,0:0:0:0:
188,79,143389,1,0,0:0:0:0:
342,171,143547,2,0,L|337:125,1,46.7500014266968,2|0,0:0|0:0,0:0:0:0:
183,221,143705,2,0,L|183:175,1,46.7500014266968,2|0,1:2|0:0,0:0:0:0:
53,133,143863,2,0,L|59:87,1,46.7500014266968,2|0,0:0|0:0,0:0:0:0:
57,306,144021,6,0,B|121:288|121:288|160:307,1,110.499994941712,6|0,0:1|3:0,0:0:0:0:
116,384,144257,1,0,3:0:0:0:
116,384,144336,1,2,1:0:0:0:
272,223,144494,1,0,3:0:0:0:
272,223,144573,1,0,3:0:0:0:
272,223,144652,2,0,L|265:258,2,36.1250006890297,2|0|0,1:0|0:0|0:0,0:0:0:0:
228,367,144810,1,0,3:0:0:0:
355,250,144968,1,4,1:2:0:0:
97,206,145126,1,4,0:0:0:0:
344,131,145284,6,0,B|305:150|266:133|266:133|238:137|212:165,1,136,4|0,0:1|3:0,0:0:0:0:
184,240,145521,1,0,3:0:0:0:
184,240,145600,1,0,1:0:0:0:
307,54,145757,1,0,3:0:0:0:
339,45,145836,1,0,3:0:0:0:
373,48,145915,1,0,1:0:0:0:
402,65,145994,2,0,L|431:87,2,36.1250006890297
321,210,146231,2,0,B|352:234|352:234|343:130,1,144.500002756119,8|0,1:1|3:0,0:0:0:0:
307,54,146468,1,0,3:0:0:0:
307,54,146547,6,0,P|267:63|226:64,1,76.4999976654053,4|0,1:2|0:0,0:0:0:0:
135,166,146863,2,0,P|96:167|59:176,1,76.4999976654053,0|0,1:0|0:3,0:3:0:0:
134,0,147179,2,0,P|142:37|143:75,1,76.4999976654053,0|0,0:0|0:3,0:3:0:0:
225,229,147494,2,0,P|225:190|234:153,1,76.4999976654053,2|0,1:2|0:3,0:3:0:0:
452,249,147810,6,0,P|393:202|298:212,1,152.999995330811,2|0,0:0|1:3,0:3:0:0:
272,302,148284,2,0,L|283:386,1,76.4999976654053,2|0,0:0|0:0,0:0:0:0:
362,287,148600,1,2,0:0:0:0:
184,350,148757,1,0,1:0:0:0:
42,267,148915,1,2,0:0:0:0:
42,267,148994,1,0,0:0:0:0:
42,268,149073,6,0,B|90:245|137:270|137:270|170:263|182:242,1,152.999995330811,4|0,0:0|1:0,0:0:0:0:
119,94,149547,2,0,L|132:185,1,76.4999976654053
30,148,149863,1,0,0:0:0:0:
229,34,150021,2,0,L|216:125,1,76.4999976654053,0|0,1:0|0:0,0:0:0:0:
360,187,150336,6,0,B|326:220|326:220|317:97,1,170,4|0,0:0|1:0,0:0:0:0:
403,40,150810,1,0,0:0:0:0:
326,220,150968,2,0,B|360:186|360:186|429:166|472:218,1,170,0|2,0:0|1:2,0:0:0:0:
353,314,151442,1,0,0:0:0:0:
174,295,151600,6,0,B|270:257|266:337|353:313,1,187.000005706787,6|0,0:0|1:0,0:0:0:0:
399,201,152073,1,2,0:0:0:0:
399,201,152152,1,0,0:0:0:0:
399,201,152231,2,0,P|363:216|326:220,1,76.4999976654053,2|0,0:0|0:0,0:0:0:0:
100,276,152547,2,0,P|137:279|173:294,1,76.4999976654053,2|0,1:2|0:0,0:0:0:0:
342,129,152863,6,0,B|341:61|305:13|305:13|287:46|258:68,1,187.000005706787,4|0,0:0|1:0,0:0:0:0:
325,219,153336,1,0,0:0:0:0:
178,105,153494,2,0,B|125:140|125:140|183:117|249:152,1,187.000005706787,0|2,0:0|1:2,0:0:0:0:
265,61,153968,1,0,0:0:0:0:
221,311,154126,6,0,B|225:246|177:218|177:218|142:236|96:229,1,187.000005706787,6|0,0:0|1:0,0:0:0:0:
50,128,154600,1,2,0:0:0:0:
50,128,154679,1,0,0:0:0:0:
50,128,154757,2,0,P|88:137|132:140,1,76.4999976654053,2|0,0:0|0:0,0:0:0:0:
221,311,155073,2,0,P|182:314|145:323,1,76.4999976654053,0|0,1:0|0:0,0:0:0:0:
292,224,155389,6,0,B|226:204|158:225|158:225|183:214|197:194,1,187.000005706787,6|0,0:0|0:0,0:0:0:0:
341,208,155863,1,0,0:0:0:0:
341,208,155942,1,0,0:0:0:0:
341,208,156021,2,0,P|335:248|338:293,1,76.4999976654053
228,369,156336,2,0,P|280:323|349:314,1,140.25000428009,2|0,1:2|0:0,0:3:0:0:
458,202,156652,6,0,B|411:170|411:170|438:297,1,187.000005706787,4|2,0:1|1:2,0:0:0:0:
456,384,157126,1,2,0:0:0:0:
273,324,157284,2,0,P|311:315|350:315,1,76.4999976654053,2|0,0:0|0:0,0:0:0:0:
204,257,157600,1,2,1:2:0:0:
127,372,157757,6,0,L|114:291,1,76.4999976654053,2|0,0:0|0:0,0:0:0:0:
285,119,158073,2,0,L|273:195,1,76.4999976654053,2|0,0:0|1:0,0:0:0:0:
71,197,158389,1,2,0:0:0:0:
71,197,158468,1,0,0:0:0:0:
71,197,158547,2,0,P|108:204|149:203,1,76.4999976654053,2|0,0:0|0:0,0:0:0:0:
111,113,158863,1,2,1:2:0:0:
246,286,159021,1,2,0:0:0:0:
424,267,159179,6,0,B|328:229|332:309|245:285,1,187.000005706787,4|2,0:0|1:2,0:0:0:0:
380,347,159652,1,2,0:0:0:0:
273,195,159810,1,2,0:0:0:0:
273,195,159889,1,0,0:0:0:0:
273,195,159968,2,0,L|279:157,1,38.2499988327027
348,84,160126,1,0,1:0:0:0:
112,167,160284,6,0,P|147:159|187:158,1,76.4999976654053,2|0,0:0|0:0,0:0:0:0:
423,92,160600,2,0,P|384:91|347:83,1,76.4999976654053,2|0,0:0|1:0,0:0:0:0:
252,0,160915,1,2,0:0:0:0:
252,0,160994,1,0,0:0:0:0:
252,0,161073,2,0,P|245:38|248:78,1,76.4999976654053,2|0,0:0|0:0,0:0:0:0:
168,258,161389,2,0,P|126:220|110:165,1,114.749996498108,2|0,0:0|0:0,0:0:0:0:
275,220,161705,6,0,P|203:163|110:167,1,187.000005706787,6|2,0:0|1:2,0:3:0:0:
38,228,162179,1,2,0:0:0:0:
38,228,162257,1,0,0:0:0:0:
38,228,162336,2,0,L|48:310,1,76.4999976654053,2|0,0:0|0:0,0:0:0:0:
111,166,162652,1,0,1:2:0:0:
109,367,162810,1,2,0:0:0:0:
296,270,162968,6,0,B|262:306|262:306|188:327|133:275,1,187.000005706787,4|0,0:0|1:0,0:0:0:0:
244,184,163442,1,0,0:0:0:0:
244,184,163521,1,0,0:0:0:0:
244,184,163600,2,0,L|328:173,1,76.4999976654053
436,346,163915,2,0,L|360:336,1,76.4999976654053,2|0,1:2|0:0,0:0:0:0:
269,92,164231,5,6,0:1:0:0:
512,278,165494,6,0,P|453:318|378:317,1,140.25000428009,6|0,0:0|0:0,0:0:0:0:
303,254,165810,2,0,L|309:178,1,76.4999976654053,2|0,1:2|0:0,0:0:0:0:
464,81,166126,1,2,1:2:0:0:
466,100,166205,1,0,3:0:0:0:
468,119,166284,1,0,3:2:0:0:
413,219,166442,1,2,1:2:0:0:
238,107,166600,1,2,3:2:0:0:
219,105,166679,1,0,3:0:0:0:
200,103,166757,6,0,B|155:97|155:97|69:108,1,127.5,4|0,0:1|0:0,0:0:0:0:
165,263,167073,2,0,P|185:200|119:202,1,152.999995330811,2|0,1:2|0:0,0:0:0:0:
30,276,167389,2,0,B|135:260|114:334|230:308,1,203.999993774414,2|0,0:0|1:0,0:0:0:0:
415,124,167863,6,0,P|409:168|411:217,1,85,2|0,0:0|0:0,0:0:0:0:
268,333,168179,2,0,P|268:290|262:248,1,85,2|0,0:0|1:0,0:0:0:0:
451,302,168494,2,0,P|408:302|366:296,1,85,2|0,0:0|0:0,0:0:0:0:
220,158,168810,1,2,0:0:0:0:
409,208,168968,1,0,1:0:0:0:
262,248,169126,1,0,0:0:0:0:
355,70,169284,6,0,B|308:31|308:31|321:173,1,203.999993774414,0|2,0:0|1:2,0:0:0:0:
262,248,169757,1,0,0:0:0:0:
47,95,169915,2,0,B|101:124|151:97|151:97|202:108|220:158,1,203.999993774414,2|0,0:0|1:0,0:0:0:0:
124,287,170389,6,0,L|136:202,1,85
103,18,170705,1,2,0:0:0:0:
219,156,170863,1,2,1:2:0:0:
47,95,171021,1,2,0:0:0:0:
23,299,171179,2,0,P|76:297|126:286,1,101.999996887207,2|0,0:0|3:0,0:0:0:0:
206,244,171415,1,0,3:0:0:0:
206,244,171494,1,2,1:2:0:0:
57,379,171652,1,0,0:0:0:0:
270,314,171810,6,0,P|298:262|282:189,1,127.5
416,55,172126,2,0,B|434:32|434:32|488:77|448:142,1,152.999995330811,2|0,1:2|0:0,0:0:0:0:
253,109,172442,2,0,B|358:93|337:167|453:141,1,203.999993774414,2|0,0:0|1:0,0:0:0:0:
265,25,172915,6,0,P|254:68|253:117,1,85,2|0,0:0|0:0,0:0:0:0:
0,87,173231,2,0,P|41:76|83:74,1,85,2|0,0:0|1:0,0:0:0:0:
174,241,173547,2,0,P|172:198|161:157,1,85,2|0,0:0|0:0,0:0:0:0:
61,312,173863,1,2,3:2:0:0:
80,310,173942,1,0,3:0:0:0:
99,308,174021,1,0,1:2:0:0:
294,162,174179,1,0,0:0:0:0:
361,297,174336,6,0,B|326:277|288:285|288:285|256:220|301:152,1,203.999993774414,0|2,0:0|1:2,0:0:0:0:
313,373,174810,1,0,0:0:0:0:
397,124,174968,1,2,0:0:0:0:
378,98,175047,1,0,0:0:0:0:
350,79,175126,2,0,L|296:61,1,42.5
161,183,175284,1,0,1:0:0:0:
338,164,175442,1,2,0:0:0:0:
141,87,175600,6,0,B|213:100|213:100|259:150|259:150|343:164,1,220.999989883423,0|0,0:0|1:0,0:0:0:0:
309,65,176073,1,0,0:0:0:0:
52,33,176231,2,0,P|44:81|45:130,1,85,2|0,0:0|0:0,0:0:0:0:
233,245,176547,2,0,P|232:202|224:160,1,85,0|2,1:0|0:0,0:0:0:0:
34,236,176863,6,0,P|88:207|143:202,1,110.499994941712,4|0,0:1|3:0,0:0:0:0:
233,245,177100,1,0,3:0:0:0:
233,245,177179,1,0,1:0:0:0:
139,28,177336,1,0,3:0:0:0:
139,28,177415,1,0,3:0:0:0:
139,28,177494,2,0,L|146:86,1,50.9999984436036,0|0,1:0|1:0,0:0:0:0:
224,160,177652,1,0,3:0:0:0:
419,139,177810,2,0,P|352:111|303:118,1,101.999996887207,0|0,1:0|3:0,0:0:0:0:
348,235,178047,1,0,3:0:0:0:
348,235,178126,6,0,B|387:299|387:299|419:139,1,237.999992736817,4|4,0:1|1:2,0:0:0:0:
292,314,178600,1,4,0:0:0:0:
396,46,178915,2,0,L|451:45,2,42.5,2|0|0,0:0|0:0|0:0,0:0:0:0:
323,112,179389,5,0,0:0:0:0:
323,112,179468,1,0,0:0:0:0:
323,112,179547,1,0,0:0:0:0:
323,112,179626,1,0,0:0:0:0:
323,112,179705,5,0,0:0:0:0:
293,142,179784,1,0,0:0:0:0:
255,160,179863,1,0,0:0:0:0:
212,163,179942,1,0,0:0:0:0:
172,153,180021,5,0,0:0:0:0:
124,147,180100,1,0,0:0:0:0:
78,157,180179,2,0,L|34:184,1,42.5,0|0,3:0|3:0,0:0:0:0:
222,64,180336,5,8,1:1:0:0:
198,349,180494,6,6,B|180:383|122:386|122:386|82:305|138:228,1,237.999992736817,6|2,0:1|0:1,0:1:0:0:
238,184,180889,1,0,0:0:0:0:
238,184,180968,2,0,B|136:208|136:208|68:158,1,178.499994552612,0|0,1:1|0:1,0:1:0:0:
16,298,181284,1,2,0:1:0:0:
16,298,181363,1,0,0:0:0:0:
16,298,181442,2,0,L|25:234,1,50.9999984436036
159,105,181600,1,2,1:0:0:0:
0,45,181757,6,2,B|43:35|87:49|87:49|119:6|119:6|163:26|212:8,1,237.999992736817,2|2,0:1|0:1,0:1:0:0:
248,127,182231,2,0,P|202:109|144:106,1,93.5000028533936,0|0,1:0|0:0,0:0:0:0:
128,213,182468,1,0,0:0:0:0:
128,213,182547,2,0,L|187:203,1,50.9999984436036,2|0,0:1|0:0,0:0:0:0:
308,46,182705,2,0,L|367:56,1,50.9999984436036
425,275,182863,2,0,P|367:226|292:222,1,152.999995330811,2|0,1:0|0:0,0:0:0:0:
449,82,183179,6,0,B|497:45|497:45|468:185,1,204,2|0,0:1|0:0,0:0:0:0:
425,275,183494,2,0,L|363:287,1,50.9999984436036,2|0,1:1|0:0,0:0:0:0:
292,221,183652,1,0,0:0:0:0:
131,380,183810,1,2,0:1:0:0:
131,380,183889,1,0,0:0:0:0:
131,380,183968,2,0,L|119:318,1,50.9999984436036,0|0,0:1|0:0,0:0:0:0:
214,171,184126,1,2,1:0:0:0:
97,238,184284,6,2,B|151:225|194:268|194:268|262:271|292:220,1,220.999989883423,2|2,0:1|0:1,0:1:0:0:
151,0,184757,2,0,P|152:46|143:92,1,93.5000028533936,0|0,1:0|0:0,0:0:0:0:
51,141,184994,1,0,0:0:0:0:
51,141,185073,2,0,L|37:81,1,50.9999984436036,2|0,0:1|0:0,0:0:0:0:
222,191,185231,2,0,L|236:131,1,50.9999984436036
378,0,185389,1,2,1:0:0:0:
199,50,185547,6,2,B|316:22|297:126|425:89,1,237.999992736817,6|2,0:1|0:1,0:1:0:0:
379,292,186021,2,0,B|337:314|337:314|273:248|342:176,1,191.250007295609,0|0,1:0|0:0,0:0:0:0:
467,262,186336,2,0,L|475:325,1,50.9999984436036,2|0,0:1|0:0,0:0:0:0:
222,209,186494,2,0,L|214:272,1,50.9999984436036
0,250,186652,2,0,P|61:218|131:222,1,140.25000428009,2|0,1:0|0:0,0:0:0:0:
160,125,186968,6,0,B|111:83|111:83|131:229,1,204,2|0,0:1|0:0,0:0:0:0:
215,259,187284,2,0,L|222:209,1,50.9999984436036,2|0,1:0|0:0,0:0:0:0:
261,117,187442,1,0,0:0:0:0:
62,90,187600,1,2,0:1:0:0:
62,90,187679,1,0,0:0:0:0:
62,90,187757,2,0,L|112:83,1,50.9999984436036
208,224,187915,1,2,1:0:0:0:
61,349,188073,1,0,3:0:0:0:
61,349,188152,1,0,3:0:0:0:
61,349,188231,6,2,B|97:341|135:354|135:354|164:316|164:316|202:335|245:319,1,204,6|0,1:1|0:0,0:0:0:0:
261,117,188547,2,0,B|227:113|196:93|196:93|225:157|207:223,1,204,2|0,1:0|0:0,0:0:0:0:
91,257,188863,1,2,3:1:0:0:
72,255,188942,1,0,3:0:0:0:
53,253,189021,1,0,3:2:0:0:
304,195,189179,1,2,1:0:0:0:
67,71,189336,6,6,B|119:32|177:66|177:66|205:119|261:116,1,220.999989883423,6|2,0:1|3:1,0:1:0:0:
356,86,189731,1,0,3:0:0:0:
356,86,189810,1,0,1:0:0:0:
312,283,189968,1,0,3:1:0:0:
310,264,190047,1,0,3:0:0:0:
308,245,190126,2,0,L|304:195,1,50.9999984436036,2|0,0:1|0:0,0:0:0:0:
264,23,190284,1,0,0:0:0:0:
125,144,190442,1,2,1:0:0:0:
350,17,190600,6,0,P|408:72|332:97,1,191.249994163513,2|0,0:0|0:0,0:0:0:0:
196,185,191073,6,2,B|295:151|296:228|394:200,1,204,6|0,1:1|0:1,0:1:0:0:
406,99,191389,2,0,L|338:111,1,50.9999984436036,2|0,0:1|0:0,0:0:0:0:
245,274,191547,1,0,0:0:0:0:
224,87,191705,1,2,1:0:0:0:
31,314,191863,6,2,B|79:302|125:317|125:317|156:274|156:274|199:286|244:274,1,237.999992736817,2|2,0:1|0:1,0:1:0:0:
296,379,192336,2,0,P|246:371|195:374,1,93.5000028533936,0|0,1:0|0:0,0:0:0:0:
125,317,192573,1,0,0:0:0:0:
125,317,192652,2,0,L|120:262,1,50.9999984436036,2|0,0:1|0:0,0:0:0:0:
204,94,192810,2,0,L|209:39,1,50.9999984436036,0|0,0:1|0:0,0:0:0:0:
43,203,192968,2,0,B|113:160|113:160|250:209,1,204,2|0,1:0|0:0,0:0:0:0:
388,339,193284,6,0,B|348:356|348:356|270:287|334:217,1,204,2|0,0:1|0:0,0:0:0:0:
327,120,193600,2,0,L|378:127,1,50.9999984436036,2|0,1:0|0:0,0:0:0:0:
457,201,193757,1,0,0:0:0:0:
493,43,193915,1,2,0:1:0:0:
493,43,193994,1,0,0:0:0:0:
493,43,194073,2,0,L|442:49,1,50.9999984436036
334,217,194231,1,2,1:0:0:0:
222,149,194389,6,2,B|298:150|345:98|345:98|370:134|418:152,1,220.999989883423,2|2,0:1|0:1,0:1:0:0:
248,49,194863,1,2,1:2:0:0:
334,217,195021,2,0,L|339:282,1,50.9999984436036,2|0,0:0|0:0,0:0:0:0:
130,120,195179,2,0,L|125:185,1,50.9999984436036,2|0,0:0|0:0,0:0:0:0:
66,347,195336,1,0,0:0:0:0:
245,288,195494,2,0,P|194:270|127:276,1,101.999996887207,2|0,1:0|0:0,0:0:0:0:
14,258,195810,6,0,P|32:207|21:132,1,118.999996368408,2|0,1:0|0:0,0:0:0:0:
250,46,196126,2,0,P|248:96|266:144,1,101.999996887207,0|2,1:0|0:1,0:0:0:0:
0,58,196442,1,2,0:1:0:0:
126,170,196600,1,0,3:1:0:0:
145,168,196679,1,0,3:0:0:0:
164,166,196757,1,0,1:1:0:0:
314,295,196915,1,2,0:1:0:0:
151,261,197073,6,2,B|266:264|230:186|343:201,1,204,6|0,0:1|0:0,0:1:0:0:
434,221,197389,2,0,L|429:168,1,50.9999984436036,2|0,1:0|0:0,0:0:0:0:
253,23,197547,2,0,P|245:64|248:120,1,93.5000028533936,2|0,0:1|1:0,0:0:0:0:
113,0,197863,1,2,3:1:0:0:
132,2,197942,1,0,3:0:0:0:
151,4,198021,1,0,1:1:0:0:
345,74,198179,1,2,3:1:0:0:
364,72,198257,1,0,3:0:0:0:
383,70,198336,5,4,1:1:0:0:
142,136,198494,1,0,3:1:0:0:
140,117,198573,1,0,3:0:0:0:
138,98,198652,1,0,1:1:0:0:
380,165,198810,1,0,3:0:0:0:
380,165,198889,1,0,3:0:0:0:
380,165,198968,2,0,L|375:219,1,46.7500014266968,0|0,1:0|1:0,0:0:0:0:
493,353,199126,2,0,L|488:306,1,46.7500014266968,0|0,3:0|3:0,0:0:0:0:
290,184,199284,1,0,1:0:0:0:
427,249,199442,6,0,B|368:248|368:248|310:273|310:273|242:272,1,178.499994552612,4|0,0:1|0:0,0:0:0:0:
164,246,199757,1,0,3:1:0:0:
162,265,199836,1,0,3:0:0:0:
160,284,199915,1,0,1:1:0:0:
393,381,200073,1,0,3:0:0:0:
393,381,200152,1,0,3:0:0:0:
393,381,200231,2,0,L|388:334,1,46.7500014266968,0|0,1:0|3:0,0:0:0:0:
290,184,200389,1,0,0:0:0:0:
75,262,200547,1,0,1:0:0:0:
284,96,200705,1,0,3:1:0:0:
303,98,200784,1,0,3:0:0:0:
322,100,200863,5,4,1:1:0:0:
431,260,202915,5,0,3:0:0:0:
431,260,202994,1,0,3:0:0:0:
431,260,203073,2,0,P|382:255|349:240,1,76.4999976654053,8|0,1:0|0:0,0:0:0:0:
243,370,203389,6,0,P|288:351|369:353,1,127.5,4|0,0:1|0:0,0:0:0:0:
174,189,203705,2,0,P|127:170|160:242,1,165.749992412568,2|0,1:2|0:0,0:0:0:0:
266,261,204021,2,0,B|157:235|168:324|52:295,1,220.999989883423,2|0,0:0|1:0,0:0:0:0:
189,6,204494,6,0,P|181:47|180:90,1,85,2|0,0:0|0:0,0:0:0:0:
92,203,204810,2,0,P|91:160|83:118,1,85,2|0,0:0|1:0,0:0:0:0:
279,60,205126,2,0,P|321:60|363:68,1,85,2|0,0:0|0:0,0:0:0:0:
189,6,205442,1,2,0:0:0:0:
311,156,205600,1,0,1:0:0:0:
453,24,205757,1,0,0:0:0:0:
462,263,205915,6,0,B|433:190|457:114|457:114|438:150|391:165,1,220.999989883423,2|2,0:0|1:2,0:0:0:0:
278,314,206389,1,0,0:0:0:0:
478,361,206547,2,0,B|419:370|379:318|379:318|324:282|273:318,1,220.999989883423,2|2,0:0|1:2,0:0:0:0:
177,384,207021,6,0,L|185:290,1,85,2|0,0:0|0:0,0:0:0:0:
91,330,207336,1,0,0:0:0:0:
271,229,207494,2,0,L|278:313,1,85,0|0,1:0|0:0,0:0:0:0:
175,198,207810,1,0,0:0:0:0:
409,260,207968,1,0,3:0:0:0:
390,262,208047,1,0,3:0:0:0:
371,264,208126,1,0,1:2:0:0:
247,129,208284,1,0,0:0:0:0:
53,179,208442,6,0,P|112:202|175:197,1,127.5
349,112,208757,2,0,B|291:89|246:129|246:129|224:102|186:100,1,165.749992412568,2|0,1:2|0:0,0:0:0:0:
353,309,209073,2,0,B|297:352|297:352|313:203,1,220.999989883423,2|0,0:0|1:0,0:0:0:0:
205,248,209547,6,0,P|208:290|204:333,1,85,2|0,0:0|0:0,0:0:0:0:
409,154,209863,2,0,P|406:197|409:239,1,85,2|0,0:0|1:0,0:0:0:0:
157,150,210179,2,0,P|240:148|304:202,1,170,2|2,0:0|0:0,0:0:0:0:
184,41,210652,1,0,1:0:0:0:
205,248,210810,1,0,0:0:0:0:
64,117,210968,6,0,L|70:205,1,85,0|2,0:0|0:0,0:0:0:0:
0,39,211284,1,2,1:2:0:0:
157,150,211442,1,2,0:0:0:0:
0,293,211600,2,0,B|109:267|98:356|210:327,1,220.999989883423,2|0,0:0|1:0,0:0:0:0:
37,383,212073,1,0,0:0:0:0:
170,237,212231,5,0,0:0:0:0:
307,343,212389,1,0,3:2:0:0:
305,324,212468,1,0,3:0:0:0:
303,305,212547,1,0,1:2:0:0:
391,126,212705,1,0,3:2:0:0:
393,107,212784,1,0,3:0:0:0:
395,88,212863,1,0,1:2:0:0:
258,171,213021,1,0,1:2:0:0:
277,169,213100,1,0,3:0:0:0:
296,167,213179,1,0,3:2:0:0:
456,249,213336,1,0,1:2:0:0:
437,247,213415,1,0,3:0:0:0:
418,245,213494,6,0,P|355:251|300:286,1,127.5,4|0,0:1|0:0,0:0:0:0:
198,116,213810,2,0,B|170:102|147:76|147:76|173:202,1,191.250007295609,2|0,1:2|0:0,0:0:0:0:
273,252,214126,2,0,B|226:264|176:223|176:223|145:282|89:295,1,220.999989883423,2|0,0:0|1:0,0:0:0:0:
285,358,214600,6,0,P|245:344|200:340,1,85,2|0,0:0|0:0,0:0:0:0:
0,213,214915,2,0,P|42:208|82:194,1,85,2|0,0:0|1:0,0:0:0:0:
116,373,215231,1,2,0:0:0:0:
109,341,215310,1,0,0:0:0:0:
113,310,215389,1,0,0:0:0:0:
128,282,215468,1,0,0:0:0:0:
151,260,215547,2,0,L|203:247,1,42.5,2|0,0:0|0:0,0:0:0:0:
23,317,215705,1,0,1:0:0:0:
202,339,215863,1,0,0:0:0:0:
152,102,216021,6,0,B|129:66|83:64|83:64|35:138|88:201,1,220.999989883423,0|2,0:0|1:2,0:0:0:0:
222,324,216494,1,0,0:0:0:0:
34,274,216652,2,0,B|84:302|136:271|136:271|176:219|235:228,1,220.999989883423,2|2,0:0|1:2,0:0:0:0:
323,291,217126,6,0,L|316:375,1,85,2|0,0:0|0:0,0:0:0:0:
222,324,217442,1,0,0:0:0:0:
421,227,217600,2,0,L|427:311,1,85,0|0,1:0|0:0,0:0:0:0:
322,200,217915,1,0,0:0:0:0:
322,200,217994,1,0,0:0:0:0:
322,200,218073,1,0,0:0:0:0:
469,138,218231,2,0,L|384:131,1,85,0|0,1:0|0:0,0:0:0:0:
228,202,218547,6,0,L|231:155,3,46.7500014266968,4|0|0|0,0:1|0:0|0:0|0:0,0:0:0:0:
59,207,218863,2,0,L|55:160,3,46.7500014266968,2|0|0|0,1:2|0:0|0:0|0:0,0:0:0:0:
212,288,219179,2,0,L|258:284,3,46.7500014266968,2|0|0|0,0:0|0:0|0:0|0:0,0:0:0:0:
77,296,219494,2,0,L|30:292,3,46.7500014266968,2|0|0|0,1:2|0:0|0:0|0:0,0:0:0:0:
199,76,219810,6,0,L|245:72,3,46.7500014266968,6|0|0|0,0:0|0:0|0:0|0:0,0:0:0:0:
55,160,220126,2,0,L|8:156,3,46.7500014266968,2|0|0|0,1:2|0:0|0:0|0:0,0:0:0:0:
228,202,220442,2,0,L|231:155,3,46.7500014266968,2|0|0|0,0:0|0:0|0:0|0:0,0:0:0:0:
30,292,220757,2,0,L|26:245,3,46.7500014266968,2|0|0|0,1:2|0:0|0:0|0:0,0:0:0:0:
245,312,221073,6,0,B|169:288|169:288|104:325,1,136,4|0,0:1|3:0,0:0:0:0:
181,384,221310,1,0,3:0:0:0:
181,384,221389,1,0,1:0:0:0:
317,249,221547,1,0,3:0:0:0:
317,249,221626,1,0,3:0:0:0:
317,249,221705,2,0,L|354:245,2,34,0|0|0,1:0|0:0|0:0,0:0:0:0:
444,292,221863,1,0,3:0:0:0:
313,151,222021,1,0,1:0:0:0:
340,340,222179,1,0,3:0:0:0:
404,103,222336,6,0,P|346:55|277:50,1,136,6|0,0:0|3:0,0:0:0:0:
222,105,222573,2,0,B|168:133|156:81|80:117,1,136,0|0,0:0|3:0,0:0:0:0:
4,97,222810,2,0,L|12:152,1,55.2499974708558,6|0,0:0|0:0,0:0:0:0:
131,195,222968,2,0,L|126:252,1,55.2499974708558,2|0,0:0|0:0,0:0:0:0:
0,362,223126,1,0,3:0:0:0:
0,362,223205,1,0,3:0:0:0:
0,362,223284,6,0,P|45:336|117:344,1,110.499994941712,8|0,1:1|3:0,0:0:0:0:
198,349,223521,1,0,3:0:0:0:
198,349,223600,6,0,B|311:361|273:278|399:284,2,220.999989883423,4|0|0,0:1|1:0|0:0,0:0:0:0:
219,254,224389,1,0,0:0:0:0:
373,383,224547,1,2,1:2:0:0:
275,163,224705,6,0,B|237:104|237:104|218:257,1,220.999989883423,2|0,0:0|0:0,0:0:0:0:
311,256,225179,1,0,1:0:0:0:
152,97,225336,1,0,0:0:0:0:
152,97,225415,1,0,0:0:0:0:
152,97,225494,2,0,L|237:104,1,85
57,203,225810,2,0,L|142:196,1,85,0|2,1:0|0:0,0:0:0:0:
402,225,226126,6,0,B|342:227|315:167|315:167|346:115|321:61,1,220.999989883423,2|2,0:0|1:2,0:0:0:0:
201,28,226600,2,0,P|224:63|236:104,1,85,2|0,0:0|0:0,0:0:0:0:
409,145,226915,1,2,0:0:0:0:
250,235,227073,1,2,1:2:0:0:
370,347,227231,6,0,P|381:306|404:270,1,85
238,241,227547,1,2,0:0:0:0:
468,348,227705,1,2,0:0:0:0:
416,152,227863,1,2,0:0:0:0:
416,152,227942,1,0,0:0:0:0:
416,152,228021,1,2,0:0:0:0:
226,247,228179,1,2,0:0:0:0:
468,348,228336,1,2,1:2:0:0:
374,241,228494,1,2,0:0:0:0:
176,366,228652,6,0,P|230:333|298:332,1,127.5,2|0,0:0|0:0,0:0:0:0:
270,167,228968,2,0,B|236:132|236:132|251:195|226:246,1,165.749992412568,2|0,1:2|0:0,0:0:0:0:
0,213,229284,2,0,P|70:171|151:178,1,165.749992412568,2|0,0:0|0:0,0:0:0:0:
163,195,229600,1,2,1:2:0:0:
301,48,229757,6,0,B|284:7|232:7|232:7|190:71|243:141,1,220.999989883423,2|0,0:0|0:0,0:0:0:0:
322,245,230231,2,0,P|369:243|408:233,1,85,0|0,1:0|0:0,0:0:0:0:
284,333,230547,1,2,0:0:0:0:
346,145,230705,1,0,0:0:0:0:
508,369,230863,2,0,P|451:341|387:335,1,127.5,2|0,1:2|0:0,0:0:0:0:
222,362,231179,6,0,B|301:349|311:274|311:274|299:246,1,165.749992412568,4|0,0:1|0:0,0:0:0:0:
290,223,231494,1,2,1:2:0:0:
31,274,231652,2,0,B|87:265|120:216|120:216|159:262|223:266,1,220.999989883423,4|0,0:1|0:0,0:0:0:0:
122,335,232126,1,2,1:2:0:0:
163,81,232284,6,0,B|197:25|197:25|213:162,1,204,4|0,0:1|0:0,0:0:0:0:
197,199,232600,1,0,3:2:0:0:
216,197,232679,1,0,3:0:0:0:
235,195,232757,1,0,1:2:0:0:
439,117,232915,1,0,3:0:0:0:
439,117,232994,1,0,3:0:0:0:
439,117,233073,2,0,L|388:125,1,50.9999984436036,0|0,1:0|3:0,0:0:0:0:
240,251,233231,1,0,3:0:0:0:
272,61,233389,1,2,1:2:0:0:
408,217,233547,1,0,3:0:0:0:
408,217,233626,1,0,3:0:0:0:
408,217,233705,6,0,B|340:215|340:215|286:161|286:161|210:157,2,220.999989883423,4|0|0,0:1|1:0|0:0,0:0:0:0:
388,124,234494,1,2,0:0:0:0:
120,127,234652,1,2,1:2:0:0:
239,250,234810,6,0,B|274:324|204:376|204:376|160:359|159:320,1,220.999989883423,2|0,0:0|0:0,0:0:0:0:
332,238,235284,2,0,P|342:279|341:321,1,85,0|0,1:0|0:0,0:0:0:0:
110,210,235600,2,0,P|109:167|119:126,1,85,2|0,0:2|0:0,0:0:0:0:
245,294,235915,2,0,P|175:291|113:321,1,140.25000428009,2|0,1:2|0:0,0:0:0:0:
7,337,236231,6,0,B|113:317|95:408|222:376,1,220.999989883423,2|0,0:0|1:0,0:0:0:0:
43,145,236705,2,0,B|98:97|98:97|80:243,1,220.999989883423,2|2,0:0|0:0,0:0:0:0:
58,384,237179,1,2,1:2:0:0:
43,145,237336,6,0,P|126:168|211:122,1,187.000005706787,2|0,0:0|0:0,0:0:0:0:
295,59,237810,2,0,P|344:67|390:65,1,85,0|0,1:0|0:0,0:0:0:0:
511,154,238126,2,0,P|468:153|426:161,1,85,2|0,0:0|0:0,0:0:0:0:
457,291,238442,2,0,P|405:255|342:250,1,127.5,2|0,1:2|0:0,0:0:0:0:
314,267,238757,6,0,L|320:317,3,46.7500014266968,4|0|0|0,0:1|0:0|0:0|0:0,0:0:0:0:
146,182,239073,2,0,L|140:232,3,46.7500014266968,2|0|0|0,0:0|0:0|0:0|0:0,0:0:0:0:
343,183,239389,2,0,L|297:178,3,46.7500014266968,2|0|0|0,0:0|0:0|0:0|0:0,0:0:0:0:
123,314,239705,2,0,L|170:309,3,46.7500014266968,2|0|0|0,0:0|0:0|0:0|0:0,0:0:0:0:
331,92,240021,5,0,0:0:0:0:
228,240,240179,1,0,0:0:0:0:
64,196,240336,1,0,0:0:0:0:
343,114,240494,5,0,0:0:0:0:
216,242,240652,1,0,0:0:0:0:
224,220,240731,1,0,0:0:0:0:
229,197,240810,1,0,0:0:0:0:
229,174,240889,1,0,0:0:0:0:
224,151,240968,1,0,0:0:0:0:
219,128,241047,1,0,0:0:0:0:
217,105,241126,1,0,0:0:0:0:
221,82,241205,1,0,0:0:0:0:
227,60,241284,6,0,B|335:101|416:30|416:30|408:81|447:128,1,305.999990661621
347,271,242389,2,0,B|336:336|253:340|253:340|201:250|284:135|377:157,1,382.499988327027
377,156,243652,1,0,0:0:0:0:
456,265,243810,5,0,0:0:0:0:
456,265,244915,1,0,0:0:0:0:
131,236,245547,5,0,3:1:0:0:
150,238,245626,1,0,3:0:0:0:
169,240,245705,1,2,1:2:0:0:
209,333,245863,1,0,3:1:0:0:
190,335,245942,1,0,3:0:0:0:
171,337,246021,1,2,3:2:0:0:
40,310,246179,5,4,0:1:0:0:
169,240,247442,5,2,0:0:0:0:
298,170,248863,5,2,0:0:0:0:
427,100,249968,5,2,0:0:0:0:
256,192,251231,12,2,255021,0:0:0:0:
138,384,255810,6,0,P|111:328|130:239,1,140.25000428009,2|0,0:0|0:0,0:0:0:0:
153,217,256126,1,2,0:0:0:0:
36,39,256284,2,0,P|91:97|116:21,1,191.249994163513,2|0,0:0|0:0,0:0:0:0:
44,183,256757,6,2,B|86:193|126:180|126:180|153:217|153:217|190:207|229:213,1,204,12|0,0:1|0:0,0:0:0:0:
250,112,257073,2,0,L|189:124,1,50.9999984436036,2|0,0:1|0:0,0:0:0:0:
79,279,257231,1,0,0:0:0:0:
333,262,257389,1,10,0:1:0:0:
159,311,257547,6,2,B|278:276|247:384|366:355,1,220.999989883423,2|2,0:1|0:1,0:1:0:0:
346,170,258021,2,0,P|333:214|332:261,1,93.5000028533936,8|0,0:1|0:0,0:0:0:0:
241,211,258257,1,0,0:0:0:0:
241,211,258336,2,0,L|173:203,1,46.7500014266968,2|0,0:1|0:0,0:0:0:0:
425,284,258494,2,0,L|493:276,1,46.7500014266968
276,106,258652,2,0,B|233:66|233:66|240:210,1,204,10|0,0:1|0:0,0:0:0:0:
0,182,258968,6,0,P|45:139|160:139,1,165.749992412568,2|0,0:1|0:0,0:0:0:0:
194,205,259284,2,0,L|186:273,1,46.7500014266968,10|0,0:1|0:0,0:0:0:0:
225,344,259442,1,0,0:0:0:0:
49,227,259600,1,2,0:1:0:0:
49,227,259679,1,0,0:0:0:0:
49,227,259757,2,0,L|117:219,1,46.7500014266968,0|0,0:1|0:0,0:0:0:0:
233,66,259915,1,10,0:1:0:0:
61,121,260073,6,2,B|139:122|139:122|193:169|193:169|275:169,1,220.999989883423,2|2,0:1|0:1,0:1:0:0:
110,21,260547,1,8,0:1:0:0:
49,227,260705,2,0,L|117:219,1,46.7500014266968,2|0,0:0|0:0,0:0:0:0:
233,66,260863,2,0,L|301:74,1,46.7500014266968,2|0,0:0|0:0,0:0:0:0:
431,238,261021,1,2,0:0:0:0:
206,261,261179,2,0,P|251:269|298:271,1,93.5000028533936,10|0,0:1|0:0,0:0:0:0:
403,384,261494,6,0,P|402:328|414:275,1,110.499994941712,14|0,0:1|0:0,0:0:0:0:
308,384,261810,1,8,0:1:0:0:
497,305,261968,1,2,0:1:0:0:
261,188,262126,1,10,0:1:0:0:
305,363,262284,1,0,3:1:0:0:
303,344,262363,1,0,3:0:0:0:
301,325,262442,1,8,0:1:0:0:
155,193,262600,1,2,0:1:0:0:
316,229,262757,6,2,B|258:222|220:269|220:269|168:308|104:276,1,220.999989883423,6|10,0:1|0:1,0:1:0:0:
48,211,263231,2,0,L|54:113,1,93.5000028533936,2|8,0:1|0:1,0:0:0:0:
155,193,263547,1,2,3:1:0:0:
153,174,263626,1,0,3:0:0:0:
151,155,263705,1,8,0:1:0:0:
16,6,263863,1,0,3:0:0:0:
16,6,263942,1,0,3:0:0:0:
16,6,264021,6,0,P|69:19|134:19,1,110.499994941712,12|0,0:1|3:0,0:0:0:0:
220,12,264257,1,0,3:0:0:0:
220,12,264336,1,10,0:1:0:0:
155,193,264494,1,2,3:1:0:0:
155,193,264573,1,0,3:0:0:0:
155,193,264652,2,0,L|201:185,1,46.7500014266968,10|0,0:1|3:0,0:0:0:0:
263,109,264810,1,2,0:2:0:0:
194,281,264968,1,10,0:1:0:0:
511,236,265126,6,0,B|435:214|443:275|367:255,1,140.25000428009,6|0,0:1|0:0,0:0:0:0:
283,232,265442,2,0,L|287:303,1,46.7500014266968,0|0,3:0|3:0,0:0:0:0:
239,363,265600,1,10,0:1:0:0:
491,333,265757,1,0,3:0:0:0:
491,333,265836,1,0,3:0:0:0:
491,333,265915,2,0,L|487:404,1,46.7500014266968,10|0,0:1|0:0,0:0:0:0:
373,158,266073,1,0,0:0:0:0:
194,281,266231,1,8,0:1:0:0:
399,307,266389,6,0,P|344:249|319:325,1,191.249994163513,2|0,0:0|0:0,0:0:0:0:
177,192,266863,6,2,B|290:213|260:144|376:158,1,204,14|0,0:1|0:0,0:1:0:0:
468,171,267179,2,0,L|454:98,1,50.9999984436036,2|0,0:1|0:0,0:0:0:0:
360,54,267336,1,0,0:0:0:0:
346,253,267494,1,10,0:1:0:0:
5,150,267652,6,2,B|86:146|86:146|136:95|136:95|240:101,1,237.999992736817,6|2,0:1|0:1,0:1:0:0:
42,59,268126,1,8,0:1:0:0:
177,192,268284,1,0,0:0:0:0:
177,192,268363,1,0,0:0:0:0:
177,192,268442,2,0,L|175:242,1,50.9999984436036,2|0,0:1|0:0,0:0:0:0:
5,150,268600,2,0,L|7:200,1,50.9999984436036,0|0,0:1|0:0,0:0:0:0:
227,345,268757,2,0,B|274:359|274:359|334:278|270:222,1,204,10|0,0:1|0:0,0:0:0:0:
105,116,269073,6,0,B|59:77|59:77|207:86,1,204,2|0,0:1|0:0,0:0:0:0:
319,122,269389,2,0,L|370:119,1,50.9999984436036,10|0,0:1|0:0,0:0:0:0:
453,60,269547,1,0,0:0:0:0:
494,265,269705,1,2,0:1:0:0:
494,265,269784,1,0,0:0:0:0:
494,265,269863,2,0,L|443:262,1,50.9999984436036,0|0,0:1|0:0,0:0:0:0:
266,190,270021,1,10,0:1:0:0:
340,382,270179,6,2,B|308:316|349:246|349:246|320:289|255:289,1,237.999992736817,2|2,0:1|0:1,0:1:0:0:
174,175,270652,2,0,P|218:187|265:189,1,93.5000028533936,8|0,0:1|0:0,0:0:0:0:
332,118,270889,1,0,0:0:0:0:
332,118,270968,2,0,L|269:91,1,50.9999984436036,2|0,0:1|0:0,0:0:0:0:
148,267,271126,2,0,L|94:271,1,50.9999984436036
197,83,271284,1,8,0:1:0:0:
20,132,271442,6,2,B|137:104|118:208|246:171,1,237.999992736817,6|2,0:1|0:1,0:1:0:0:
286,58,271915,2,0,P|242:75|196:82,1,93.5000028533936,8|0,0:1|0:0,0:0:0:0:
104,75,272152,1,0,0:0:0:0:
104,75,272231,2,0,L|110:129,1,50.9999984436036,2|0,0:1|0:0,0:0:0:0:
15,239,272389,2,0,L|9:293,1,50.9999984436036,0|0,0:1|0:0,0:0:0:0:
240,326,272547,2,0,P|186:284|98:273,1,152.999995330811,10|0,0:1|0:0,0:0:0:0:
196,81,272863,6,0,B|247:40|247:40|239:178,1,204,2|0,0:1|0:0,0:0:0:0:
304,247,273179,2,0,L|361:238,1,50.9999984436036,10|0,0:1|0:0,0:0:0:0:
422,164,273336,1,0,0:0:0:0:
403,343,273494,1,2,0:1:0:0:
403,343,273573,1,0,0:0:0:0:
403,343,273652,2,0,L|352:335,1,50.9999984436036
239,178,273810,1,10,0:1:0:0:
77,234,273968,1,0,3:0:0:0:
77,234,274047,1,0,3:0:0:0:
77,234,274126,6,0,B|193:214|160:297|272:275,1,204,6|0,0:1|0:0,0:0:0:0:
273,77,274442,2,0,B|218:40|218:40|238:177,1,204,14|0,0:1|0:0,0:0:0:0:
268,275,274757,2,0,L|204:272,1,50.9999984436036,6|0,0:1|3:0,0:0:0:0:
111,326,274915,1,0,3:0:0:0:
238,177,275073,1,10,0:1:0:0:
60,47,275231,6,2,B|106:68|158:48|158:48|189:90|189:90|237:65|290:95,1,255.000009727478,6|2,0:1|3:1,0:1:0:0:
361,154,275626,1,0,3:0:0:0:
361,154,275705,1,8,0:1:0:0:
512,0,275863,1,0,3:0:0:0:
512,0,275942,1,0,3:0:0:0:
512,0,276021,2,0,L|453:8,1,50.9999984436036,10|0,0:1|0:0,0:0:0:0:
286,93,276179,1,0,0:0:0:0:
453,205,276336,1,10,0:1:0:0:
413,78,276494,6,0,P|397:156|474:133,1,191.249994163513,2|0,0:0|0:0,0:0:0:0:
457,261,276968,6,2,B|348:280|365:207|258:227,1,204,14|0,0:1|0:0,0:1:0:0:
164,215,277284,2,0,L|171:274,1,50.9999984436036,2|0,0:1|0:0,0:0:0:0:
296,317,277442,1,0,0:0:0:0:
228,133,277600,1,10,0:1:0:0:
110,336,277757,6,2,B|53:385|53:385|66:223,1,237.999992736817,2|2,0:1|0:1,0:1:0:0:
228,133,278231,2,0,P|182:134|132:118,1,93.5000028533936,8|0,0:1|0:0,0:0:0:0:
44,84,278468,1,0,0:0:0:0:
44,84,278547,2,0,L|50:134,1,50.9999984436036,2|0,0:1|0:0,0:0:0:0:
200,0,278705,2,0,L|194:50,1,50.9999984436036,0|0,0:1|0:0,0:0:0:0:
381,147,278863,2,0,B|316:149|282:81|282:81|261:126|228:133,1,204,10|0,0:1|0:0,0:0:0:0:
87,270,279179,6,0,B|144:267|165:208|165:208|127:172|136:120,1,204,6|0,0:1|0:0,0:0:0:0:
193,50,279494,2,0,L|243:44,1,50.9999984436036,8|0,0:1|0:0,0:0:0:0:
381,147,279652,1,0,0:0:0:0:
269,257,279810,1,2,0:1:0:0:
269,257,279889,1,0,0:0:0:0:
269,257,279968,2,0,L|275:207,1,50.9999984436036,0|0,0:1|0:0,0:0:0:0:
378,58,280126,1,8,0:1:0:0:
455,314,280284,6,2,B|328:277|347:381|230:353,1,237.999992736817,2|2,0:1|0:1,0:1:0:0:
426,217,280757,1,8,0:1:0:0:
269,257,280915,2,0,L|219:251,1,50.9999984436036,2|0,0:0|0:0,0:0:0:0:
111,147,281073,2,0,L|62:161,1,50.9999984436036,2|0,0:0|0:0,0:0:0:0:
142,334,281231,2,0,L|148:384,1,50.9999984436036,2|0,0:0|0:0,0:0:0:0:
21,266,281389,2,0,P|31:212|32:157,1,101.999996887207,10|0,0:1|0:0,0:0:0:0:
200,57,281705,6,0,P|201:107|211:157,1,101.999996887207,14|0,0:1|0:0,0:0:0:0:
100,54,282021,1,8,0:1:0:0:
305,96,282179,1,2,0:1:0:0:
218,250,282336,1,10,0:1:0:0:
403,105,282494,1,0,3:1:0:0:
401,86,282573,1,0,3:0:0:0:
399,67,282652,1,8,0:1:0:0:
342,199,282810,1,2,0:1:0:0:
485,322,282968,6,0,B|450:303|409:321|409:321|383:286|383:286|341:303|303:286,1,204,14|0,0:1|0:0,0:0:0:0:
218,250,283284,2,0,L|214:307,1,50.9999984436036,10|0,0:1|0:0,0:0:0:0:
39,384,283442,2,0,L|31:282,1,101.999996887207,2|8,0:1|0:1,0:0:0:0:
128,332,283757,1,2,3:1:0:0:
126,313,283836,1,0,3:0:0:0:
124,294,283915,1,8,0:1:0:0:
74,103,284073,1,2,3:1:0:0:
72,122,284152,1,0,3:0:0:0:
70,141,284231,5,12,0:1:0:0:
262,297,284389,1,0,3:1:0:0:
243,299,284468,1,0,3:0:0:0:
224,301,284547,1,8,0:1:0:0:
167,133,284705,1,0,3:0:0:0:
167,133,284784,1,0,3:0:0:0:
167,133,284863,2,0,L|224:137,1,50.9999984436036,8|0,0:1|0:0,0:0:0:0:
388,269,285021,2,0,L|337:271,1,50.9999984436036,0|0,3:1|3:0,0:0:0:0:
251,119,285179,1,8,0:1:0:0:
262,297,285336,6,0,B|313:339|313:339|299:201,1,204,4|0,0:1|0:0,0:0:0:0:
251,119,285652,1,0,3:1:0:0:
253,100,285731,1,0,3:0:0:0:
255,81,285810,1,8,0:1:0:0:
404,211,285968,1,0,3:0:0:0:
404,211,286047,1,0,3:0:0:0:
404,211,286126,2,0,L|400:268,1,50.9999984436036,8|0,0:1|0:0,0:0:0:0:
313,338,286284,1,0,0:0:0:0:
512,238,286442,1,8,0:1:0:0:
295,163,286600,1,0,3:1:0:0:
297,182,286679,1,0,3:0:0:0:
299,201,286757,5,12,0:1:0:0:
256,192,289284,12,8,290231,0:1:0:0:
52,120,290547,6,0,P|100:94|155:92,1,110.499994941712,6|0,0:1|0:0,0:0:0:0:
250,139,290784,1,0,0:0:0:0:
250,139,290863,2,0,L|247:193,1,42.5,2|0,1:0|0:0,0:0:0:0:
167,342,291021,2,0,L|170:396,1,42.5
268,283,291179,2,0,B|165:246|165:246|98:280,1,178.499994552612,2|0,0:1|0:0,0:0:0:0:
32,322,291494,1,2,1:0:0:0:
0,179,291652,6,0,P|47:186|90:183,1,85,2|0,0:1|0:0,0:0:0:0:
251,337,291968,2,0,P|208:335|166:341,1,85,2|0,0:1|1:0,0:0:0:0:
163,125,292284,1,2,0:1:0:0:
176,154,292363,1,0,0:0:0:0:
180,185,292442,1,0,0:0:0:0:
176,217,292521,1,0,0:0:0:0:
163,246,292600,2,0,L|116:268,1,42.5,2|0,0:1|0:0,0:0:0:0:
267,165,292757,2,0,L|314:187,1,42.5,2|0,1:1|0:0,0:0:0:0:
84,183,292915,2,0,L|37:205,1,42.5,2|0,0:1|0:0,0:0:0:0:
94,374,293073,6,0,P|149:352|205:353,1,110.499994941712,2|0,0:1|0:0,0:0:0:0:
299,363,293310,1,0,0:0:0:0:
299,363,293389,2,0,L|289:315,1,42.5,2|0,1:0|0:0,0:0:0:0:
470,377,293547,2,0,L|480:329,1,42.5
343,239,293705,2,0,B|379:192|379:192|386:324,1,191.250007295609,2|0,0:1|0:0,0:0:0:0:
386,354,294021,1,2,1:0:0:0:
463,197,294179,6,0,P|416:190|373:193,1,85,2|0,0:1|0:0,0:0:0:0:
195,20,294494,2,0,P|236:26|279:24,1,85,2|0,0:1|0:0,0:0:0:0:
392,97,294810,1,2,0:1:0:0:
360,97,294889,1,0,0:0:0:0:
330,108,294968,1,0,0:0:0:0:
305,127,295047,1,0,0:0:0:0:
288,154,295126,2,0,L|292:206,1,42.5,2|0,0:1|0:0,0:0:0:0:
151,253,295284,2,0,B|248:237|223:307|319:289,1,178.499994552612,2|0,1:0|0:0,0:0:0:0:
342,102,295600,6,0,P|304:146|291:204,1,110.499994941712,2|0,0:1|0:0,0:0:0:0:
147,137,295836,1,0,0:0:0:0:
147,137,295915,2,0,L|189:131,1,42.5,2|0,1:1|0:0,0:0:0:0:
321,15,296073,2,0,L|367:9,1,42.5
170,43,296231,2,0,B|239:55|239:55|271:92|271:92|344:103,1,191.250007295609,2|0,0:1|0:0,0:0:0:0:
427,120,296547,1,2,1:0:0:0:
281,279,296705,6,0,P|282:226|294:188,1,85,2|0,0:1|0:0,0:0:0:0:
116,27,297021,2,0,P|126:68|125:110,1,85,2|0,0:1|1:0,0:0:0:0:
299,103,297336,1,2,0:1:0:0:
267,104,297415,1,0,0:0:0:0:
238,117,297494,1,0,0:0:0:0:
215,139,297573,1,0,0:0:0:0:
201,167,297652,2,0,L|199:223,1,42.5,2|0,0:1|0:0,0:0:0:0:
169,64,297810,2,0,L|126:62,1,42.5,2|0,0:1|0:0,0:0:0:0:
290,195,297968,2,0,L|332:193,1,42.5,2|0,0:1|0:0,0:0:0:0:
433,384,298126,6,0,P|377:365|320:370,1,110.499994941712,2|0,0:1|0:0,0:0:0:0:
239,378,298363,1,0,0:0:0:0:
239,378,298442,2,0,L|245:335,1,42.5,2|0,1:1|0:0,0:0:0:0:
332,185,298600,2,0,L|322:141,1,42.5,0|0,0:1|0:0,0:0:0:0:
150,282,298757,2,0,B|253:245|253:245|320:279,1,178.499994552612,2|0,0:1|0:0,0:0:0:0:
390,318,299073,1,2,1:0:0:0:
339,101,299231,6,0,P|329:142|331:184,1,85,2|0,0:1|0:0,0:0:0:0:
488,83,299547,2,0,P|489:40|480:0,1,85,2|0,0:1|1:0,0:0:0:0:
254,44,299863,1,2,0:1:0:0:
276,21,299942,1,0,0:0:0:0:
304,7,300021,1,0,0:0:0:0:
336,2,300100,1,0,0:0:0:0:
367,7,300179,2,0,P|384:17|401:34,1,42.5,2|0,0:1|0:0,0:0:0:0:
292,160,300336,2,0,B|257:170|257:170|220:125|239:73,1,140.25000428009,2|0,1:0|0:0,0:0:0:0:
153,134,300652,6,0,P|99:148|42:135,1,110.499994941712,6|0,0:1|0:0,0:0:0:0:
5,61,300889,1,0,0:0:0:0:
5,61,300968,2,0,L|0:18,1,42.5,2|0,1:1|0:0,0:0:0:0:
36,230,301126,2,0,L|30:272,1,42.5
168,333,301284,2,0,B|71:349|96:279|0:297,1,178.499994552612,2|0,0:1|0:0,0:0:0:0:
29,384,301600,1,2,1:0:0:0:
195,354,301757,6,0,P|195:312|204:270,1,85,2|0,0:1|0:0,0:0:0:0:
49,84,302073,2,0,P|56:126|55:168,1,85,2|0,0:1|1:0,0:0:0:0:
111,276,302389,1,2,0:1:0:0:
119,242,302468,1,0,0:0:0:0:
138,212,302547,1,0,0:0:0:0:
165,190,302626,1,0,0:0:0:0:
197,177,302705,2,0,L|252:184,1,42.5,2|0,0:1|0:0,0:0:0:0:
54,141,302863,2,0,L|124:134,1,42.5,2|0,1:0|0:0,0:0:0:0:
204,271,303021,2,0,L|274:278,1,42.5,2|0,0:1|0:0,0:0:0:0:
441,140,303179,6,0,P|386:137|334:120,1,110.499994941712,2|0,0:1|0:0,0:0:0:0:
246,140,303415,1,0,0:0:0:0:
246,140,303494,2,0,L|238:187,1,42.5,2|0,1:0|0:0,0:0:0:0:
395,230,303652,2,0,L|399:272,1,42.5,0|0,0:1|0:0,0:0:0:0:
254,367,303810,2,0,B|295:362|327:329|327:329|357:359|400:362,1,165.749992412568,2|0,0:1|0:0,0:0:0:0:
483,345,304126,1,2,1:0:0:0:
246,275,304284,6,0,P|252:233|251:191,1,85,2|0,0:1|0:0,0:0:0:0:
105,72,304600,2,0,P|151:72|197:65,1,85,2|0,0:1|1:0,0:0:0:0:
74,170,304915,1,2,0:1:0:0:
42,154,304994,1,0,0:0:0:0:
19,128,305073,1,0,0:0:0:0:
6,96,305152,1,0,0:0:0:0:
6,61,305231,2,0,L|13:3,1,42.5,2|0,0:1|0:0,0:0:0:0:
189,66,305389,2,0,L|178:150,1,85,2|0,1:1|3:0,0:0:0:0:
138,241,305626,1,0,3:0:0:0:
138,241,305705,6,0,L|84:252,3,46.7500014266968,4|0|0|0,0:1|0:0|0:0|0:0,0:0:0:0:
261,198,306021,2,0,L|315:209,3,46.7500014266968,2|0|0|0,1:2|0:0|0:0|0:0,0:0:0:0:
132,332,306336,2,0,L|123:377,3,46.7500014266968
313,297,306652,2,0,L|358:287,3,46.7500014266968,2|0|0|0,1:2|0:0|0:0|0:0,0:0:0:0:
138,241,306968,6,0,L|92:231,3,46.7500014266968,4|0|0|0,0:1|0:0|0:0|0:0,0:0:0:0:
307,123,307284,2,0,L|352:113,3,46.7500014266968,2|0|0|0,1:2|0:0|0:0|0:0,0:0:0:0:
202,166,307600,1,2,0:0:0:0:
313,297,307757,6,0,L|303:251,1,46.7500014266968,2|0,0:0|0:0,0:0:0:0:
202,119,307915,2,0,L|202:165,1,46.7500014266968,2|0,1:2|0:0,0:0:0:0:
83,276,308073,2,0,L|92:230,1,46.7500014266968,2|0,0:0|0:0,0:0:0:0:
89,41,308231,5,4,0:1:0:0:
256,192,308310,12,8,310442,0:1:0:0:
396,60,310600,5,0,3:1:0:0:
398,79,310679,1,0,3:0:0:0:
400,98,310757,1,4,0:1:0:0:
