osu file format v14

[General]
AudioFilename: audio.mp3
AudioLeadIn: 0
PreviewTime: 55415
Countdown: 0
SampleSet: Soft
StackLeniency: 0.3
Mode: 0
LetterboxInBreaks: 0
WidescreenStoryboard: 1

[Editor]
Bookmarks: 79742
DistanceSpacing: 0.6
BeatDivisor: 4
GridSize: 32
TimelineZoom: 2.4

[Metadata]
Title:Choumusubi Amulet (TV Size)
TitleUnicode:蝶結びアミュレット(TV Size)
Artist:Mia REGINA
ArtistUnicode:Mia REGINA
Creator:DreaM117er
Version:Moecho's Negai
Source:装神少女まとい
Tags:Soushin Shoujo Matoi the Sacred Slayer OP tv size Moecho Moeri m1223961117
BeatmapID:1451053
BeatmapSetID:576534

[Difficulty]
HPDrainRate:5.9
CircleSize:4
OverallDifficulty:8.5
ApproachRate:9.2
SliderMultiplier:1.8
SliderTickRate:1

[Events]
//Background and Video events
0,0,"BG.jpg",0,0
//Break Periods
//Storyboard Layer 0 (Background)
//Storyboard Layer 1 (Fail)
//Storyboard Layer 2 (Pass)
//Storyboard Layer 3 (Foreground)
//Storyboard Sound Samples

[TimingPoints]
79,310.880829015544,4,2,1,40,1,0
700,-133.333333333333,4,2,1,40,0,0
1167,-200,4,2,1,40,0,0
1944,-133.333333333333,4,2,1,40,0,0
2410,-200,4,2,1,40,0,0
3187,-133.333333333333,4,2,1,40,0,0
3654,-200,4,2,1,40,0,0
4897,-133.333333333333,4,2,1,40,0,0
6141,-133.333333333333,4,2,1,20,0,0
6296,-200,4,2,1,10,0,0
6762,-200,4,2,1,20,0,0
9405,-200,4,2,1,5,0,0
9560,-133.333333333333,4,2,1,60,0,0
9871,-133.333333333333,4,2,1,10,0,0
10027,-100,4,2,1,60,0,1
14457,-100,4,2,1,10,0,1
14534,-100,4,2,1,60,0,1
15001,-133.333333333333,4,2,1,50,0,0
17721,-133.333333333333,4,2,1,10,0,0
17799,-133.333333333333,4,2,1,50,0,0
22695,-133.333333333333,4,2,1,10,0,0
22773,-133.333333333333,4,2,1,50,0,0
24949,-100,4,2,1,60,0,0
29612,-80,4,2,1,60,0,0
29923,-100,4,2,1,60,0,0
32566,-100,4,2,1,40,0,0
33654,-100,4,2,1,60,0,0
33887,-100,4,2,1,10,0,0
33965,-100,4,2,1,60,0,0
34198,-100,4,2,1,10,0,0
34275,-100,4,2,1,60,0,0
34742,-100,4,2,1,30,0,0
34897,-133.333333333333,4,2,1,45,0,0
37073,-100,4,2,1,45,0,0
37306,-100,4,2,1,10,0,0
37384,-133.333333333333,4,2,1,45,0,0
39249,-100,4,2,1,45,0,0
39560,-100,4,2,1,45,0,0
39871,-100,4,2,1,55,0,0
40882,-100,4,2,1,10,0,0
40959,-100,4,2,1,55,0,0
44379,-133.333333333333,4,2,1,55,0,0
44534,-133.333333333333,4,2,1,45,0,0
44612,-133.333333333333,4,2,1,35,0,0
44690,-133.333333333333,4,2,1,55,0,0
44845,-200,4,2,1,40,0,0
46089,-200,4,2,1,10,0,0
46244,-200,4,2,1,40,0,0
48420,-133.333333333333,4,2,1,40,0,0
49353,-133.333333333333,4,2,1,60,0,0
49819,-100,4,2,1,60,0,0
52617,-100,4,2,1,50,0,0
52695,-100,4,2,1,40,0,0
52773,-100,4,2,1,30,0,0
52928,-100,4,2,1,60,0,0
53084,-100,4,2,1,50,0,0
53239,-100,4,2,1,30,0,0
53550,-100,4,2,1,60,0,0
53783,-100,4,2,1,10,0,0
53861,-100,4,2,1,60,0,0
53939,-100,4,2,1,10,0,0
54016,-100,4,2,1,60,0,0
54094,-100,4,2,1,10,0,0
54172,-100,4,2,1,60,0,0
54483,-100,4,2,1,70,0,0
54794,-200,4,2,1,30,0,0
55415,-200,4,2,1,60,0,0
55882,-100,4,2,1,80,0,1
56115,-100,4,2,1,20,0,1
56192,-100,4,2,1,80,0,1
57358,-100,4,2,1,20,0,1
57436,-100,4,2,1,80,0,1
58757,-100,4,2,1,20,0,1
58835,-100,4,2,1,80,0,1
59845,-100,4,2,1,20,0,1
59923,-100,4,2,1,80,0,1
61089,-100,4,2,1,20,0,1
61167,-100,4,2,1,80,0,1
62255,-100,4,2,1,80,0,1
62488,-100,4,2,1,20,0,1
62566,-100,4,2,1,80,0,1
63731,-100,4,2,1,20,0,1
63809,-100,4,2,1,80,0,1
64819,-100,4,2,1,10,0,1
64897,-100,4,2,1,80,0,1
65363,-100,4,2,1,70,0,1
65830,-200,4,2,1,80,0,0
66296,-100,4,2,1,80,0,1
66452,-100,4,2,1,30,0,1
66607,-100,4,2,1,80,0,1
66996,-100,4,2,1,20,0,1
67073,-100,4,2,1,80,0,1
67306,-100,4,2,1,20,0,1
67384,-100,4,2,1,80,0,1
68395,-100,4,2,1,10,0,1
68472,-100,4,2,1,80,0,1
68705,-100,4,2,1,20,0,1
68783,-100,4,2,1,80,0,1
70104,-100,4,2,1,10,0,1
70182,-100,4,2,1,80,0,1
70260,-100,4,2,1,10,0,1
70338,-100,4,2,1,80,0,1
70415,-100,4,2,1,10,0,1
70493,-100,4,2,1,80,0,1
70804,-100,4,2,1,80,0,0
70959,-100,4,2,1,80,0,1
71115,-100,4,2,1,30,0,1
71270,-100,4,2,1,80,0,1
75467,-100,4,2,1,60,0,1
75545,-100,4,2,1,40,0,1
75933,-400,4,2,1,80,0,0
76244,-400,4,2,1,20,0,0
77954,-133.333333333333,4,2,1,80,0,0
78265,-133.333333333333,4,2,1,10,0,0
78420,-100,4,2,1,60,0,1
82851,-100,4,2,1,10,0,1
82928,-100,4,2,1,60,0,0
83084,-100,4,2,1,50,0,0
83161,-100,4,2,1,40,0,0
83239,-100,4,2,1,30,0,0
83395,-100,4,2,1,60,0,1
88213,-133.333333333333,4,2,1,60,0,0
88524,-200,4,2,1,5,0,0

[Colours]
Combo1 : 241,109,202
Combo2 : 251,28,95
Combo3 : 206,55,238

[HitObjects]
89,65,700,6,0,P|138:21|204:17,1,135.000005149842,2|2,0:0|0:0,0:0:0:0:
395,84,1167,6,0,L|389:128,1,45,4|0,0:0|0:0,0:0:0:0:
271,219,1477,1,0,0:0:0:0:
427,199,1633,1,0,0:0:0:0:
395,84,1788,1,0,0:0:0:0:
427,199,1944,6,0,P|378:155|312:151,1,135.000005149842,2|2,0:0|0:0,0:0:0:0:
177,218,2410,6,0,L|183:262,1,45,0|0,0:0|0:0,0:0:0:0:
301,353,2720,1,0,0:0:0:0:
145,333,2876,1,0,0:0:0:0:
177,218,3031,1,0,0:0:0:0:
145,333,3187,6,0,P|194:289|260:285,1,135.000005149842,2|2,0:0|0:0,0:0:0:0:
427,199,3654,1,0,0:0:0:0:
364,276,3809,6,0,L|358:232,1,45,0|0,0:0|0:0,0:0:0:0:
463,293,4120,1,0,0:0:0:0:
301,353,4275,1,0,0:0:0:0:
463,293,4431,2,0,L|457:337,1,45,2|0,0:0|0:0,0:0:0:0:
427,199,4742,1,2,0:0:0:0:
301,353,4897,5,0,0:0:0:0:
301,353,5208,5,0,0:0:0:0:
364,276,5363,1,2,0:0:0:0:
463,293,5519,1,2,0:0:0:0:
425,74,5674,5,0,0:0:0:0:
330,189,5829,1,2,0:0:0:0:
181,164,5985,2,0,L|189:91,1,67.5000025749208,2|0,0:0|0:0,0:0:0:0:
346,52,6296,6,0,L|343:74,2,22.5,0|0|0,0:0|0:0|0:0,0:0:0:0:
256,192,6762,12,0,9405,0:0:0:0:
405,173,9560,5,0,0:0:0:0:
414,155,9638,1,0,0:0:0:0:
423,138,9716,2,0,L|355:140,1,67.5000025749208,8|0,0:0|0:0,0:0:0:0:
140,95,10027,5,4,0:0:0:0:
278,140,10182,1,0,0:0:0:0:
140,185,10338,1,8,0:0:0:0:
226,67,10493,1,0,0:0:0:0:
237,49,10571,1,0,0:0:0:0:
247,30,10648,5,0,0:0:0:0:
247,249,10804,1,0,0:0:0:0:
56,140,10959,1,8,0:0:0:0:
216,337,11115,6,0,L|304:323,1,90,2|0,0:0|0:0,0:0:0:0:
409,379,11426,2,0,L|422:290,1,90,2|8,0:0|0:0,0:0:0:0:
448,165,11737,1,2,0:0:0:0:
448,165,11814,1,0,0:0:0:0:
448,165,11892,2,0,L|403:171,1,45,0|0,0:0|0:0,0:0:0:0:
331,192,12047,5,2,0:0:0:0:
331,192,12203,1,10,0:0:0:0:
331,192,12358,1,0,0:0:0:0:
213,153,12514,5,0,0:0:0:0:
331,192,12669,1,0,0:0:0:0:
213,230,12825,1,8,0:0:0:0:
286,129,12980,1,0,0:0:0:0:
296,114,13058,1,0,0:0:0:0:
304,98,13135,5,0,0:0:0:0:
304,284,13291,1,0,0:0:0:0:
142,192,13446,1,8,0:0:0:0:
273,370,13602,6,0,L|361:356,1,90,2|0,0:0|0:0,0:0:0:0:
209,275,13913,2,0,L|261:202,1,90,2|8,0:0|0:0,0:0:0:0:
96,253,14224,1,2,0:0:0:0:
96,253,14301,1,0,0:0:0:0:
96,253,14379,2,0,L|88:208,1,45,0|0,0:0|0:0,0:0:0:0:
16,46,14534,6,0,P|37:50|57:62,1,45,8|8,0:0|0:0,0:0:0:0:
236,80,14690,2,0,P|220:96|201:107,1,45,8|0,0:0|0:0,0:0:0:0:
96,253,14845,2,0,P|89:231|89:209,1,45,8|8,0:0|0:0,0:0:0:0:
114,129,15001,5,4,0:0:0:0:
421,40,15312,5,8,0:0:0:0:
351,126,15467,1,0,0:0:0:0:
504,171,15623,1,0,0:0:0:0:
503,171,15778,2,0,P|512:138|507:105,1,67.5000025749208,0|0,0:0|0:0,0:0:0:0:
275,136,16089,5,8,0:0:0:0:
415,194,16400,1,0,0:0:0:0:
275,136,16555,2,0,L|285:202,1,67.5000025749208,8|0,0:0|0:0,0:0:0:0:
214,268,16866,5,0,0:0:0:0:
214,268,17022,1,0,0:0:0:0:
415,194,17177,2,0,L|404:260,1,67.5000025749208,8|0,0:0|0:0,0:0:0:0:
486,363,17488,6,0,P|441:339|391:337,1,101.250003862381,0|0,0:0|0:0,0:0:0:0:
290,380,17799,2,0,L|279:313,1,67.5000025749208,8|0,0:0|0:0,0:0:0:0:
253,198,18109,1,0,0:0:0:0:
253,198,18265,2,0,P|284:210|317:208,1,67.5000025749208,0|0,0:0|0:0,0:0:0:0:
493,104,18576,6,0,P|503:136|500:169,1,67.5000025749208,8|0,0:0|0:0,0:0:0:0:
417,227,18887,1,0,0:0:0:0:
485,355,19042,2,0,P|452:347|424:328,1,67.5000025749208,8|0,0:0|0:0,0:0:0:0:
421,231,19353,5,0,0:0:0:0:
421,231,19509,1,0,0:0:0:0:
272,222,19664,2,0,P|295:197|325:182,1,67.5000025749208,8|0,0:0|0:0,0:0:0:0:
509,204,19975,6,0,L|497:270,1,67.5000025749208,0|0,0:0|0:0,0:0:0:0:
313,116,20286,2,0,L|324:182,1,67.5000025749208,8|0,0:0|0:0,0:0:0:0:
446,68,20597,5,0,0:0:0:0:
446,68,20752,2,0,P|414:56|380:55,1,67.5000025749208,0|0,0:0|0:0,0:0:0:0:
238,172,21063,6,0,L|249:238,1,67.5000025749208,8|0,0:0|0:0,0:0:0:0:
347,270,21374,1,0,0:0:0:0:
275,384,21529,2,0,L|208:372,1,67.5000025749208,8|0,0:0|0:0,0:0:0:0:
113,353,21840,5,0,0:0:0:0:
113,353,21996,1,0,0:0:0:0:
88,221,22151,2,0,L|76:154,1,67.5000025749208,8|0,0:0|0:0,0:0:0:0:
26,99,22384,1,0,0:0:0:0:
18,83,22462,6,0,P|63:63|113:68,1,101.250003862381,0|0,0:0|0:0,0:0:0:0:
205,32,22773,2,0,L|193:98,1,67.5000025749208,8|0,0:0|0:0,0:0:0:0:
169,202,23084,1,0,0:0:0:0:
307,186,23239,2,0,P|275:173|242:173,1,67.5000025749208,0|0,0:0|0:0,0:0:0:0:
74,253,23550,6,0,L|85:319,1,67.5000025749208,8|0,0:0|0:0,0:0:0:0:
195,338,23861,1,0,0:0:0:0:
61,185,24016,6,0,L|72:251,1,67.5000025749208,8|0,0:0|0:0,0:0:0:0:
182,270,24327,1,0,0:0:0:0:
50,119,24483,5,8,0:0:0:0:
52,135,24560,1,8,0:0:0:0:
55,152,24638,1,8,0:0:0:0:
58,168,24716,1,8,0:0:0:0:
61,185,24793,1,8,0:0:0:0:
2,340,24949,5,4,0:0:0:0:
265,381,25260,2,0,P|304:359|348:353,1,90,8|0,0:0|0:0,0:0:0:0:
382,366,25493,1,0,0:0:0:0:
382,366,25571,1,0,0:0:0:0:
495,311,25726,2,0,P|472:310|451:302,1,45,0|0,0:0|0:0,0:0:0:0:
413,233,25882,1,8,0:0:0:0:
512,57,26037,6,0,L|492:235,1,180,0|0,0:0|0:0,0:0:0:0:
379,162,26503,1,8,0:0:0:0:
284,290,26659,1,0,0:0:0:0:
284,290,26737,1,0,0:0:0:0:
284,290,26814,2,0,L|328:285,1,45,0|0,0:0|0:0,0:0:0:0:
413,233,26970,1,0,0:0:0:0:
235,208,27125,1,8,0:0:0:0:
329,374,27281,1,0,0:0:0:0:
329,374,27358,1,0,0:0:0:0:
329,374,27436,6,0,P|256:322|167:314,1,180,0|8,0:0|0:0,0:0:0:0:
46,293,27902,1,0,0:0:0:0:
46,293,27980,1,0,0:0:0:0:
46,293,28058,1,0,0:0:0:0:
170,358,28213,2,0,P|172:335|167:313,1,45,0|0,0:0|0:0,0:0:0:0:
118,250,28369,1,8,0:0:0:0:
221,59,28524,6,0,L|201:237,1,180,0|0,0:0|0:0,0:0:0:0:
260,363,28990,1,8,0:0:0:0:
118,250,29146,1,0,0:0:0:0:
102,384,29301,1,8,0:0:0:0:
130,349,29379,1,8,0:0:0:0:
174,336,29457,1,8,0:0:0:0:
218,339,29534,1,0,0:0:0:0:
260,363,29612,6,0,L|371:348,1,112.5,8|0,0:0|0:0,0:0:0:0:
465,345,29845,1,0,0:0:0:0:
459,357,29923,6,0,P|371:348|318:278,1,180,4|8,0:0|0:0,0:0:0:0:
345,142,30389,1,0,0:0:0:0:
362,137,30467,1,0,0:0:0:0:
379,133,30545,1,0,0:0:0:0:
456,197,30700,1,0,0:0:0:0:
259,106,30856,1,8,0:0:0:0:
389,6,31011,2,0,L|385:50,1,45,0|0,0:0|0:0,0:0:0:0:
379,133,31167,5,0,0:0:0:0:
297,209,31322,2,0,P|261:184|217:179,1,90,0|8,0:0|0:0,0:0:0:0:
25,148,31633,2,0,L|28:192,1,45,0|0,0:0|0:0,0:0:0:0:
162,289,31788,2,0,L|165:244,1,45,0|0,0:0|0:0,0:0:0:0:
126,173,31944,1,0,0:0:0:0:
1,300,32099,2,0,P|37:325|81:330,1,90,8|8,0:0|0:0,0:0:0:0:
166,293,32332,1,8,0:0:0:0:
166,293,32410,5,12,0:0:0:0:
324,349,32566,2,0,P|253:294|165:293,1,180,0|0,0:0|0:0,0:0:0:0:
82,329,33343,5,0,0:0:0:0:
90,354,33498,1,0,0:0:0:0:
0,242,33654,6,0,P|58:210|124:219,1,135,4|0,0:0|0:0,0:0:0:0:
210,162,33965,2,0,P|268:193|334:184,1,135,8|0,0:0|0:0,0:0:0:0:
469,232,34275,6,0,P|449:220|422:214,1,45,8|8,0:0|0:0,0:0:0:0:
334,184,34431,1,8,0:0:0:0:
476,64,34586,2,0,P|489:106|483:150,1,90,0|0,0:0|0:0,0:0:0:0:
420,294,34897,6,0,L|353:281,1,67.5000025749208,4|0,0:0|0:0,0:0:0:0:
264,329,35208,2,0,L|251:262,1,67.5000025749208,0|0,0:0|0:0,0:0:0:0:
334,184,35519,2,0,L|359:51,1,135.000005149842,0|2,0:0|0:0,0:0:0:0:
216,0,35985,6,0,P|208:32|213:65,1,67.5000025749208,0|0,0:0|0:0,0:0:0:0:
43,156,36296,2,0,P|75:148|108:153,1,67.5000025749208,0|0,0:0|0:0,0:0:0:0:
238,196,36607,2,0,L|263:328,1,135.000005149842,0|2,0:0|0:0,0:0:0:0:
388,357,36996,1,0,0:0:0:0:
388,357,37073,6,0,P|329:326|263:328,1,135,12|0,0:0|0:0,0:0:0:0:
181,353,37384,6,0,L|114:343,1,67.5000025749208,0|2,0:0|0:0,0:0:0:0:
21,383,37695,2,0,L|11:316,1,67.5000025749208,2|0,0:0|0:0,0:0:0:0:
103,221,38006,2,0,L|123:69,1,135.000005149842,0|2,0:0|0:0,0:0:0:0:
0,28,38472,6,0,P|30:15|64:15,1,67.5000025749208,2|0,0:0|0:0,0:0:0:0:
121,87,38783,1,0,0:0:0:0:
266,154,38939,2,0,P|232:153|201:140,2,67.5000025749208,2|2|0,0:0|0:0|0:0,0:0:0:0:
121,87,39405,5,0,0:0:0:0:
342,15,39560,2,0,L|334:104,1,90,8|0,0:0|0:0,0:0:0:0:
512,203,39871,6,0,P|429:169|341:181,1,180,4|8,0:0|0:0,0:0:0:0:
218,228,40338,1,0,0:0:0:0:
222,245,40415,1,0,0:0:0:0:
227,262,40493,1,0,0:0:0:0:
77,300,40648,1,0,0:0:0:0:
194,368,40804,2,0,L|149:359,1,45,8|0,0:0|0:0,0:0:0:0:
0,335,40959,6,0,P|33:306|77:300,1,90,0|0,0:0|0:0,0:0:0:0:
171,160,41270,2,0,P|142:193|136:237,1,90,0|8,0:0|0:0,0:0:0:0:
311,306,41581,1,0,0:0:0:0:
328,302,41658,1,0,0:0:0:0:
345,297,41736,1,0,0:0:0:0:
218,228,41892,1,0,0:0:0:0:
302,350,42047,2,0,L|310:305,1,45,8|8,0:0|0:0,0:0:0:0:
326,212,42203,1,8,0:0:0:0:
385,384,42358,6,0,P|305:343|216:344,1,180,4|8,0:0|0:0,0:0:0:0:
91,277,42825,1,0,0:0:0:0:
95,294,42902,1,0,0:0:0:0:
99,311,42980,1,0,0:0:0:0:
31,375,43135,1,0,0:0:0:0:
190,268,43291,1,8,0:0:0:0:
0,223,43446,6,0,P|68:170|153:190,1,180,0|0,0:0|0:0,0:0:0:0:
308,354,43913,2,0,P|348:374|393:372,1,90,12|0,0:0|0:0,0:0:0:0:
387,354,44146,1,0,0:0:0:0:
383,336,44224,1,8,0:0:0:0:
503,266,44379,6,0,P|487:272|458:271,1,33.7500012874604,8|8,0:0|0:0,0:0:0:0:
395,255,44534,1,8,0:0:0:0:
381,252,44612,1,8,0:0:0:0:
367,254,44690,1,8,0:0:0:0:
354,258,44768,1,8,0:0:0:0:
346,262,44845,6,0,L|358:172,1,90,4|0,0:0|0:0,0:0:0:0:
447,117,45312,1,0,0:0:0:0:
276,113,45467,2,0,P|307:82|351:72,1,90,8|0,0:0|0:0,0:0:0:0:
421,302,45933,2,0,P|389:271|345:261,1,90,2|2,0:0|0:0,0:0:0:0:
212,279,46555,5,0,0:0:0:0:
135,384,46711,6,0,L|138:361,1,22.5,8|0,0:0|0:0,0:0:0:0:
141,339,46866,1,0,0:0:0:0:
212,279,47022,2,0,L|215:256,1,22.5,8|0,0:0|0:0,0:0:0:0:
218,234,47177,1,0,0:0:0:0:
1,201,47332,6,0,P|34:171|78:164,1,90,4|0,0:0|0:0,0:0:0:0:
147,197,47799,1,0,0:0:0:0:
177,41,47954,2,0,P|147:74|140:118,1,90,10|10,0:0|0:0,0:0:0:0:
337,259,48420,6,0,P|282:222|217:233,1,135.000005149842,4|0,0:0|0:0,0:0:0:0:
0,200,48887,2,0,P|32:211|66:208,1,67.5000025749208,12|0,0:0|0:0,0:0:0:0:
214,266,49198,6,0,L|217:232,1,33.7500012874604,0|0,0:0|0:0,0:0:0:0:
144,151,49353,1,8,0:0:0:0:
144,151,49431,2,0,L|140:117,1,33.7500012874604,8|0,0:0|0:0,0:0:0:0:
279,63,49664,1,8,0:0:0:0:
282,46,49742,1,8,0:0:0:0:
284,28,49819,6,0,P|242:12|198:20,1,90,4|0,0:0|0:0,0:0:0:0:
49,74,50130,2,0,L|64:208,1,135,8|0,0:0|0:0,0:0:0:0:
140,236,50441,1,0,0:0:0:0:
1,270,50597,1,0,0:0:0:0:
166,157,50752,1,8,0:0:0:0:
241,382,50908,6,0,P|172:327|83:329,1,180,0|0,0:0|0:0,0:0:0:0:
0,122,51374,2,0,P|40:142|85:140,1,90,8|0,0:0|0:0,0:0:0:0:
79,122,51607,1,0,0:0:0:0:
75,104,51685,1,0,0:0:0:0:
166,157,51840,1,0,0:0:0:0:
48,29,51996,1,8,0:0:0:0:
263,107,52151,6,0,L|246:240,1,135,4|0,0:0|0:0,0:0:0:0:
229,312,52462,2,0,P|252:316|273:311,1,45,8|8,0:0|0:0,0:0:0:0:
160,201,52617,2,0,L|165:156,1,45,8|8,0:0|0:0,0:0:0:0:
168,133,52773,1,8,0:0:0:0:
287,33,52928,6,0,P|265:27|242:31,1,45,8|8,0:0|0:0,0:0:0:0:
127,67,53084,1,8,0:0:0:0:
34,176,53239,6,0,P|55:170|78:174,1,45,8|8,0:0|0:0,0:0:0:0:
160,201,53395,1,8,0:0:0:0:
319,352,53550,6,0,P|258:324|192:334,1,135,8|0,0:0|0:0,0:0:0:0:
128,378,53861,2,0,P|118:357|116:335,1,45,8|0,0:0|0:0,0:0:0:0:
319,352,54016,2,0,L|370:343,1,45,8|0,0:0|0:0,0:0:0:0:
408,279,54172,5,8,0:0:0:0:
192,334,54327,1,8,0:0:0:0:
482,314,54483,5,8,0:0:0:0:
490,270,54560,1,8,0:0:0:0:
473,228,54638,1,8,0:0:0:0:
435,202,54716,1,8,0:0:0:0:
389,200,54794,6,0,B|384:183|384:183|387:152|387:152|398:137,2,67.5,8|0|0,0:0|0:0|0:0,0:0:0:0:
326,269,55338,1,0,0:0:0:0:
326,269,55415,2,0,L|281:263,1,45,2|0,0:0|0:0,0:0:0:0:
192,334,55726,1,2,0:0:0:0:
37,163,55882,6,0,P|78:111|142:95,1,135,4|0,0:0|0:0,0:0:0:0:
163,101,56192,1,0,0:0:0:0:
291,174,56348,2,0,L|281:263,1,90,8|0,0:0|0:0,0:0:0:0:
121,369,56659,2,0,P|112:348|112:325,2,45,2|0|0,0:0|0:0|0:0,0:0:0:0:
205,214,56970,1,10,0:0:0:0:
47,292,57125,6,0,B|85:312|85:312|198:292,1,135,0|0,0:0|0:0,0:0:0:0:
197,290,57436,1,0,0:0:0:0:
360,366,57591,2,0,L|270:356,1,90,8|0,0:0|0:0,0:0:0:0:
100,227,57902,1,0,0:0:0:0:
281,184,58058,1,0,0:0:0:0:
286,205,58135,1,0,0:0:0:0:
283,227,58213,1,8,0:0:0:0:
197,290,58369,1,0,0:0:0:0:
19,201,58524,6,0,P|64:152|129:150,1,135,2|0,0:0|0:0,0:0:0:0:
148,163,58835,1,10,0:0:0:0:
313,106,58990,1,0,0:0:0:0:
155,31,59146,2,0,L|162:75,2,45,2|0|0,0:0|0:0|0:0,0:0:0:0:
230,133,59457,1,8,0:0:0:0:
392,78,59612,6,0,P|347:29|282:27,1,135,2|0,0:0|0:0,0:0:0:0:
263,40,59923,1,2,0:0:0:0:
148,163,60078,2,0,L|162:251,1,90,8|0,0:0|0:0,0:0:0:0:
103,314,60312,1,0,0:0:0:0:
103,314,60389,1,0,0:0:0:0:
242,263,60545,1,8,0:0:0:0:
88,107,60700,1,8,0:0:0:0:
54,377,60856,6,0,P|108:339|175:337,1,135,4|0,0:0|0:0,0:0:0:0:
194,349,61167,1,0,0:0:0:0:
329,379,61322,2,0,P|373:383|413:363,1,90,8|0,0:0|0:0,0:0:0:0:
404,342,61555,1,0,0:0:0:0:
393,322,61633,2,0,L|401:268,1,45,2|0,0:0|0:0,0:0:0:0:
416,201,61788,1,0,0:0:0:0:
482,76,61944,2,0,P|441:56|397:60,1,90,10|0,0:0|0:0,0:0:0:0:
314,137,62177,1,0,0:0:0:0:
314,137,62255,6,0,L|179:122,1,135,0|0,0:0|0:0,0:0:0:0:
157,121,62566,1,10,0:0:0:0:
50,51,62721,1,0,0:0:0:0:
62,32,62799,1,0,0:0:0:0:
82,22,62876,1,0,0:0:0:0:
126,192,63032,2,0,L|81:187,1,45,0|0,0:0|0:0,0:0:0:0:
0,138,63187,1,10,0:0:0:0:
122,329,63343,1,8,0:0:0:0:
122,329,63420,1,8,0:0:0:0:
121,329,63498,6,0,P|169:283|235:274,1,135,6|0,0:0|0:0,0:0:0:0:
422,357,63809,2,0,P|377:356|338:334,1,90,10|0,0:0|0:0,0:0:0:0:
352,316,64042,1,0,0:0:0:0:
363,296,64120,1,10,0:0:0:0:
242,376,64275,1,0,0:0:0:0:
448,281,64431,1,10,0:0:0:0:
258,70,64586,6,0,L|273:204,1,135,4|0,0:0|0:0,0:0:0:0:
279,279,64897,2,0,L|234:273,1,45,2|0,0:0|0:0,0:0:0:0:
125,336,65053,2,0,L|80:341,1,45,2|0,0:0|0:0,0:0:0:0:
3,201,65208,1,0,0:0:0:0:
15,182,65286,1,0,0:0:0:0:
33,169,65363,5,10,0:0:0:0:
76,182,65441,1,8,0:0:0:0:
120,174,65519,2,0,L|113:129,1,45,8|0,0:0|0:0,0:0:0:0:
264,49,65674,5,8,0:0:0:0:
221,36,65752,1,8,0:0:0:0:
177,44,65830,2,0,L|190:132,1,90,8|0,0:0|0:0,0:0:0:0:
352,199,66218,1,0,0:0:0:0:
351,198,66296,6,0,P|297:237|231:236,1,135,4|0,0:0|0:0,0:0:0:0:
209,229,66607,1,0,0:0:0:0:
299,117,66762,1,0,0:0:0:0:
177,44,66918,2,0,L|185:88,1,45,8|0,0:0|0:0,0:0:0:0:
393,45,67073,6,0,P|339:5|273:6,1,135,2|0,0:0|0:0,0:0:0:0:
251,14,67384,1,2,0:0:0:0:
431,134,67540,1,8,0:0:0:0:
303,160,67695,1,0,0:0:0:0:
296,139,67773,1,0,0:0:0:0:
299,117,67851,2,0,L|343:122,1,45,0|0,0:0|0:0,0:0:0:0:
471,96,68006,1,0,0:0:0:0:
478,117,68084,1,0,0:0:0:0:
475,139,68162,2,0,L|430:133,1,45,10|0,0:0|0:0,0:0:0:0:
299,117,68317,1,0,0:0:0:0:
461,258,68472,6,0,B|409:251|409:251|383:268|383:268|331:261,1,135,0|0,0:0|0:0,0:0:0:0:
309,258,68783,1,10,0:0:0:0:
150,307,68939,1,0,0:0:0:0:
170,315,69016,1,0,0:0:0:0:
192,313,69094,1,0,0:0:0:0:
276,360,69249,1,0,0:0:0:0:
182,225,69405,1,10,0:0:0:0:
9,374,69560,6,0,P|37:339|77:319,1,90,4|0,0:0|0:0,0:0:0:0:
170,315,69871,1,0,0:0:0:0:
32,166,70027,6,0,L|37:210,1,45,10|0,0:0|0:0,0:0:0:0:
94,118,70182,2,0,L|135:135,1,45,2|0,0:0|0:0,0:0:0:0:
83,40,70338,2,0,L|119:13,1,45,0|0,0:0|0:0,0:0:0:0:
240,106,70493,5,10,0:0:0:0:
250,86,70571,1,8,0:0:0:0:
250,63,70648,2,0,L|188:71,1,45,8|0,0:0|0:0,0:0:0:0:
121,255,70804,5,8,0:0:0:0:
111,235,70882,1,8,0:0:0:0:
111,212,70959,2,0,L|244:229,1,135,4|0,0:0|0:0,0:0:0:0:
309,271,71270,5,8,0:0:0:0:
347,130,71426,1,0,0:0:0:0:
327,119,71503,1,0,0:0:0:0:
304,122,71581,5,8,0:0:0:0:
298,353,71737,1,0,0:0:0:0:
244,229,71892,5,8,0:0:0:0:
438,173,72047,1,0,0:0:0:0:
236,306,72203,5,8,0:0:0:0:
453,372,72358,1,0,0:0:0:0:
312,198,72514,5,8,0:0:0:0:
485,305,72669,1,0,0:0:0:0:
491,283,72747,1,0,0:0:0:0:
486,260,72825,5,8,0:0:0:0:
298,353,72980,1,0,0:0:0:0:
438,173,73135,5,8,0:0:0:0:
377,365,73291,1,0,0:0:0:0:
252,153,73446,5,4,0:0:0:0:
411,275,73602,1,0,0:0:0:0:
174,349,73757,5,8,0:0:0:0:
335,274,73913,1,0,0:0:0:0:
318,258,73990,1,0,0:0:0:0:
295,256,74068,5,8,0:0:0:0:
453,372,74224,1,0,0:0:0:0:
369,146,74379,5,8,0:0:0:0:
273,383,74534,2,0,P|309:357|353:350,1,90,4|0,0:0|0:0,0:0:0:0:
480,197,74845,6,0,P|457:196|436:189,1,45,0|0,0:0|0:0,0:0:0:0:
369,146,75001,1,4,0:0:0:0:
227,193,75156,5,0,0:0:0:0:
217,172,75234,1,0,0:0:0:0:
206,152,75312,5,8,0:0:0:0:
242,125,75389,1,8,0:0:0:0:
286,115,75467,1,8,0:0:0:0:
330,124,75545,1,8,0:0:0:0:
369,146,75623,5,8,0:0:0:0:
372,133,75700,1,8,0:0:0:0:
375,120,75778,1,8,0:0:0:0:
378,107,75856,1,8,0:0:0:0:
391,52,75933,6,0,L|340:57,1,45,4|0,0:0|0:0,0:0:0:0:
114,81,77954,5,0,0:0:0:0:
107,99,78032,1,0,0:0:0:0:
100,118,78110,2,0,P|128:100|162:96,1,67.5000025749208,8|0,0:0|0:0,0:0:0:0:
380,170,78420,5,4,0:0:0:0:
242,125,78575,1,0,0:0:0:0:
380,80,78731,1,8,0:0:0:0:
294,198,78886,1,0,0:0:0:0:
283,216,78964,1,0,0:0:0:0:
273,235,79041,5,0,0:0:0:0:
273,16,79197,1,0,0:0:0:0:
464,125,79352,1,8,0:0:0:0:
301,322,79508,6,0,L|213:308,1,90,2|0,0:0|0:0,0:0:0:0:
108,364,79819,2,0,L|95:275,1,90,2|8,0:0|0:0,0:0:0:0:
69,150,80130,1,2,0:0:0:0:
69,150,80207,1,0,0:0:0:0:
69,150,80285,2,0,L|114:156,1,45,0|0,0:0|0:0,0:0:0:0:
192,182,80441,5,2,0:0:0:0:
192,182,80597,1,10,0:0:0:0:
192,182,80752,1,0,0:0:0:0:
310,143,80908,5,0,0:0:0:0:
192,182,81063,1,0,0:0:0:0:
310,220,81219,1,8,0:0:0:0:
237,119,81374,1,0,0:0:0:0:
227,104,81452,1,0,0:0:0:0:
219,88,81529,5,0,0:0:0:0:
219,274,81685,1,0,0:0:0:0:
381,182,81840,1,8,0:0:0:0:
250,4,81996,6,0,L|162:18,1,90,2|0,0:0|0:0,0:0:0:0:
314,99,82307,2,0,L|287:135,1,45,2|0,0:0|0:0,0:0:0:0:
240,198,82462,1,4,0:0:0:0:
427,121,82618,1,2,0:0:0:0:
427,121,82695,1,0,0:0:0:0:
427,121,82773,2,0,L|435:166,1,45,0|0,0:0|0:0,0:0:0:0:
480,254,82928,5,8,0:0:0:0:
480,254,83005,1,8,0:0:0:0:
480,254,83083,2,0,L|435:262,1,45,8|8,0:0|0:0,0:0:0:0:
347,228,83239,1,8,0:0:0:0:
162,356,83395,5,4,0:0:0:0:
300,311,83550,1,0,0:0:0:0:
162,266,83706,1,8,0:0:0:0:
248,384,83861,1,0,0:0:0:0:
248,238,84016,5,8,0:0:0:0:
76,302,84172,1,0,0:0:0:0:
300,311,84327,5,8,0:0:0:0:
92,181,84483,1,2,0:0:0:0:
306,115,84638,5,8,0:0:0:0:
224,311,84794,1,2,0:0:0:0:
193,108,84949,5,8,0:0:0:0:
162,356,85104,1,2,0:0:0:0:
394,210,85260,5,8,0:0:0:0:
162,266,85415,1,2,0:0:0:0:
339,384,85571,5,10,0:0:0:0:
234,231,85726,1,0,0:0:0:0:
444,157,85882,5,4,0:0:0:0:
236,121,86037,1,0,0:0:0:0:
425,25,86193,1,8,0:0:0:0:
324,215,86348,1,8,0:0:0:0:
293,4,86503,5,8,0:0:0:0:
418,264,86659,1,8,0:0:0:0:
510,52,86814,5,8,0:0:0:0:
212,215,86970,1,2,0:0:0:0:
488,321,87125,6,0,P|452:349|409:357,1,90,8|2,0:0|0:0,0:0:0:0:
265,279,87436,1,0,0:0:0:0:
436,82,87591,6,0,P|400:54|357:46,1,90,4|0,0:0|0:0,0:0:0:0:
163,233,87902,1,8,0:0:0:0:
190,231,87980,1,8,0:0:0:0:
212,215,88058,1,8,0:0:0:0:
150,17,88213,6,0,L|162:152,1,135.000005149842,4|0,0:0|0:0,0:0:0:0:
