osu file format v14

[General]
AudioFilename: audio.mp3
AudioLeadIn: 0
PreviewTime: 55415
Countdown: 0
SampleSet: Soft
StackLeniency: 0.5
Mode: 0
LetterboxInBreaks: 0
WidescreenStoryboard: 1

[Editor]
Bookmarks: 1167,2177,3187,6296,9560,10027,15312,20752,43602,51374,70959,77954,78420,83395,86192,88213
DistanceSpacing: 1.7
BeatDivisor: 4
GridSize: 32
TimelineZoom: 1.4

[Metadata]
Title:Choumusubi Amulet (TV Size)
TitleUnicode:蝶結びアミュレット(TV Size)
Artist:Mia REGINA
ArtistUnicode:Mia REGINA
Creator:DreaM117er
Version:Insane
Source:装神少女まとい
Tags:Soushin Shoujo Matoi the Sacred Slayer OP tv size Moecho Moeri m1223961117
BeatmapID:1341795
BeatmapSetID:576534

[Difficulty]
HPDrainRate:5.5
CircleSize:4
OverallDifficulty:7
ApproachRate:9
SliderMultiplier:1.6
SliderTickRate:1

[Events]
//Background and Video events
0,0,"BG.jpg",0,0
//Break Periods
2,6496,8783
//Storyboard Layer 0 (Background)
//Storyboard Layer 1 (Fail)
//Storyboard Layer 2 (Pass)
//Storyboard Layer 3 (Foreground)
//Storyboard Sound Samples

[TimingPoints]
79,310.880829015544,4,2,1,40,1,0
700,-166.666666666667,4,2,1,40,0,0
6296,-166.666666666667,4,2,1,10,0,0
9560,-83.3333333333333,4,2,1,40,0,0
9949,-83.3333333333333,4,2,1,10,0,0
10027,-100,4,2,1,60,0,0
15001,-111.111111111111,4,2,1,50,0,0
24949,-100,4,2,1,60,0,0
29845,-100,4,2,1,10,0,0
29923,-100,4,2,1,60,0,0
34897,-133.333333333333,4,2,1,45,0,0
39249,-200,4,2,1,45,0,0
39560,-90.9090909090909,4,2,1,45,0,0
39871,-111.111111111111,4,2,1,60,0,0
44534,-111.111111111111,4,2,1,45,0,0
44612,-111.111111111111,4,2,1,35,0,0
44690,-111.111111111111,4,2,1,55,0,0
44845,-166.666666666666,4,2,1,40,0,0
46089,-166.666666666666,4,2,1,10,0,0
46244,-166.666666666666,4,2,1,40,0,0
48420,-133.333333333333,4,2,1,40,0,0
49353,-111.111111111111,4,2,1,60,0,0
52617,-111.111111111111,4,2,1,50,0,0
52695,-111.111111111111,4,2,1,40,0,0
52773,-111.111111111111,4,2,1,30,0,0
52928,-111.111111111111,4,2,1,60,0,0
53084,-111.111111111111,4,2,1,50,0,0
53161,-111.111111111111,4,2,1,40,0,0
53239,-111.111111111111,4,2,1,30,0,0
53550,-111.111111111111,4,2,1,60,0,0
54483,-111.111111111111,4,2,1,70,0,0
54794,-166.666666666666,4,2,1,60,0,0
55882,-100,4,2,1,80,0,1
62177,-100,4,2,1,10,0,1
62255,-100,4,2,1,80,0,1
64819,-100,4,2,1,10,0,1
64897,-100,4,2,1,80,0,1
65363,-100,4,2,1,70,0,1
65830,-166.666666666667,4,2,1,80,0,0
66296,-100,4,2,1,80,0,1
66452,-100,4,2,1,30,0,1
66607,-100,4,2,1,80,0,1
68395,-100,4,2,1,10,0,1
68472,-100,4,2,1,80,0,1
70104,-100,4,2,1,10,0,1
70182,-100,4,2,1,80,0,1
70260,-100,4,2,1,10,0,1
70338,-100,4,2,1,80,0,1
70415,-100,4,2,1,10,0,1
70493,-100,4,2,1,80,0,1
70804,-100,4,2,1,80,0,0
70959,-90.9090909090909,4,2,1,80,0,1
71115,-90.9090909090909,4,2,1,30,0,1
71270,-90.9090909090909,4,2,1,80,0,1
75467,-90.9090909090909,4,2,1,60,0,1
75545,-90.9090909090909,4,2,1,40,0,1
75933,-100,4,2,1,80,0,0
77954,-83.3333333333333,4,2,1,80,0,0
78343,-100,4,2,1,10,0,0
78420,-100,4,2,1,60,0,0
83084,-100,4,2,1,50,0,0
83161,-100,4,2,1,40,0,0
83239,-100,4,2,1,30,0,0
83395,-100,4,2,1,60,0,0

[Colours]
Combo1 : 241,109,202
Combo2 : 251,28,95
Combo3 : 206,55,238

[HitObjects]
18,362,700,6,0,P|65:365|105:340,1,95.9999970703126,2|2,0:0|0:0,0:0:0:0:
156,270,1167,6,0,P|187:293|243:291,1,95.9999970703126,4|0,0:0|0:0,0:0:0:0:
313,250,1633,1,0,0:0:0:0:
233,157,1788,1,0,0:0:0:0:
313,250,1944,2,0,P|376:240|427:232,1,95.9999970703126,2|2,0:0|0:0,0:0:0:0:
496,168,2410,6,0,P|448:160|401:152,1,95.9999970703126,0|0,0:0|0:0,0:0:0:0:
321,139,2876,1,0,0:0:0:0:
447,77,3032,1,0,0:0:0:0:
355,16,3187,2,0,L|366:77,1,47.9999985351563,2|0,0:0|0:0,0:0:0:0:
299,167,3498,2,0,P|274:165|244:154,1,47.9999985351563,2|0,0:0|0:0,0:0:0:0:
112,112,3809,6,0,P|152:88|199:93,1,95.9999970703126
252,158,4275,1,0,0:0:0:0:
230,237,4431,2,0,P|189:213|172:168,1,95.9999970703126,2|2,0:0|0:0,0:0:0:0:
234,17,4897,5,0,0:0:0:0:
256,192,4975,12,0,6296,0:0:0:0:
501,242,9560,6,0,L|453:233,1,47.9999985351563
369,245,9716,2,0,P|319:293|327:362,1,143.999995605469,8|0,0:0|0:0,0:0:0:0:
394,320,10027,6,0,P|384:248|370:152,1,160,4|8,0:0|0:0,0:0:0:0:
272,80,10493,1,0,0:0:0:0:
272,80,10571,1,0,0:0:0:0:
272,81,10648,2,0,P|267:123|262:167,1,80,0|0,0:0|0:0,0:0:0:0:
366,133,10959,1,8,0:0:0:0:
245,192,11115,6,0,P|169:209|108:162,1,160,2|2,0:0|0:0,0:0:0:0:
272,81,11581,1,8,0:0:0:0:
336,222,11737,2,0,L|348:282,2,40,2|0|0,0:0|0:0|0:0,0:0:0:0:
298,93,12047,1,2,0:0:0:0:
395,146,12203,2,0,P|443:137|477:131,1,80,10|0,0:0|0:0,0:0:0:0:
343,261,12514,6,0,P|281:213|206:231,1,160,0|8,0:0|0:0,0:0:0:0:
109,339,12980,1,0,0:0:0:0:
109,339,13058,1,0,0:0:0:0:
109,339,13135,2,0,P|116:293|121:245,1,80,0|0,0:0|0:0,0:0:0:0:
23,295,13446,1,8,0:0:0:0:
0,136,13602,6,0,P|11:215|23:295,1,160,2|2,0:0|0:0,0:0:0:0:
206,230,14068,1,8,0:0:0:0:
106,173,14224,2,0,L|113:115,2,40,2|0|0,0:0|0:0|0:0,0:0:0:0:
185,372,14534,1,8,0:0:0:0:
189,348,14612,1,8,0:0:0:0:
192,325,14690,1,8,0:0:0:0:
196,301,14768,1,0,0:0:0:0:
199,277,14845,1,8,0:0:0:0:
202,253,14923,1,8,0:0:0:0:
206,230,15001,6,0,P|260:190|352:219,2,143.999995605469,4|8|0,0:0|0:0|0:0,0:0:0:0:
88,135,15778,2,0,P|123:144|159:148,1,71.9999978027344,0|0,0:0|0:0,0:0:0:0:
283,272,16089,6,0,P|274:217|257:111,1,143.999995605469,8|0,0:0|0:0,0:0:0:0:
126,242,16555,2,0,P|161:237|194:223,1,71.9999978027344,8|0,0:0|0:0,0:0:0:0:
343,150,16866,1,0,0:0:0:0:
343,150,17022,1,0,0:0:0:0:
257,38,17177,2,0,P|242:70|238:106,1,71.9999978027344,8|0,0:0|0:0,0:0:0:0:
335,250,17488,6,0,P|265:235|194:223,2,143.999995605469,0|8|0,0:0|0:0|0:0,0:0:0:0:
476,188,18265,2,0,P|440:192|406:201,1,71.9999978027344,0|0,0:0|0:0,0:0:0:0:
290,323,18576,6,0,P|360:331|413:287,1,143.999995605469,8|0,0:0|0:0,0:0:0:0:
395,116,19042,1,8,0:0:0:0:
395,116,19198,1,0,0:0:0:0:
322,179,19353,2,0,P|328:214|335:250,1,71.9999978027344,0|0,0:0|0:0,0:0:0:0:
245,378,19664,2,0,P|238:342|232:307,1,71.9999978027344,8|0,0:0|0:0,0:0:0:0:
198,142,19975,6,0,P|252:187|322:179,1,143.999995605469,0|8,0:0|0:0,0:0:0:0:
395,116,20441,1,0,0:0:0:0:
350,265,20597,1,0,0:0:0:0:
493,215,20752,2,0,P|454:211|420:200,1,71.9999978027344,0|0,0:0|0:0,0:0:0:0:
277,102,21063,6,0,P|288:160|304:249,1,143.999995605469,8|0,0:0|0:0,0:0:0:0:
426,114,21529,2,0,P|383:124|358:138,1,71.9999978027344,8|0,0:0|0:0,0:0:0:0:
203,267,21840,2,0,P|209:231|214:195,1,71.9999978027344,0|0,0:0|0:0,0:0:0:0:
303,243,22151,1,8,0:0:0:0:
166,352,22306,1,0,0:0:0:0:
166,352,22384,1,0,0:0:0:0:
166,352,22462,6,0,P|128:320|131:212,2,143.999995605469,0|8|0,0:0|0:0|0:0,0:0:0:0:
303,243,23239,2,0,P|267:249|219:260,1,71.9999978027344,0|0,0:0|0:0,0:0:0:0:
37,210,23550,2,0,P|73:204|121:193,1,71.9999978027344,8|0,0:0|0:0,0:0:0:0:
232,256,23861,1,0,0:0:0:0:
127,109,24016,1,8,0:0:0:0:
127,109,24327,1,0,0:0:0:0:
145,279,24483,1,8,0:0:0:0:
145,279,24560,1,8,0:0:0:0:
145,279,24638,2,0,L|139:332,2,35.9999989013672,8|8|8,0:0|0:0|0:0,0:0:0:0:
239,163,24949,6,0,P|224:82|210:-2,1,160,4|8,0:0|0:0,0:0:0:0:
346,94,25415,1,0,0:0:0:0:
346,94,25493,1,0,0:0:0:0:
346,94,25571,2,0,P|285:83|255:77,1,80,0|0,0:0|0:0,0:0:0:0:
189,241,25882,1,8,0:0:0:0:
189,241,26037,6,0,P|243:254|324:186,1,160,0|0,0:0|0:0,0:0:0:0:
117,178,26503,1,8,0:0:0:0:
49,235,26659,1,0,0:0:0:0:
49,235,26737,1,0,0:0:0:0:
49,235,26814,2,0,L|66:328,2,80,0|0|8,0:0|0:0|0:0,0:0:0:0:
211,82,27281,1,0,0:0:0:0:
211,82,27358,1,0,0:0:0:0:
211,82,27436,6,0,L|185:263,1,160,0|8,0:0|0:0,0:0:0:0:
91,107,27902,2,0,L|37:86,2,40,0|0|0,0:0|0:0|0:0,0:0:0:0:
247,168,28213,1,0,0:0:0:0:
112,197,28369,1,8,0:0:0:0:
285,252,28524,6,0,P|322:222|318:106,1,160,0|0,0:0|0:0,0:0:0:0:
165,53,28990,2,0,P|176:112|184:152,1,80,8|0,0:0|0:0,0:0:0:0:
223,303,29301,1,8,0:0:0:0:
223,303,29379,1,8,0:0:0:0:
223,303,29457,1,8,0:0:0:0:
258,222,29612,2,0,P|189:220|144:260,1,120,8|0,0:0|0:0,0:0:0:0:
118,321,29923,6,0,B|61:310|-4:299|-4:299|55:277,1,160,4|8,0:0|0:0,0:0:0:0:
223,303,30389,2,0,P|226:342|210:378,1,80,0|0,0:0|0:0,0:0:0:0:
125,229,30700,2,0,P|122:190|138:154,1,80,0|8,0:0|0:0,0:0:0:0:
201,91,31011,1,0,0:0:0:0:
301,239,31167,6,0,P|353:287|459:262,1,160,0|8,0:0|0:0,0:0:0:0:
500,218,31633,1,0,0:0:0:0:
454,143,31788,2,0,P|409:148|357:158,1,80,0|0,0:0|0:0,0:0:0:0:
301,239,32099,1,8,0:0:0:0:
361,47,32255,1,8,0:0:0:0:
361,47,32332,1,8,0:0:0:0:
361,47,32410,1,12,0:0:0:0:
430,364,33654,5,4,0:0:0:0:
94,250,33965,1,8,0:0:0:0:
308,57,34275,2,0,L|299:109,1,40,8|8,0:0|0:0,0:0:0:0:
218,106,34431,2,0,L|234:159,1,40,8|8,0:0|0:0,0:0:0:0:
258,219,34586,1,0,0:0:0:0:
258,219,34897,6,0,P|321:205|393:187,2,120.000004577637,4|0|0,0:0|0:0|0:0,0:0:0:0:
175,255,35674,1,2,0:0:0:0:
185,165,35830,1,2,0:0:0:0:
250,309,35985,6,0,P|199:344|126:334,2,120.000004577637,0|0|0,0:0|0:0|0:0,0:0:0:0:
297,232,36762,1,2,0:0:0:0:
185,165,36918,1,2,0:0:0:0:
185,165,36996,1,0,0:0:0:0:
185,165,37073,2,0,P|155:159|125:155,1,60.0000022888184,12|0,0:0|0:0,0:0:0:0:
48,257,37384,6,0,P|78:253|107:248,1,60.0000022888184,0|2,0:0|0:0,0:0:0:0:
204,145,37695,2,0,P|216:105|216:71,1,60.0000022888184,2|0,0:0|0:0,0:0:0:0:
7,53,38006,2,0,L|31:185,1,120.000004577637,0|2,0:0|0:0,0:0:0:0:
67,342,38472,1,2,0:0:0:0:
67,342,38783,1,0,0:0:0:0:
134,282,38939,2,0,P|167:270|206:270,1,60.0000022888184,2|2,0:0|0:0,0:0:0:0:
346,357,39249,6,0,P|311:355|279:339,1,60,0|0,0:0|0:0,0:0:0:0:
267,329,39560,6,0,L|283:233,1,88.000002685547,8|0,0:0|0:0,0:0:0:0:
318,49,39871,6,0,P|376:8|465:42,1,143.999995605469,4|8,0:0|0:0,0:0:0:0:
327,140,40338,1,0,0:0:0:0:
327,140,40415,1,0,0:0:0:0:
327,140,40493,2,0,P|280:134|245:108,1,71.9999978027344,0|0,0:0|0:0,0:0:0:0:
194,64,40804,1,8,0:0:0:0:
31,173,40959,6,0,L|173:147,1,143.999995605469,0|0,0:0|0:0,0:0:0:0:
318,49,41426,1,8,0:0:0:0:
344,151,41581,1,0,0:0:0:0:
344,151,41659,1,0,0:0:0:0:
344,151,41737,2,0,P|336:191|328:239,1,71.9999978027344,0|0,0:0|0:0,0:0:0:0:
241,275,42047,1,8,0:0:0:0:
244,292,42125,1,8,0:0:0:0:
248,310,42203,1,8,0:0:0:0:
251,327,42281,1,8,0:0:0:0:
254,345,42358,6,0,P|211:336|163:326,2,71.9999978027344,4|0|8,0:0|0:0|0:0,0:0:0:0:
338,366,42825,1,0,0:0:0:0:
155,248,42980,2,0,P|109:280|105:373,1,143.999995605469,0|8,0:0|0:0,0:0:0:0:
183,330,43446,1,0,0:0:0:0:
241,223,43602,6,0,L|225:126,1,71.9999978027344,0|0,0:0|0:0,0:0:0:0:
211,67,43913,1,12,0:0:0:0:
296,93,44068,1,0,0:0:0:0:
158,208,44224,1,8,0:0:0:0:
126,41,44379,1,8,0:0:0:0:
126,41,44457,1,8,0:0:0:0:
126,41,44534,1,8,0:0:0:0:
126,41,44612,1,8,0:0:0:0:
126,41,44690,1,8,0:0:0:0:
126,41,44768,1,8,0:0:0:0:
126,41,44845,6,0,P|166:79|268:69,1,143.999995605469,4|0,0:0|0:0,0:0:0:0:
320,28,45467,1,8,0:0:0:0:
320,28,45778,1,0,0:0:0:0:
279,167,45933,6,0,P|270:215|260:283,2,95.9999970703126,2|2|0,0:0|0:0|0:0,0:0:0:0:
170,124,46711,2,0,L|180:189,1,47.9999985351563,8|0,0:0|0:0,0:0:0:0:
132,272,47022,2,0,P|155:268|177:258,1,47.9999985351563,8|0,0:0|0:0,0:0:0:0:
298,299,47332,6,0,P|337:273|385:271,1,95.9999970703126,4|0,0:0|0:0,0:0:0:0:
463,309,47799,1,0,0:0:0:0:
460,222,47954,2,0,L|473:159,2,47.9999985351563,10|0|10,0:0|0:0|0:0,0:0:0:0:
368,355,48420,6,0,P|312:343|235:329,1,120.000004577637,4|0,0:0|0:0,0:0:0:0:
146,273,48887,2,0,L|78:286,2,60.0000022888184,12|0|0,0:0|0:0|0:0,0:0:0:0:
240,232,49353,2,0,L|248:178,2,35.9999989013672,8|8|8,0:0|0:0|0:0,0:0:0:0:
160,372,49664,1,8,0:0:0:0:
160,372,49742,1,8,0:0:0:0:
160,372,49819,6,0,P|152:313|135:204,1,143.999995605469,4|8,0:0|0:0,0:0:0:0:
0,82,50286,1,0,0:0:0:0:
0,82,50363,1,0,0:0:0:0:
0,82,50441,2,0,P|5:117|11:153,1,71.9999978027344,0|0,0:0|0:0,0:0:0:0:
51,231,50752,1,8,0:0:0:0:
221,191,50908,6,0,P|169:144|99:147,1,143.999995605469,0|0,0:0|0:0,0:0:0:0:
139,229,51374,1,8,0:0:0:0:
296,244,51529,2,0,L|339:234,2,35.9999989013672,0|0|0,0:0|0:0|0:0,0:0:0:0:
177,312,51840,1,0,0:0:0:0:
221,191,51996,1,8,0:0:0:0:
344,352,52151,6,0,P|309:345|270:338,1,71.9999978027344,4|0,0:0|0:0,0:0:0:0:
115,373,52462,1,8,0:0:0:0:
137,344,52540,1,8,0:0:0:0:
136,308,52617,1,8,0:0:0:0:
111,281,52695,1,8,0:0:0:0:
75,273,52773,1,8,0:0:0:0:
48,248,52851,1,8,0:0:0:0:
36,214,52928,6,0,L|46:144,3,35.9999989013672,8|8|8|8,0:0|0:0|0:0|0:0,0:0:0:0:
117,142,53239,2,0,L|105:89,3,35.9999989013672,8|8|8|8,0:0|0:0|0:0|0:0,0:0:0:0:
86,22,53550,6,0,P|120:29|171:40,1,71.9999978027344,8|0,0:0|0:0,0:0:0:0:
329,86,53861,1,8,0:0:0:0:
329,86,54016,1,8,0:0:0:0:
205,159,54172,1,8,0:0:0:0:
205,159,54327,1,8,0:0:0:0:
301,225,54483,2,0,L|310:173,1,35.9999989013672,8|8,0:0|0:0,0:0:0:0:
205,159,54638,2,0,L|211:194,1,35.9999989013672,8|8,0:0|0:0,0:0:0:0:
234,274,54794,5,8,0:0:0:0:
462,75,55415,6,0,P|415:86|369:97,1,95.9999970703126,2|2,0:0|0:0,0:0:0:0:
312,165,55882,6,0,P|252:115|171:126,1,160,4|0,0:0|0:0,0:0:0:0:
303,255,56348,2,0,P|344:251|385:223,1,80,8|0,0:0|0:0,0:0:0:0:
225,204,56659,1,2,0:0:0:0:
293,346,56814,1,0,0:0:0:0:
312,165,56970,1,10,0:0:0:0:
219,291,57125,6,0,P|148:275|44:258,1,160,0|0,0:0|0:0,0:0:0:0:
208,128,57591,2,0,P|227:177|220:217,1,80,8|0,0:0|0:0,0:0:0:0:
151,357,57902,1,0,0:0:0:0:
62,260,58058,1,0,0:0:0:0:
62,260,58135,1,0,0:0:0:0:
62,260,58213,2,0,P|101:253|160:239,1,80,8|0,0:0|0:0,0:0:0:0:
317,169,58524,6,0,P|305:231|299:270,1,80,2|0,0:0|0:0,0:0:0:0:
233,369,58835,2,0,L|226:330|219:291,1,80,10|0,0:0|0:0,0:0:0:0:
162,104,59146,1,2,0:0:0:0:
226,180,59301,1,0,0:0:0:0:
140,244,59457,1,8,0:0:0:0:
257,80,59612,6,0,P|319:33|394:51,1,160,2|2,0:0|0:0,0:0:0:0:
338,119,60078,1,8,0:0:0:0:
170,50,60234,2,0,L|119:31,2,40,0|0|8,0:0|0:0|0:0,0:0:0:0:
338,119,60545,1,8,0:0:0:0:
220,163,60700,1,8,0:0:0:0:
338,119,60856,6,0,P|325:193|311:288,1,160,4|0,0:0|0:0,0:0:0:0:
149,269,61322,2,0,P|189:253|227:252,1,80,8|0,0:0|0:0,0:0:0:0:
436,228,61633,2,0,P|395:222|355:204,1,80,2|0,0:0|0:0,0:0:0:0:
219,108,61944,2,0,P|229:167|243:242,1,120,10|0,0:0|0:0,0:0:0:0:
225,251,62255,6,0,P|220:288|213:339,1,80,0|0,0:0|0:0,0:0:0:0:
68,191,62566,2,0,P|107:186|144:172,1,80,10|0,0:0|0:0,0:0:0:0:
247,80,62876,2,0,P|312:131|393:116,1,160,0|10,0:0|0:0,0:0:0:0:
486,45,63343,1,8,0:0:0:0:
486,45,63420,1,8,0:0:0:0:
486,45,63498,6,0,L|473:124,1,80,6|0,0:0|0:0,0:0:0:0:
427,318,63809,1,10,0:0:0:0:
383,179,63965,1,0,0:0:0:0:
383,179,64042,1,0,0:0:0:0:
383,179,64120,1,10,0:0:0:0:
485,240,64275,1,0,0:0:0:0:
333,305,64431,1,10,0:0:0:0:
485,240,64586,6,0,L|352:218,1,120,4|0,0:0|0:0,0:0:0:0:
334,214,64897,1,2,0:0:0:0:
211,144,65053,1,2,0:0:0:0:
252,259,65208,1,0,0:0:0:0:
299,98,65363,2,0,L|308:42,2,40,10|8|8,0:0|0:0|0:0,0:0:0:0:
127,200,65674,1,8,0:0:0:0:
127,200,65752,1,8,0:0:0:0:
127,200,65830,6,0,P|182:187|235:176,1,95.9999970703126,8|0,0:0|0:0,0:0:0:0:
334,214,66296,6,0,P|381:274|363:373,1,160,4|0,0:0|0:0,0:0:0:0:
189,280,66762,1,0,0:0:0:0:
220,179,66918,1,8,0:0:0:0:
257,350,67073,6,0,P|203:338|77:315,1,160,2|2,0:0|0:0,0:0:0:0:
296,233,67540,2,0,P|339:226|384:216,1,80,8|0,0:0|0:0,0:0:0:0:
450,287,67851,2,0,L|489:294,2,40,0|0|0,0:0|0:0|0:0,0:0:0:0:
327,151,68161,2,0,P|336:92|313:38,1,120,10|0,0:0|0:0,0:0:0:0:
291,13,68472,6,0,P|241:25|189:34,1,80
22,74,68783,2,0,P|61:82|100:89,1,80,10|0,0:0|0:0,0:0:0:0:
176,152,69094,1,0,0:0:0:0:
212,30,69249,1,0,0:0:0:0:
86,187,69405,1,10,0:0:0:0:
332,119,69560,6,0,P|253:133|176:152,1,160,4|0,0:0|0:0,0:0:0:0:
256,289,70027,2,0,P|276:249|267:200,1,80,10|2,0:0|0:0,0:0:0:0:
122,75,70338,1,0,0:0:0:0:
86,187,70493,2,0,L|21:202,2,40,10|8|8,0:0|0:0|0:0,0:0:0:0:
244,95,70804,1,8,0:0:0:0:
244,95,70882,1,8,0:0:0:0:
244,95,70959,6,0,P|193:87|137:75,1,88.000002685547,4|0,0:0|0:0,0:0:0:0:
37,43,71270,1,8,0:0:0:0:
121,181,71426,1,0,0:0:0:0:
121,181,71503,1,0,0:0:0:0:
121,181,71581,1,8,0:0:0:0:
157,79,71737,2,0,L|168:34,2,44.0000013427735,0|0|8,0:0|0:0|0:0,0:0:0:0:
30,223,72047,1,0,0:0:0:0:
121,181,72203,6,0,P|177:170|224:162,1,88.000002685547,8|0,0:0|0:0,0:0:0:0:
332,235,72514,1,8,0:0:0:0:
234,263,72669,2,0,L|219:327,2,44.0000013427735,0|0|8,0:0|0:0|0:0,0:0:0:0:
313,127,72980,1,0,0:0:0:0:
313,127,73058,1,0,0:0:0:0:
313,127,73135,2,0,P|304:77|294:17,1,88.000002685547,8|0,0:0|0:0,0:0:0:0:
443,124,73446,6,0,P|434:167|426:211,1,88.000002685547,4|0,0:0|0:0,0:0:0:0:
393,338,73757,1,8,0:0:0:0:
332,235,73913,2,0,L|265:211,2,44.0000013427735,0|0|8,0:0|0:0|0:0,0:0:0:0:
486,297,74224,1,0,0:0:0:0:
361,354,74379,1,8,0:0:0:0:
426,211,74534,6,0,P|411:133|388:13,1,176.000005371094,4|0,0:0|0:0,0:0:0:0:
254,209,75001,2,0,P|245:262|234:321,1,88.000002685547,4|0,0:0|0:0,0:0:0:0:
332,155,75312,5,8,0:0:0:0:
302,128,75389,1,8,0:0:0:0:
263,117,75467,1,8,0:0:0:0:
223,121,75545,1,8,0:0:0:0:
189,141,75623,1,8,0:0:0:0:
151,154,75700,1,8,0:0:0:0:
111,149,75778,1,8,0:0:0:0:
74,133,75856,1,8,0:0:0:0:
53,93,75933,5,4,0:0:0:0:
11,142,77954,6,0,L|59:151,1,47.9999985351563
143,139,78110,2,0,P|193:91|185:22,1,143.999995605469,8|0,0:0|0:0,0:0:0:0:
118,64,78420,6,0,L|129:143|140:222,1,160,4|8,0:0|0:0,0:0:0:0:
90,341,78887,1,0,0:0:0:0:
90,341,78965,1,0,0:0:0:0:
90,341,79042,2,0,P|131:329|181:318,1,80
297,251,79353,1,8,0:0:0:0:
297,251,79509,6,0,P|218:238|140:222,1,160,2|2,0:0|0:0,0:0:0:0:
264,341,79975,1,8,0:0:0:0:
336,162,80130,2,0,L|348:102,2,40,2|0|0,0:0|0:0|0:0,0:0:0:0:
379,287,80441,1,2,0:0:0:0:
247,152,80597,2,0,P|235:119|232:73,1,80,10|0,0:0|0:0,0:0:0:0:
443,47,80908,6,0,P|430:105|409:208,1,160,0|8,0:0|0:0,0:0:0:0:
339,336,81374,1,0,0:0:0:0:
339,336,81452,1,0,0:0:0:0:
339,336,81529,2,0,P|333:292|321:234,1,80,0|0,0:0|0:0,0:0:0:0:
283,103,81840,1,8,0:0:0:0:
283,103,81996,6,0,P|228:155|137:137,1,160,2|2,0:0|0:0,0:0:0:0:
46,64,82462,1,4,0:0:0:0:
87,223,82617,2,0,L|97:268,2,40,2|0|0,0:0|0:0|0:0,0:0:0:0:
198,65,82928,1,8,0:0:0:0:
198,65,83006,1,8,0:0:0:0:
198,65,83084,1,8,0:0:0:0:
198,65,83161,1,8,0:0:0:0:
198,65,83239,1,8,0:0:0:0:
198,65,83317,1,8,0:0:0:0:
198,65,83395,6,0,P|190:108|180:166,1,80,4|0,0:0|0:0,0:0:0:0:
254,291,83705,1,8,0:0:0:0:
155,242,83861,1,0,0:0:0:0:
334,174,84016,2,0,P|295:178|259:195,1,80,8|0,0:0|0:0,0:0:0:0:
140,335,84327,1,8,0:0:0:0:
140,335,84483,6,0,P|133:295|126:254,1,80,2|8,0:0|0:0,0:0:0:0:
7,146,84794,2,0,P|43:162|82:166,1,80,2|8,0:0|0:0,0:0:0:0:
235,120,85104,2,0,L|242:75,2,40,2|0|8,0:0|0:0|0:0,0:0:0:0:
126,256,85415,1,2,0:0:0:0:
237,331,85571,1,10,0:0:0:0:
182,187,85726,1,0,0:0:0:0:
48,273,85882,6,0,P|87:265|126:256,1,80,4|0,0:0|0:0,0:0:0:0:
276,354,86192,1,8,0:0:0:0:
276,354,86348,1,8,0:0:0:0:
319,190,86503,1,8,0:0:0:0:
319,190,86659,1,8,0:0:0:0:
213,275,86814,1,8,0:0:0:0:
372,355,86970,6,0,P|366:314|343:279,1,80,2|8,0:0|0:0,0:0:0:0:
154,170,87281,2,0,P|190:163|243:151,1,80,2|0,0:0|0:0,0:0:0:0:
441,122,87591,2,0,P|401:115|362:108,1,80,4|0,0:0|0:0,0:0:0:0:
211,69,87902,2,0,L|197:9,2,40,8|8|8,0:0|0:0|0:0,0:0:0:0:
256,240,88213,5,4,0:0:0:0:
