osu file format v14

[General]
AudioFilename: audio.mp3
AudioLeadIn: 0
PreviewTime: 55415
Countdown: 0
SampleSet: Soft
StackLeniency: 0.5
Mode: 0
LetterboxInBreaks: 0
WidescreenStoryboard: 0

[Editor]
DistanceSpacing: 1.1
BeatDivisor: 4
GridSize: 4
TimelineZoom: 1.4

[Metadata]
Title:Choumusubi Amulet (TV Size)
TitleUnicode:蝶結びアミュレット(TV Size)
Artist:Mia REGINA
ArtistUnicode:Mia REGINA
Creator:DreaM117er
Version:Expert
Source:装神少女まとい
Tags:Soushin Shoujo Matoi the Sacred Slayer OP tv size Moecho Moeri m1223961117
BeatmapID:1226661
BeatmapSetID:576534

[Difficulty]
HPDrainRate:5.5
CircleSize:4
OverallDifficulty:7.5
ApproachRate:9
SliderMultiplier:1.7
SliderTickRate:1

[Events]
//Background and Video events
0,0,"BG.jpg",0,0
//Break Periods
2,6651,8783
//Storyboard Layer 0 (Background)
//Storyboard Layer 1 (Fail)
//Storyboard Layer 2 (Pass)
//Storyboard Layer 3 (Foreground)
//Storyboard Sound Samples

[TimingPoints]
79,310.880829015544,4,2,1,40,1,0
700,-166.666666666667,4,2,1,40,0,0
5985,-166.666666666667,4,2,1,10,0,0
9560,-83.3333333333333,4,2,1,60,0,0
9949,-83.3333333333333,4,2,1,10,0,0
10027,-100,4,2,1,60,0,0
15001,-111.111111111111,4,2,1,50,0,0
24949,-100,4,2,1,60,0,0
29845,-100,4,2,1,10,0,0
29923,-100,4,2,1,60,0,0
34897,-133.333333333333,4,2,1,45,0,0
39249,-200,4,2,1,45,0,0
39483,-200,4,2,1,10,0,0
39560,-90.9090909090909,4,2,1,45,0,0
39871,-111.111111111111,4,2,1,60,0,0
44534,-111.111111111111,4,2,1,45,0,0
44612,-111.111111111111,4,2,1,35,0,0
44690,-111.111111111111,4,2,1,55,0,0
44845,-166.666666666666,4,2,1,40,0,0
46089,-166.666666666666,4,2,1,10,0,0
46244,-166.666666666666,4,2,1,40,0,0
48420,-133.333333333333,4,2,1,40,0,0
49353,-111.111111111111,4,2,1,60,0,0
52617,-111.111111111111,4,2,1,50,0,0
52695,-111.111111111111,4,2,1,40,0,0
52773,-111.111111111111,4,2,1,30,0,0
52928,-111.111111111111,4,2,1,60,0,0
53084,-111.111111111111,4,2,1,50,0,0
53161,-111.111111111111,4,2,1,40,0,0
53239,-111.111111111111,4,2,1,30,0,0
53550,-111.111111111111,4,2,1,60,0,0
54483,-111.111111111111,4,2,1,70,0,0
54794,-166.666666666666,4,2,1,60,0,0
55882,-100,4,2,1,80,0,1
62177,-100,4,2,1,10,0,1
62255,-100,4,2,1,80,0,1
64819,-100,4,2,1,10,0,1
64897,-100,4,2,1,80,0,1
65363,-100,4,2,1,70,0,1
65830,-166.666666666667,4,2,1,80,0,0
66296,-100,4,2,1,80,0,1
66452,-100,4,2,1,30,0,1
66607,-100,4,2,1,80,0,1
68395,-100,4,2,1,10,0,1
68472,-100,4,2,1,80,0,1
70104,-100,4,2,1,10,0,1
70182,-100,4,2,1,80,0,1
70260,-100,4,2,1,10,0,1
70338,-100,4,2,1,80,0,1
70415,-100,4,2,1,10,0,1
70493,-100,4,2,1,80,0,1
70804,-100,4,2,1,80,0,0
70959,-90.9090909090909,4,2,1,80,0,1
71115,-90.9090909090909,4,2,1,30,0,1
71270,-90.9090909090909,4,2,1,80,0,1
75467,-90.9090909090909,4,2,1,60,0,1
75545,-90.9090909090909,4,2,1,40,0,1
75933,-100,4,2,1,80,0,0
77954,-83.3333333333333,4,2,1,80,0,0
78343,-100,4,2,1,10,0,0
78420,-100,4,2,1,60,0,0
83084,-100,4,2,1,50,0,0
83161,-100,4,2,1,40,0,0
83239,-100,4,2,1,30,0,0
83395,-100,4,2,1,60,0,0

[Colours]
Combo1 : 241,109,202
Combo2 : 251,28,95
Combo3 : 206,55,238

[HitObjects]
47,170,700,6,0,L|164:189,1,101.999996887207,2|2,0:0|0:0,0:0:0:0:
204,121,1167,6,0,L|304:103,1,101.999996887207,4|0,0:0|0:0,0:0:0:0:
390,88,1633,1,0,0:0:0:0:
292,13,1788,1,0,0:0:0:0:
416,82,1944,2,0,P|395:120|395:194,1,101.999996887207,2|2,0:0|0:0,0:0:0:0:
441,290,2410,6,0,P|409:268|326:267,1,101.999996887207,0|0,0:0|0:0,0:0:0:0:
271,303,2876,1,0,0:0:0:0:
306,183,3032,1,0,0:0:0:0:
181,309,3187,2,0,L|248:321,1,50.9999984436036,2|0,0:0|0:0,0:0:0:0:
298,169,3498,2,0,L|231:181,1,50.9999984436036,2|0,0:0|0:0,0:0:0:0:
116,246,3809,6,0,P|124:192|132:127,1,101.999996887207,0|0,0:0|0:0,0:0:0:0:
31,212,4275,1,0,0:0:0:0:
236,292,4431,2,0,P|229:241|222:190,1,101.999996887207,2|2,0:0|0:0,0:0:0:0:
143,55,4897,5,0,0:0:0:0:
256,192,4975,12,0,5985,0:0:0:0:
383,310,6296,6,0,L|392:347,2,25.4999992218018
378,247,9560,6,0,L|444:238,1,50.9999984436036,0|0,0:0|0:0,0:0:0:0:
501,274,9716,2,0,L|324:259,1,152.999995330811,8|0,0:0|0:0,0:0:0:0:
279,297,10027,6,0,P|269:257|258:203,1,85,4|0,0:0|0:0,0:0:0:0:
283,123,10338,1,8,0:0:0:0:
180,283,10493,1,0,0:0:0:0:
180,283,10571,1,0,0:0:0:0:
180,283,10648,2,0,P|171:324|161:365,1,85,0|0,0:0|0:0,0:0:0:0:
279,297,10959,1,8,0:0:0:0:
171,192,11115,6,0,P|87:209|-7:225,1,170,2|2,0:0|0:0,0:0:0:0:
169,295,11581,1,8,0:0:0:0:
256,142,11737,1,2,0:0:0:0:
256,142,11814,1,0,0:0:0:0:
256,142,11892,1,0,0:0:0:0:
346,236,12047,1,2,0:0:0:0:
246,128,12203,2,0,P|236:85|227:31,1,85,10|0,0:0|0:0,0:0:0:0:
459,115,12514,6,0,P|452:156|443:198,1,85
429,291,12825,1,8,0:0:0:0:
362,144,12980,1,0,0:0:0:0:
362,144,13058,1,0,0:0:0:0:
362,144,13135,2,0,P|312:139|278:118,1,85,0|0,0:0|0:0,0:0:0:0:
229,44,13446,1,8,0:0:0:0:
350,244,13602,6,0,B|411:231|478:217|478:217|447:266,1,170,2|2,0:0|0:0,0:0:0:0:
381,374,14068,1,8,0:0:0:0:
271,297,14224,2,0,L|261:355,2,42.5,2|0|0,0:0|0:0|0:0,0:0:0:0:
159,104,14534,1,8,0:0:0:0:
140,137,14612,1,8,0:0:0:0:
139,175,14690,1,8,0:0:0:0:
159,208,14768,1,0,0:0:0:0:
194,226,14845,1,8,0:0:0:0:
233,226,14923,1,8,0:0:0:0:
266,205,15001,6,0,P|259:167|252:129,1,76.4999976654053,4|0,0:0|0:0,0:0:0:0:
356,64,15312,2,0,P|349:102|342:140,1,76.4999976654053,8|0,0:0|0:0,0:0:0:0:
317,281,15623,1,0,0:0:0:0:
394,216,15778,2,0,P|428:199|466:197,1,76.4999976654053,0|0,0:0|0:0,0:0:0:0:
267,163,16089,6,0,P|190:150|100:134,1,152.999995330811,8|0,0:0|0:0,0:0:0:0:
247,338,16555,2,0,P|231:304|230:266,1,76.4999976654053,8|0,0:0|0:0,0:0:0:0:
267,163,16866,1,0,0:0:0:0:
144,224,17022,1,0,0:0:0:0:
301,146,17177,2,0,L|205:130,1,76.4999976654053,8|0,0:0|0:0,0:0:0:0:
58,72,17488,6,0,P|139:59|221:40,2,152.999995330811,0|8|0,0:0|0:0|0:0,0:0:0:0:
232,68,18265,2,0,P|228:107|221:144,1,76.4999976654053,0|0,0:0|0:0,0:0:0:0:
318,234,18576,2,0,P|322:271|330:309,1,76.4999976654053,8|0,0:0|0:0,0:0:0:0:
264,373,18887,1,0,0:0:0:0:
411,266,19042,2,0,P|450:268|491:292,1,76.4999976654053,8|0,0:0|0:0,0:0:0:0:
428,172,19353,1,0,0:0:0:0:
330,309,19509,1,0,0:0:0:0:
428,172,19664,2,0,P|391:170|357:153,1,76.4999976654053,8|0,0:0|0:0,0:0:0:0:
204,33,19975,6,0,P|245:63|244:181,1,152.999995330811,0|8,0:0|0:0,0:0:0:0:
133,307,20441,1,0,0:0:0:0:
285,242,20597,2,0,P|248:249|211:258,2,76.4999976654053,0|0|0,0:0|0:0|0:0,0:0:0:0:
169,123,21063,6,0,B|106:115|51:102|51:102|81:85,1,152.999995330811,8|0,0:0|0:0,0:0:0:0:
346,183,21529,2,0,P|370:233|365:271,1,76.4999976654053,8|0,0:0|0:0,0:0:0:0:
203,364,21840,2,0,P|209:326|216:288,1,76.4999976654053,0|0,0:0|0:0,0:0:0:0:
256,154,22151,1,8,0:0:0:0:
332,345,22306,1,0,0:0:0:0:
332,345,22384,1,0,0:0:0:0:
332,345,22462,6,0,P|370:299|471:313,2,152.999995330811,0|8|0,0:0|0:0|0:0,0:0:0:0:
183,270,23239,2,0,P|145:263|107:258,1,76.4999976654053
372,211,23550,2,0,P|409:204|446:194,1,76.4999976654053,8|0,0:0|0:0,0:0:0:0:
332,345,23861,1,0,0:0:0:0:
270,145,24016,1,8,0:0:0:0:
270,145,24327,1,0,0:0:0:0:
183,270,24483,1,8,0:0:0:0:
183,270,24560,1,8,0:0:0:0:
183,270,24638,2,0,L|176:324,2,38.2499988327027,8|8|8,0:0|0:0|0:0,0:0:0:0:
88,70,24949,6,0,B|141:53|141:53|187:67|220:69|220:69|203:40,1,170,4|8,0:0|0:0,0:0:0:0:
142,148,25415,1,0,0:0:0:0:
142,148,25493,1,0,0:0:0:0:
142,148,25571,2,0,P|150:198|158:247,1,85,0|0,0:0|0:0,0:0:0:0:
53,212,25882,1,8,0:0:0:0:
249,253,26037,6,0,B|237:308|226:377|226:377|202:313,1,170,0|0,0:0|0:0,0:0:0:0:
336,207,26503,1,8,0:0:0:0:
417,279,26659,1,0,0:0:0:0:
417,279,26737,1,0,0:0:0:0:
417,279,26814,2,0,P|465:271|509:256,2,85,0|0|8,0:0|0:0|0:0,0:0:0:0:
250,179,27281,1,0,0:0:0:0:
250,179,27358,1,0,0:0:0:0:
250,179,27436,6,0,P|236:128|224:70,1,85,0|0,0:0|0:0,0:0:0:0:
336,207,27747,1,8,0:0:0:0:
197,257,27902,2,0,L|147:273,2,42.5,0|0|0,0:0|0:0|0:0,0:0:0:0:
336,207,28213,1,0,0:0:0:0:
148,144,28369,1,8,0:0:0:0:
336,207,28524,6,0,L|318:305,1,85,0|0,0:0|0:0,0:0:0:0:
471,369,28835,1,0,0:0:0:0:
471,369,28990,2,0,L|455:285,1,85,8|0,0:0|0:0,0:0:0:0:
422,137,29301,1,8,0:0:0:0:
422,137,29379,1,8,0:0:0:0:
422,137,29457,1,8,0:0:0:0:
278,355,29612,2,0,P|338:366|386:328,1,127.5,8|0,0:0|0:0,0:0:0:0:
320,290,29923,6,0,P|236:305|142:320,1,170,4|8,0:0|0:0,0:0:0:0:
216,146,30389,2,0,P|234:184|232:226,1,85,0|0,0:0|0:0,0:0:0:0:
82,372,30700,2,0,P|63:334|67:292,1,85,0|8,0:0|0:0,0:0:0:0:
147,200,31011,1,0,0:0:0:0:
14,61,31167,6,0,B|34:102|72:121|72:121|114:118|171:93,1,170,0|8,0:0|0:0,0:0:0:0:
325,188,31633,1,0,0:0:0:0:
263,47,31788,2,0,P|255:89|243:155,1,85,0|0,0:0|0:0,0:0:0:0:
211,308,32099,1,8,0:0:0:0:
154,100,32255,1,8,0:0:0:0:
154,100,32332,1,8,0:0:0:0:
154,100,32410,1,12,0:0:0:0:
441,326,33654,5,4,0:0:0:0:
71,249,33965,1,8,0:0:0:0:
327,186,34275,2,0,L|313:138,1,42.5,8|8,0:0|0:0,0:0:0:0:
217,153,34431,2,0,L|233:112,1,42.5,8|8,0:0|0:0,0:0:0:0:
271,33,34586,1,0,0:0:0:0:
271,33,34897,6,0,P|226:20|154:65,2,127.500004863739,4|0|0,0:0|0:0|0:0,0:0:0:0:
360,145,35674,1,2,0:0:0:0:
232,113,35830,1,2,0:0:0:0:
369,244,35985,6,0,P|376:180|383:117,2,127.500004863739,0|0|0,0:0|0:0|0:0,0:0:0:0:
230,305,36762,1,2,0:0:0:0:
343,358,36918,1,2,0:0:0:0:
343,358,36996,1,0,0:0:0:0:
343,358,37073,1,12,0:0:0:0:
278,227,37229,1,0,0:0:0:0:
152,338,37384,6,0,P|184:337|214:327,1,63.7500024318696,0|2,0:0|0:0,0:0:0:0:
296,195,37695,2,0,L|212:179,1,63.7500024318696,2|0,0:0|0:0,0:0:0:0:
69,308,38006,2,0,P|60:244|48:182,1,127.500004863739,0|2,0:0|0:0,0:0:0:0:
5,32,38472,1,2,0:0:0:0:
5,32,38783,1,0,0:0:0:0:
103,110,38939,2,0,P|135:121|172:122,1,63.7500024318696,2|2,0:0|0:0,0:0:0:0:
255,190,39249,6,0,L|242:113,1,63.75,0|0,0:0|0:0,0:0:0:0:
290,42,39560,6,0,L|274:149,1,93.5000028533936,8|0,0:0|0:0,0:0:0:0:
334,341,39871,6,0,P|374:303|477:317,1,152.999995330811,4|8,0:0|0:0,0:0:0:0:
253,281,40338,1,0,0:0:0:0:
253,281,40415,1,0,0:0:0:0:
253,281,40493,2,0,P|212:275|156:263,1,76.4999976654053,0|0,0:0|0:0,0:0:0:0:
87,248,40804,1,8,0:0:0:0:
260,167,40959,6,0,P|266:93|198:35,1,152.999995330811,0|0,0:0|0:0,0:0:0:0:
177,125,41426,1,8,0:0:0:0:
344,208,41581,1,0,0:0:0:0:
344,208,41659,1,0,0:0:0:0:
344,208,41737,2,0,P|385:202|441:190,1,76.4999976654053,0|0,0:0|0:0,0:0:0:0:
259,299,42047,2,0,L|265:261,1,38.2499988327027,8|8,0:0|0:0,0:0:0:0:
354,337,42203,2,0,L|361:375,1,38.2499988327027,8|8,0:0|0:0,0:0:0:0:
225,326,42358,6,0,L|238:249,1,76.4999976654053,4|0,0:0|0:0,0:0:0:0:
261,129,42669,1,8,0:0:0:0:
142,262,42825,1,0,0:0:0:0:
142,262,42902,1,0,0:0:0:0:
142,262,42980,2,0,P|102:224|-1:238,1,152.999995330811,0|8,0:0|0:0,0:0:0:0:
63,304,43446,1,0,0:0:0:0:
230,223,43602,5,0,0:0:0:0:
95,167,43757,1,0,0:0:0:0:
183,140,43913,1,12,0:0:0:0:
64,179,44068,1,0,0:0:0:0:
210,104,44224,1,8,0:0:0:0:
26,51,44379,1,8,0:0:0:0:
29,57,44457,1,8,0:0:0:0:
32,63,44534,1,8,0:0:0:0:
35,69,44612,1,8,0:0:0:0:
38,75,44690,1,8,0:0:0:0:
41,81,44768,1,8,0:0:0:0:
44,87,44845,6,0,B|58:142|67:188|67:188|50:253,1,152.999995330811,4|0,0:0|0:0,0:0:0:0:
18,320,45467,1,8,0:0:0:0:
18,320,45778,1,0,0:0:0:0:
144,240,45933,2,0,L|155:309,1,50.9999984436036,2|0,0:0|0:0,0:0:0:0:
228,373,46244,5,2,0:0:0:0:
228,373,46555,1,0,0:0:0:0:
301,292,46711,2,0,L|251:284,1,50.9999984436036,8|0,0:0|0:0,0:0:0:0:
137,206,47022,2,0,L|187:197,1,50.9999984436036,8|0,0:0|0:0,0:0:0:0:
293,66,47332,6,0,L|273:184,1,101.999996887207,4|0,0:0|0:0,0:0:0:0:
257,257,47799,1,0,0:0:0:0:
187,196,47954,2,0,P|181:169|174:125,2,50.9999984436036,10|0|10,0:0|0:0|0:0,0:0:0:0:
244,310,48420,6,0,P|182:303|133:341,1,127.500004863739,4|0,0:0|0:0,0:0:0:0:
61,276,48887,2,0,P|31:286|0:293,2,63.7500024318696,12|0|0,0:0|0:0|0:0,0:0:0:0:
187,196,49353,1,8,0:0:0:0:
187,196,49431,1,8,0:0:0:0:
187,196,49509,1,8,0:0:0:0:
71,149,49664,1,8,0:0:0:0:
71,149,49742,1,8,0:0:0:0:
71,149,49819,6,0,P|24:103|38:2,1,152.999995330811,4|8,0:0|0:0,0:0:0:0:
198,120,50286,1,0,0:0:0:0:
198,120,50363,1,0,0:0:0:0:
198,120,50441,2,0,L|187:196,1,76.4999976654053,0|0,0:0|0:0,0:0:0:0:
171,286,50752,1,8,0:0:0:0:
21,317,50908,6,0,P|95:300|170:286,1,152.999995330811,0|0,0:0|0:0,0:0:0:0:
357,247,51374,1,8,0:0:0:0:
223,206,51529,2,0,L|173:191,2,38.2499988327027
381,254,51840,1,0,0:0:0:0:
256,333,51996,1,8,0:0:0:0:
399,261,52151,6,0,P|385:198|382:170,1,76.4999976654053,4|0,0:0|0:0,0:0:0:0:
269,33,52462,1,8,0:0:0:0:
277,70,52540,1,8,0:0:0:0:
285,107,52617,2,0,P|282:133|274:168,3,38.2499988327027,8|8|8|8,0:0|0:0|0:0|0:0,0:0:0:0:
229,208,52928,5,8,0:0:0:0:
183,215,53006,1,8,0:0:0:0:
140,196,53084,1,8,0:0:0:0:
119,155,53161,1,8,0:0:0:0:
73,145,53239,1,8,0:0:0:0:
30,163,53317,1,8,0:0:0:0:
12,205,53395,1,8,0:0:0:0:
20,249,53472,1,8,0:0:0:0:
52,281,53550,6,0,P|105:273|137:266,1,76.4999976654053,8|0,0:0|0:0,0:0:0:0:
313,209,53861,1,8,0:0:0:0:
313,209,54016,1,8,0:0:0:0:
195,135,54172,1,8,0:0:0:0:
195,135,54327,1,8,0:0:0:0:
292,52,54483,2,0,L|302:104,1,38.2499988327027,8|8,0:0|0:0,0:0:0:0:
195,135,54638,2,0,L|201:94,1,38.2499988327027,8|8,0:0|0:0,0:0:0:0:
216,16,54794,5,8,0:0:0:0:
498,335,55415,6,0,P|448:327|384:314,1,101.999996887207,2|2,0:0|0:0,0:0:0:0:
236,347,55882,6,0,P|319:354|376:296,1,170,4|0,0:0|0:0,0:0:0:0:
418,145,56348,1,8,0:0:0:0:
454,230,56503,1,0,0:0:0:0:
284,269,56659,2,0,P|291:226|298:175,1,85,2|0,0:0|0:0,0:0:0:0:
313,92,56970,1,10,0:0:0:0:
170,189,57125,6,0,P|87:196|30:138,1,170,0|0,0:0|0:0,0:0:0:0:
203,12,57591,2,0,P|208:54|215:96,1,85,8|0,0:0|0:0,0:0:0:0:
246,269,57902,1,0,0:0:0:0:
87,206,58058,1,0,0:0:0:0:
87,206,58135,1,0,0:0:0:0:
87,206,58213,2,0,P|135:200|181:183,1,85,8|0,0:0|0:0,0:0:0:0:
319,59,58524,6,0,P|311:102|304:158,1,85,2|0,0:0|0:0,0:0:0:0:
259,354,58835,2,0,L|246:269,1,85,10|0,0:0|0:0,0:0:0:0:
215,96,59146,1,2,0:0:0:0:
333,233,59301,1,0,0:0:0:0:
185,194,59457,1,8,0:0:0:0:
348,126,59612,6,0,B|411:109|476:95|476:95|440:130,1,170,2|2,0:0|0:0,0:0:0:0:
333,233,60078,1,8,0:0:0:0:
281,47,60234,1,0,0:0:0:0:
281,47,60312,1,0,0:0:0:0:
281,47,60389,1,8,0:0:0:0:
327,207,60545,1,8,0:0:0:0:
372,3,60700,1,8,0:0:0:0:
225,126,60856,6,0,P|239:214|256:312,1,170,4|0,0:0|0:0,0:0:0:0:
415,251,61322,2,0,P|373:243|332:232,1,85,8|0,0:0|0:0,0:0:0:0:
146,331,61633,2,0,P|188:323|229:312,1,85,2|0,0:0|0:0,0:0:0:0:
372,154,61944,2,0,P|313:145|246:204,1,127.5,10|0,0:0|0:0,0:0:0:0:
243,204,62255,6,0,P|231:147|220:95,1,85,0|0,0:0|0:0,0:0:0:0:
317,315,62566,2,0,P|324:273|332:232,1,85,10|0,0:0|0:0,0:0:0:0:
84,271,62876,2,0,P|166:257|228:312,1,170,0|10,0:0|0:0,0:0:0:0:
383,171,63343,1,8,0:0:0:0:
383,171,63420,1,8,0:0:0:0:
383,171,63498,6,0,L|283:192,1,85,6|0,0:0|0:0,0:0:0:0:
141,347,63809,1,10,0:0:0:0:
179,214,63965,1,0,0:0:0:0:
179,214,64042,1,0,0:0:0:0:
179,214,64120,1,10,0:0:0:0:
137,358,64275,1,0,0:0:0:0:
84,160,64431,1,10,0:0:0:0:
134,372,64586,6,0,P|170:337|260:351,1,127.5,4|0,0:0|0:0,0:0:0:0:
259,353,64897,2,0,L|267:312,1,42.5,2|0,0:0|0:0,0:0:0:0:
344,283,65053,2,0,P|336:263|328:243,1,42.5,2|0,0:0|0:0,0:0:0:0:
216,204,65208,2,0,P|238:191|252:180,1,42.5
317,117,65363,5,10,0:0:0:0:
317,117,65441,1,8,0:0:0:0:
317,117,65519,1,8,0:0:0:0:
178,15,65674,1,8,0:0:0:0:
178,15,65752,1,8,0:0:0:0:
178,15,65830,6,0,P|189:76|201:135,1,101.999996887207,8|0,0:0|0:0,0:0:0:0:
390,296,66296,6,0,P|348:286|307:274,1,85,4|0,0:0|0:0,0:0:0:0:
178,209,66607,1,0,0:0:0:0:
236,337,66762,1,0,0:0:0:0:
287,152,66918,1,8,0:0:0:0:
141,312,67073,6,0,P|223:291|307:274,1,170,2|2,0:0|0:0,0:0:0:0:
398,103,67540,2,0,P|382:169|375:206,1,85,8|0,0:0|0:0,0:0:0:0:
380,342,67851,1,0,0:0:0:0:
380,342,67928,1,0,0:0:0:0:
380,342,68006,1,0,0:0:0:0:
496,202,68161,2,0,B|454:209|418:223|418:223|398:220|358:202,1,127.5,10|0,0:0|0:0,0:0:0:0:
350,218,68472,6,0,P|312:199|269:195,1,85,0|0,0:0|0:0,0:0:0:0:
126,121,68783,2,0,P|168:117|206:98,1,85,10|0,0:0|0:0,0:0:0:0:
269,195,69094,1,0,0:0:0:0:
168,249,69249,1,0,0:0:0:0:
266,24,69405,1,10,0:0:0:0:
372,132,69560,6,0,L|206:98,1,170,4|0,0:0|0:0,0:0:0:0:
63,9,70027,2,0,P|70:37|79:71,1,42.5,10|0,0:0|0:0,0:0:0:0:
125,119,70182,2,0,P|112:143|98:168,1,42.5,2|0,0:0|0:0,0:0:0:0:
18,215,70338,2,0,P|49:230|79:245,1,42.5
143,273,70493,5,10,0:0:0:0:
143,273,70571,1,8,0:0:0:0:
143,273,70648,1,8,0:0:0:0:
1,373,70804,1,8,0:0:0:0:
1,373,70882,1,8,0:0:0:0:
1,373,70959,6,0,P|46:364|111:352,1,93.5000028533936,4|0,0:0|0:0,0:0:0:0:
317,313,71270,1,8,0:0:0:0:
168,182,71426,1,0,0:0:0:0:
168,182,71503,1,0,0:0:0:0:
168,182,71581,1,8,0:0:0:0:
219,376,71737,1,0,0:0:0:0:
219,376,71814,1,0,0:0:0:0:
219,376,71892,1,8,0:0:0:0:
270,221,72047,1,0,0:0:0:0:
52,251,72203,6,0,P|97:264|143:273,1,93.5000028533936,8|0,0:0|0:0,0:0:0:0:
270,221,72514,1,8,0:0:0:0:
134,113,72669,1,0,0:0:0:0:
134,113,72747,1,0,0:0:0:0:
134,113,72825,1,8,0:0:0:0:
235,333,72980,1,0,0:0:0:0:
235,333,73058,1,0,0:0:0:0:
235,333,73135,1,8,0:0:0:0:
123,256,73291,1,0,0:0:0:0:
305,162,73446,6,0,P|297:206|288:253,1,93.5000028533936,4|0,0:0|0:0,0:0:0:0:
340,372,73757,1,8,0:0:0:0:
204,204,73913,1,0,0:0:0:0:
204,204,73990,1,0,0:0:0:0:
204,204,74068,1,8,0:0:0:0:
389,285,74224,1,0,0:0:0:0:
235,333,74379,1,8,0:0:0:0:
362,207,74534,6,0,P|449:227|465:314,1,187.000005706787,4|0,0:0|0:0,0:0:0:0:
219,345,75001,2,0,P|172:336|125:327,1,93.5000028533936,4|0,0:0|0:0,0:0:0:0:
17,211,75312,1,8,0:0:0:0:
50,179,75389,1,8,0:0:0:0:
96,171,75467,1,8,0:0:0:0:
140,184,75545,1,8,0:0:0:0:
177,211,75623,1,8,0:0:0:0:
217,233,75700,1,8,0:0:0:0:
263,233,75778,1,8,0:0:0:0:
304,211,75856,1,8,0:0:0:0:
330,173,75933,5,4,0:0:0:0:
114,146,77954,6,0,L|52:135,1,50.9999984436036
20,63,78110,2,0,P|93:59|145:115,1,152.999995330811,8|0,0:0|0:0,0:0:0:0:
185,190,78420,6,0,P|178:231|171:273,1,85,4|0,0:0|0:0,0:0:0:0:
155,366,78731,1,8,0:0:0:0:
351,232,78887,1,0,0:0:0:0:
351,232,78965,1,0,0:0:0:0:
351,232,79042,2,0,P|309:240|267:249,1,85
82,300,79353,1,8,0:0:0:0:
284,338,79509,6,0,P|268:249|251:160,1,170,2|2,0:0|0:0,0:0:0:0:
190,48,79975,1,8,0:0:0:0:
329,112,80130,1,2,0:0:0:0:
329,112,80208,1,0,0:0:0:0:
329,112,80286,1,0,0:0:0:0:
176,218,80441,1,2,0:0:0:0:
280,195,80597,2,0,P|323:209|365:212,1,85,10|0,0:0|0:0,0:0:0:0:
485,290,80908,6,0,P|442:293|402:306,1,85
459,185,81218,1,8,0:0:0:0:
300,291,81374,1,0,0:0:0:0:
300,291,81452,1,0,0:0:0:0:
300,291,81529,2,0,P|293:333|286:375,1,85
363,212,81840,1,8,0:0:0:0:
177,300,81996,6,0,P|126:282|114:166,1,170,2|2,0:0|0:0,0:0:0:0:
205,48,82462,1,4,0:0:0:0:
176,218,82617,2,0,L|237:227,2,42.5,2|0|0,0:0|0:0|0:0,0:0:0:0:
47,117,82928,1,8,0:0:0:0:
85,98,83006,1,8,0:0:0:0:
127,101,83084,1,8,0:0:0:0:
163,121,83161,1,8,0:0:0:0:
202,136,83239,1,8,0:0:0:0:
244,129,83317,1,8,0:0:0:0:
276,100,83395,6,0,P|268:58|260:16,1,85,4|0,0:0|0:0,0:0:0:0:
372,198,83705,1,8,0:0:0:0:
429,73,83861,1,0,0:0:0:0:
269,206,84016,2,0,P|319:189|374:178,1,85,8|0,0:0|0:0,0:0:0:0:
470,262,84327,1,8,0:0:0:0:
332,373,84483,6,0,P|341:329|353:276,1,85,2|8,0:0|0:0,0:0:0:0:
292,188,84794,1,2,0:0:0:0:
467,244,84949,1,8,0:0:0:0:
251,310,85104,1,2,0:0:0:0:
251,310,85182,1,0,0:0:0:0:
251,310,85260,1,8,0:0:0:0:
208,110,85415,1,2,0:0:0:0:
283,218,85571,1,10,0:0:0:0:
144,199,85726,1,0,0:0:0:0:
264,20,85882,6,0,L|247:118,1,85,4|0,0:0|0:0,0:0:0:0:
213,333,86192,1,8,0:0:0:0:
213,333,86348,1,8,0:0:0:0:
121,159,86503,1,8,0:0:0:0:
283,218,86659,1,8,0:0:0:0:
78,337,86814,1,8,0:0:0:0:
190,368,86970,6,0,L|176:276,1,85,2|8,0:0|0:0,0:0:0:0:
139,68,87281,1,2,0:0:0:0:
253,194,87436,1,0,0:0:0:0:
39,183,87591,2,0,P|80:173|121:159,1,85,4|0,0:0|0:0,0:0:0:0:
253,194,87902,2,0,L|301:203,2,42.5,8|8|8,0:0|0:0|0:0,0:0:0:0:
29,145,88213,5,4,0:0:0:0:
