osu file format v14

[General]
AudioFilename: audio.mp3
AudioLeadIn: 0
PreviewTime: 55415
Countdown: 0
SampleSet: Soft
StackLeniency: 0.5
Mode: 0
LetterboxInBreaks: 0
WidescreenStoryboard: 0

[Editor]
DistanceSpacing: 1
BeatDivisor: 2
GridSize: 32
TimelineZoom: 1

[Metadata]
Title:Choumusubi Amulet (TV Size)
TitleUnicode:蝶結びアミュレット(TV Size)
Artist:Mia REGINA
ArtistUnicode:Mia REGINA
Creator:DreaM117er
Version:Normal
Source:装神少女まとい
Tags:Soushin Shoujo Matoi the Sacred Slayer OP tv size Moecho Moeri m1223961117
BeatmapID:1220571
BeatmapSetID:576534

[Difficulty]
HPDrainRate:4
CircleSize:3.2
OverallDifficulty:3.5
ApproachRate:5
SliderMultiplier:1.2
SliderTickRate:1

[Events]
//Background and Video events
0,0,"BG.jpg",0,0
//Break Periods
2,6496,8360
//Storyboard Layer 0 (Background)
//Storyboard Layer 1 (Fail)
//Storyboard Layer 2 (Pass)
//Storyboard Layer 3 (Foreground)
//Storyboard Sound Samples

[TimingPoints]
79,310.880829015544,4,2,1,40,1,0
700,-133.333333333333,4,2,1,40,0,0
6296,-133.333333333333,4,2,1,10,0,0
9560,-117.647058823529,4,2,1,40,0,0
10027,-117.647058823529,4,2,1,60,0,0
15001,-117.647058823529,4,2,1,50,0,0
24949,-117.647058823529,4,2,1,60,0,0
32410,-117.647058823529,4,2,1,45,0,0
39871,-117.647058823529,4,2,1,60,0,0
44845,-133.333333333333,4,2,1,40,0,0
49353,-133.333333333333,4,2,1,60,0,0
49819,-117.647058823529,4,2,1,60,0,0
54794,-133.333333333333,4,2,1,60,0,0
55882,-117.647058823529,4,2,1,80,0,1
65830,-117.647058823529,4,2,1,80,0,0
66296,-117.647058823529,4,2,1,80,0,1
70804,-117.647058823529,4,2,1,80,0,0
70959,-117.647058823529,4,2,1,80,0,1
75933,-117.647058823529,4,2,1,80,0,0
78420,-117.647058823529,4,2,1,60,0,0

[Colours]
Combo1 : 241,109,202
Combo2 : 251,28,95
Combo3 : 206,55,238

[HitObjects]
240,213,700,6,0,P|248:257|256:301,1,90.0000034332276,2|2,0:0|0:0,0:0:0:0:
269,345,1167,2,0,P|317:301|380:317,1,135.000005149841,4|0,0:0|0:0,0:0:0:0:
468,302,1944,2,0,L|478:201,1,90.0000034332276,2|2,0:0|0:0,0:0:0:0:
480,167,2410,6,0,B|449:193|427:206|427:206|386:198|341:169,1,135.000005149841,0|0,0:0|0:0,0:0:0:0:
309,109,3187,2,0,P|266:137|218:133,1,90.0000034332276,2|2,0:0|0:0,0:0:0:0:
184,58,3809,2,0,P|141:30|93:34,1,90.0000034332276,0|0,0:0|0:0,0:0:0:0:
63,51,4275,1,0,0:0:0:0:
39,89,4431,2,0,P|50:151|61:198,1,90.0000034332276,2|2,0:0|0:0,0:0:0:0:
70,220,4897,5,0,0:0:0:0:
256,192,5053,12,0,6296,0:0:0:0:
372,335,9560,6,0,L|301:322,1,51.0000009727478,0|8,0:0|0:0,0:0:0:0:
221,344,10027,2,0,P|195:308|201:239,1,102.000001945496,4|8,0:0|0:0,0:0:0:0:
284,203,10648,2,0,P|285:152|257:111,1,102.000001945496,0|8,0:0|0:0,0:0:0:0:
211,87,11115,2,0,P|274:68|309:43,2,102.000001945496,2|2|2,0:0|0:0|0:0,0:0:0:0:
118,129,12047,2,0,L|61:118,2,51.0000009727478,2|10|0,0:0|0:0|0:0,0:0:0:0:
152,167,12514,6,0,P|141:218|131:285,1,102.000001945496,0|8,0:0|0:0,0:0:0:0:
173,361,13135,2,0,P|221:331|279:334,1,102.000001945496,0|8,0:0|0:0,0:0:0:0:
313,346,13602,2,0,P|303:295|294:245,1,102.000001945496,2|2,0:0|0:0,0:0:0:0:
231,165,14224,1,2,0:0:0:0:
269,70,14534,2,0,P|328:62|383:45,1,102.000001945496,8|8,0:0|0:0,0:0:0:0:
404,87,15001,6,0,P|453:73|503:67,2,102.000001945496,4|8|0,0:0|0:0|0:0,0:0:0:0:
365,120,15778,1,0,0:0:0:0:
296,195,16089,2,0,P|322:239|322:293,1,102.000001945496,8|0,0:0|0:0,0:0:0:0:
305,337,16555,1,8,0:0:0:0:
206,311,16866,2,0,L|216:251,2,51.0000009727478,0|0|8,0:0|0:0|0:0,0:0:0:0:
117,362,17488,6,0,P|67:350|16:343,2,102.000001945496,0|8|0,0:0|0:0|0:0,0:0:0:0:
162,337,18265,1,0,0:0:0:0:
252,289,18576,1,8,0:0:0:0:
348,322,18887,2,0,L|356:372,2,51.0000009727478,0|8|0,0:0|0:0|0:0,0:0:0:0:
385,287,19353,2,0,P|393:224|403:171,1,102.000001945496,0|8,0:0|0:0,0:0:0:0:
383,85,19975,6,0,P|446:93|490:128,2,102.000001945496,0|8|0,0:0|0:0|0:0,0:0:0:0:
336,105,20752,1,0,0:0:0:0:
269,27,21063,2,0,P|206:42|157:48,1,102.000001945496,8|0,0:0|0:0,0:0:0:0:
117,47,21529,2,0,P|154:94|151:139,1,102.000001945496,8|0,0:0|0:0,0:0:0:0:
109,226,22151,2,0,L|46:214,1,51.0000009727478,8|0,0:0|0:0,0:0:0:0:
22,251,22462,6,0,P|12:200|4:150,2,102.000001945496,0|8|0,0:0|0:0|0:0,0:0:0:0:
33,300,23239,1,0,0:0:0:0:
108,368,23550,1,8,0:0:0:0:
108,368,23705,2,0,P|150:338|226:346,1,102.000001945496,0|8,0:0|0:0,0:0:0:0:
283,277,24327,2,0,L|272:218,2,51.0000009727478,0|8|8,0:0|0:0|0:0,0:0:0:0:
352,352,24949,6,0,P|409:354|444:325,1,102.000001945496,4|8,0:0|0:0,0:0:0:0:
489,236,25571,2,0,P|438:226|388:216,1,102.000001945496,0|8,0:0|0:0,0:0:0:0:
338,209,26037,2,0,P|370:166|362:95,1,102.000001945496,0|0,0:0|0:0,0:0:0:0:
355,70,26503,1,8,0:0:0:0:
264,22,26814,2,0,P|253:86|247:133,1,102.000001945496,0|8,0:0|0:0,0:0:0:0:
149,148,27436,6,0,P|157:97|164:47,1,102.000001945496,0|8,0:0|0:0,0:0:0:0:
64,68,28058,2,0,P|55:118|48:168,1,102.000001945496,0|8,0:0|0:0,0:0:0:0:
6,198,28524,2,0,P|40:251|35:293,1,102.000001945496,0|0,0:0|0:0,0:0:0:0:
19,335,28990,1,8,0:0:0:0:
114,369,29301,2,0,P|183:358|225:349,1,102.000001945496,8|8,0:0|0:0,0:0:0:0:
302,299,29923,5,4,0:0:0:0:
394,341,30234,1,8,0:0:0:0:
477,282,30545,2,0,P|499:235|483:180,1,102.000001945496,0|8,0:0|0:0,0:0:0:0:
409,123,31167,2,0,P|394:59|391:15,2,102.000001945496,0|8|0,0:0|0:0|0:0,0:0:0:0:
364,214,32099,2,0,L|355:281,2,51.0000009727478,8|8|12,0:0|0:0|0:0,0:0:0:0:
98,291,33654,5,4,0:0:0:0:
25,219,33965,1,8,0:0:0:0:
62,124,34275,2,0,P|114:121|161:147,1,102.000001945496,8|0,0:0|0:0,0:0:0:0:
228,217,34897,6,0,P|236:167|245:117,2,102.000001945496,4|0|0,0:0|0:0|0:0,0:0:0:0:
265,253,35674,2,0,L|276:311,1,51.0000009727478,2|2,0:0|0:0,0:0:0:0:
286,352,35985,2,0,P|327:320|384:324,1,102.000001945496
470,360,36607,2,0,P|457:277|453:245,1,102.000001945496,0|2,0:0|0:0,0:0:0:0:
415,225,37073,2,0,P|419:197|420:158,1,51.0000009727478,12|0,0:0|0:0,0:0:0:0:
395,129,37384,6,0,P|445:130|489:91,2,102.000001945496,0|2|0,0:0|0:0|0:0,0:0:0:0:
326,53,38317,1,2,0:0:0:0:
326,53,38472,2,0,P|276:45|212:32,1,102.000001945496,2|0,0:0|0:0,0:0:0:0:
175,22,38939,2,0,L|183:73,1,51.0000009727478,2|2,0:0|0:0,0:0:0:0:
175,122,39249,2,0,P|131:96|81:98,1,102.000001945496,0|8,0:0|0:0,0:0:0:0:
11,173,39871,6,0,P|19:222|36:293,1,102.000001945496,4|8,0:0|0:0,0:0:0:0:
98,350,40493,1,0,0:0:0:0:
179,288,40804,1,8,0:0:0:0:
179,288,40959,2,0,P|231:275|285:269,1,102.000001945496,0|0,0:0|0:0,0:0:0:0:
323,296,41426,1,8,0:0:0:0:
371,312,41581,2,0,P|428:308|463:268,1,102.000001945496,0|0,0:0|0:0,0:0:0:0:
479,231,42047,1,8,0:0:0:0:
444,134,42358,5,4,0:0:0:0:
444,134,42514,2,0,L|435:77,2,51.0000009727478,0|8|0,0:0|0:0|0:0,0:0:0:0:
413,175,42980,2,0,P|357:168|303:157,1,102.000001945496,0|8,0:0|0:0,0:0:0:0:
232,94,43602,2,0,L|240:43,2,51.0000009727478,0|0|12,0:0|0:0|0:0,0:0:0:0:
174,178,44224,1,8,0:0:0:0:
174,178,44379,2,0,P|123:179|82:151,1,102.000001945496,8|8,0:0|0:0,0:0:0:0:
51,118,44845,6,0,B|63:188|68:236|68:236|59:265|45:292,1,180.000006866455,4|8,0:0|0:0,0:0:0:0:
102,362,45778,1,0,0:0:0:0:
102,362,45933,2,0,P|170:339|221:343,1,90.0000034332277,2|2,0:0|0:0,0:0:0:0:
270,303,46555,1,0,0:0:0:0:
270,303,46711,2,0,P|314:329|367:324,1,90.0000034332277,8|8,0:0|0:0,0:0:0:0:
440,342,47332,6,0,P|432:282|422:190,1,135.000005149841,4|0,0:0|0:0,0:0:0:0:
385,184,47954,2,0,P|392:135|399:80,1,90.0000034332277,10|10,0:0|0:0,0:0:0:0:
404,52,48420,1,4,0:0:0:0:
319,19,48731,1,0,0:0:0:0:
319,19,48887,2,0,P|312:68|305:123,1,90.0000034332277,12|0,0:0|0:0,0:0:0:0:
275,140,49353,2,0,P|300:189|293:239,1,90.0000034332277,8|8,0:0|0:0,0:0:0:0:
284,266,49819,6,0,P|332:271|389:293,2,102.000001945496,4|8|0,0:0|0:0|0:0,0:0:0:0:
188,231,50752,1,8,0:0:0:0:
188,231,50908,2,0,P|126:266|82:252,1,102.000001945496,0|0,0:0|0:0,0:0:0:0:
56,233,51374,1,8,0:0:0:0:
53,131,51685,2,0,P|115:96|159:110,1,102.000001945496,0|8,0:0|0:0,0:0:0:0:
185,127,52151,1,4,0:0:0:0:
256,192,52306,12,0,54794,0:0:0:0:
356,111,55882,6,0,P|293:79|251:86,1,102.000001945496,4|0,0:0|0:0,0:0:0:0:
224,114,56348,1,8,0:0:0:0:
150,185,56659,2,0,P|99:183|57:155,1,102.000001945496,2|10,0:0|0:0,0:0:0:0:
26,114,57125,2,0,P|18:183|10:229,1,102.000001945496,0|0,0:0|0:0,0:0:0:0:
5,265,57591,1,8,0:0:0:0:
88,322,57902,2,0,L|96:382,2,51.0000009727478,0|0|8,0:0|0:0|0:0,0:0:0:0:
154,244,58524,6,0,P|218:253|265:271,2,102.000001945496,2|10|2,0:0|0:0|0:0,0:0:0:0:
107,152,59457,1,8,0:0:0:0:
107,152,59612,2,0,P|180:138|235:118,1,102.000001945496,2|2,0:0|0:0,0:0:0:0:
242,93,60078,2,0,P|296:128|339:122,1,102.000001945496,8|8,0:0|0:0,0:0:0:0:
371,92,60545,2,0,P|399:86|432:82,1,51.0000009727478,8|8,0:0|0:0,0:0:0:0:
472,85,60856,6,0,P|463:139|457:206,1,102.000001945496,4|0,0:0|0:0,0:0:0:0:
449,236,61322,1,8,0:0:0:0:
410,330,61633,1,2,0:0:0:0:
320,280,61944,1,10,0:0:0:0:
227,323,62255,2,0,P|173:322|115:289,2,102.000001945496,0|10|0,0:0|0:0|0:0,0:0:0:0:
320,280,63187,2,0,L|310:217,1,51.0000009727478,10|8,0:0|0:0,0:0:0:0:
281,188,63498,6,0,P|308:146|305:91,1,102.000001945496,6|10,0:0|0:0,0:0:0:0:
236,21,64120,1,10,0:0:0:0:
136,44,64431,1,10,0:0:0:0:
136,44,64586,2,0,P|86:33|35:25,2,102.000001945496,4|0|0,0:0|0:0|0:0,0:0:0:0:
172,79,65363,1,8,0:0:0:0:
212,172,65674,1,8,0:0:0:0:
212,172,65830,2,0,P|198:240|192:284,1,102.000001945496
186,322,66296,6,0,P|235:294|305:304,1,102.000001945496,4|0,0:0|0:0,0:0:0:0:
313,331,66762,2,0,L|378:343,1,51.0000009727478,0|8,0:0|0:0,0:0:0:0:
412,353,67073,2,0,P|404:302|396:231,1,102.000001945496,2|2,0:0|0:0,0:0:0:0:
392,200,67540,1,8,0:0:0:0:
411,99,67851,2,0,L|478:88,2,51.0000009727478,0|0|10,0:0|0:0|0:0,0:0:0:0:
315,63,68472,6,0,P|248:54|202:41,1,102.000001945496,0|10,0:0|0:0,0:0:0:0:
118,11,69094,1,0,0:0:0:0:
42,79,69405,1,10,0:0:0:0:
42,79,69560,2,0,P|54:134|63:187,1,102.000001945496,4|0,0:0|0:0,0:0:0:0:
70,229,70027,1,10,0:0:0:0:
51,329,70338,2,0,L|-12:342,2,51.0000009727478,0|8|8,0:0|0:0|0:0,0:0:0:0:
148,300,70959,6,0,P|186:328|261:320,1,102.000001945496,4|8,0:0|0:0,0:0:0:0:
282,301,71426,1,0,0:0:0:0:
310,259,71581,2,0,P|303:208|293:158,1,102.000001945496,8|8,0:0|0:0,0:0:0:0:
334,64,72203,2,0,P|379:33|433:39,1,102.000001945496,8|8,0:0|0:0,0:0:0:0:
466,64,72669,1,0,0:0:0:0:
489,109,72825,2,0,P|479:159|472:209,1,102.000001945496,8|8,0:0|0:0,0:0:0:0:
472,311,73446,6,0,P|410:299|357:290,1,102.000001945496,4|8,0:0|0:0,0:0:0:0:
281,244,74068,1,8,0:0:0:0:
213,320,74379,1,8,0:0:0:0:
213,320,74534,2,0,P|165:349|117:343,1,102.000001945496,4|0,0:0|0:0,0:0:0:0:
77,317,75001,1,12,0:0:0:0:
21,231,75312,6,0,B|12:171|57:140|57:140|114:148|132:198,1,204.000003890991,8|4,0:0|0:0,0:0:0:0:
140,335,77954,6,0,L|211:322,1,51.0000009727478,0|8,0:0|0:0,0:0:0:0:
291,344,78420,2,0,P|317:308|311:239,1,102.000001945496,4|8,0:0|0:0,0:0:0:0:
228,203,79042,2,0,P|227:152|255:111,1,102.000001945496,0|8,0:0|0:0,0:0:0:0:
301,87,79509,2,0,P|238:68|203:43,2,102.000001945496,2|2|2,0:0|0:0|0:0,0:0:0:0:
394,129,80441,2,0,L|451:118,2,51.0000009727478,2|10|0,0:0|0:0|0:0,0:0:0:0:
360,167,80908,6,0,P|371:218|381:285,1,102.000001945496,0|8,0:0|0:0,0:0:0:0:
339,361,81529,2,0,P|291:331|233:334,1,102.000001945496,0|8,0:0|0:0,0:0:0:0:
199,346,81996,2,0,P|209:295|218:245,1,102.000001945496,2|2,0:0|0:0,0:0:0:0:
281,165,82617,1,2,0:0:0:0:
243,70,82928,2,0,P|184:62|129:45,1,102.000001945496,8|0,0:0|0:0,0:0:0:0:
108,87,83395,6,0,P|59:73|9:67,2,102.000001945496,12|8|8,0:0|0:0|0:0,0:0:0:0:
186,151,84327,1,8,0:0:0:0:
186,151,84483,2,0,P|154:208|163:261,1,102.000001945496,2|2,0:0|0:0,0:0:0:0:
213,327,85104,2,0,L|274:319,1,51.0000009727478,2|8,0:0|0:0,0:0:0:0:
292,278,85415,2,0,L|357:289,2,51.0000009727478,2|10|0,0:0|0:0|0:0,0:0:0:0:
256,192,85882,12,4,88213,0:0:0:0:
