osu file format v14

[General]
AudioFilename: audio.mp3
AudioLeadIn: 0
PreviewTime: 55415
Countdown: 0
SampleSet: Soft
StackLeniency: 0.5
Mode: 0
LetterboxInBreaks: 0
WidescreenStoryboard: 0

[Editor]
DistanceSpacing: 1.3
BeatDivisor: 4
GridSize: 32
TimelineZoom: 1.4

[Metadata]
Title:Choumusubi Amulet (TV Size)
TitleUnicode:蝶結びアミュレット(TV Size)
Artist:Mia REGINA
ArtistUnicode:Mia REGINA
Creator:DreaM117er
Version:Hard
Source:装神少女まとい
Tags:Soushin Shoujo Matoi the Sacred Slayer OP tv size Moecho Moeri m1223961117
BeatmapID:1220549
BeatmapSetID:576534

[Difficulty]
HPDrainRate:5
CircleSize:4
OverallDifficulty:6
ApproachRate:8
SliderMultiplier:1.5
SliderTickRate:1

[Events]
//Background and Video events
0,0,"BG.jpg",0,0
//Break Periods
2,6496,8783
//Storyboard Layer 0 (Background)
//Storyboard Layer 1 (Fail)
//Storyboard Layer 2 (Pass)
//Storyboard Layer 3 (Foreground)
//Storyboard Sound Samples

[TimingPoints]
79,310.880829015544,4,2,1,40,1,0
700,-166.666666666667,4,2,1,40,0,0
6296,-166.666666666667,4,2,1,10,0,0
9560,-100,4,2,1,40,0,0
9949,-100,4,2,1,10,0,0
10027,-100,4,2,1,60,0,0
15001,-111.111111111111,4,2,1,50,0,0
24949,-100,4,2,1,60,0,0
29845,-100,4,2,1,10,0,0
29923,-100,4,2,1,60,0,0
32410,-133.333333333333,4,2,1,45,0,0
39871,-111.111111111111,4,2,1,60,0,0
44845,-166.666666666666,4,2,1,40,0,0
48420,-133.333333333333,4,2,1,40,0,0
49353,-111.111111111111,4,2,1,60,0,0
54794,-166.666666666666,4,2,1,60,0,0
55882,-100,4,2,1,80,0,1
65830,-166.666666666667,4,2,1,80,0,0
66296,-100,4,2,1,80,0,1
70804,-100,4,2,1,80,0,0
70959,-100,4,2,1,80,0,1
75933,-100,4,2,1,80,0,0
78343,-100,4,2,1,10,0,0
78420,-100,4,2,1,60,0,0

[Colours]
Combo1 : 241,109,202
Combo2 : 251,28,95
Combo3 : 206,55,238

[HitObjects]
406,136,700,6,0,P|371:130|303:111,1,89.9999972534181,2|2,0:0|0:0,0:0:0:0:
289,197,1167,6,0,P|356:211|436:230,1,134.999995880127,4|0,0:0|0:0,0:0:0:0:
468,291,1788,1,0,0:0:0:0:
420,357,1944,2,0,P|386:359|332:314,1,89.9999972534181,2|2,0:0|0:0,0:0:0:0:
258,348,2410,6,0,P|267:305|285:209,1,134.999995880127
300,131,3032,1,0,0:0:0:0:
300,131,3187,1,2,0:0:0:0:
193,264,3498,1,2,0:0:0:0:
366,193,3809,6,0,P|401:185|471:174,1,89.9999972534181
216,162,4431,2,0,P|181:154|111:143,1,89.9999972534181,2|2,0:0|0:0,0:0:0:0:
47,175,4897,1,0,0:0:0:0:
256,192,4975,12,0,6296,0:0:0:0:
347,275,9560,5,0,0:0:0:0:
347,275,9716,2,0,P|395:276|444:231,1,112.5,8|0,0:0|0:0,0:0:0:0:
441,235,10027,6,0,P|435:183|429:151,1,75,4|0,0:0|0:0,0:0:0:0:
414,80,10338,1,8,0:0:0:0:
317,33,10493,1,0,0:0:0:0:
317,33,10648,2,0,P|323:85|329:117,1,75
354,195,10959,1,8,0:0:0:0:
354,195,11115,6,0,P|325:157|212:166,1,150,2|2,0:0|0:0,0:0:0:0:
163,202,11581,1,8,0:0:0:0:
183,282,11737,2,0,L|195:343,2,37.5,2|0|0,0:0|0:0|0:0,0:0:0:0:
163,202,12047,1,2,0:0:0:0:
102,260,12203,2,0,P|91:295|84:332,1,75,10|0,0:0|0:0,0:0:0:0:
79,180,12514,6,0,P|27:189|-10:200,2,75,0|0|8,0:0|0:0|0:0,0:0:0:0:
146,107,12980,1,0,0:0:0:0:
146,107,13135,2,0,P|109:103|67:80,1,75
206,40,13446,1,8,0:0:0:0:
206,40,13602,6,0,P|196:107|183:198,1,150,2|2,0:0|0:0,0:0:0:0:
168,269,14068,1,8,0:0:0:0:
92,236,14224,2,0,L|41:218,2,37.5,2|0|0,0:0|0:0|0:0,0:0:0:0:
91,323,14534,2,0,L|42:350,2,37.5,8|8|8,0:0|0:0|0:0,0:0:0:0:
176,352,14845,1,8,0:0:0:0:
176,352,14923,1,8,0:0:0:0:
176,352,15001,6,0,P|214:343|256:337,1,67.4999979400635,4|0,0:0|0:0,0:0:0:0:
313,300,15312,2,0,P|339:331|434:332,1,134.999995880127,8|0,0:0|0:0,0:0:0:0:
509,334,15778,2,0,P|501:283|494:249,1,67.4999979400635
501,186,16089,6,0,P|453:192|363:208,1,134.999995880127,8|0,0:0|0:0,0:0:0:0:
279,118,16555,2,0,P|312:123|346:128,1,67.4999979400635,8|0,0:0|0:0,0:0:0:0:
282,204,16866,1,0,0:0:0:0:
282,204,17022,1,0,0:0:0:0:
210,167,17177,2,0,P|176:161|143:157,1,67.4999979400635,8|0,0:0|0:0,0:0:0:0:
66,131,17488,6,0,P|35:93|41:4,2,134.999995880127,0|8|0,0:0|0:0|0:0,0:0:0:0:
133,175,18265,2,0,P|115:212|115:248,1,67.4999979400635
202,298,18576,6,0,P|198:265|194:232,1,67.4999979400635,8|0,0:0|0:0,0:0:0:0:
258,181,18887,2,0,P|262:147|266:114,2,67.4999979400635,0|8|0,0:0|0:0|0:0,0:0:0:0:
192,80,19353,2,0,P|226:44|324:56,1,134.999995880127,0|8,0:0|0:0,0:0:0:0:
373,90,19819,1,0,0:0:0:0:
406,164,19975,6,0,P|398:223|386:317,1,134.999995880127,0|8,0:0|0:0,0:0:0:0:
489,362,20441,2,0,P|458:374|426:369,1,67.4999979400635
321,310,20752,2,0,P|354:303|388:297,1,67.4999979400635
487,200,21063,6,0,P|420:212|354:223,1,134.999995880127,8|0,0:0|0:0,0:0:0:0:
283,184,21529,2,0,P|268:151|268:108,1,67.4999979400635,8|0,0:0|0:0,0:0:0:0:
355,63,21840,2,0,P|351:96|346:130,1,67.4999979400635
283,184,22151,1,8,0:0:0:0:
220,235,22306,1,0,0:0:0:0:
220,235,22462,6,0,P|185:200|91:198,2,134.999995880127,0|8|0,0:0|0:0|0:0,0:0:0:0:
294,268,23239,2,0,P|285:315|282:341,1,67.4999979400635
220,235,23550,1,8,0:0:0:0:
242,157,23705,6,0,P|275:161|308:168,1,67.4999979400635
387,214,24016,1,8,0:0:0:0:
387,214,24327,1,0,0:0:0:0:
448,155,24483,2,0,L|443:121,4,33.7499989700318,8|8|8|8|8,0:0|0:0|0:0|0:0|0:0,0:0:0:0:
490,44,24949,6,0,P|444:37|335:16,1,150,4|8,0:0|0:0,0:0:0:0:
273,63,25415,1,0,0:0:0:0:
273,63,25571,2,0,P|225:71|188:80,1,75
131,29,25882,1,8,0:0:0:0:
181,94,26037,6,0,P|199:141|212:248,1,150
199,321,26503,1,8,0:0:0:0:
281,371,26659,1,0,0:0:0:0:
281,371,26737,1,0,0:0:0:0:
281,371,26814,2,0,P|321:364|367:354,2,75,0|0|8,0:0|0:0|0:0,0:0:0:0:
199,321,27281,1,0,0:0:0:0:
199,321,27436,6,0,P|133:335|66:265,1,150,0|8,0:0|0:0,0:0:0:0:
6,236,27902,1,0,0:0:0:0:
6,236,28058,2,0,P|12:193|16:150,1,75
106,82,28369,1,8,0:0:0:0:
106,82,28524,6,0,P|100:125|96:168,1,75
171,225,28835,1,0,0:0:0:0:
171,225,28990,2,0,P|177:182|181:139,1,75,8|0,0:0|0:0,0:0:0:0:
207,46,29301,2,0,L|196:-6,2,37.5,8|8|8,0:0|0:0|0:0,0:0:0:0:
258,116,29612,2,0,B|276:128|295:135|295:135|340:129|384:91,1,112.5,8|0,0:0|0:0,0:0:0:0:
360,109,29923,6,0,P|322:151|323:250,1,150,4|8,0:0|0:0,0:0:0:0:
376,300,30389,2,0,P|428:287|462:280,1,75
468,176,30700,2,0,P|432:185|396:193,1,75,0|8,0:0|0:0,0:0:0:0:
318,240,31011,1,0,0:0:0:0:
246,284,31167,6,0,P|190:271|79:253,2,150,0|8|0,0:0|0:0|0:0,0:0:0:0:
318,240,31944,1,0,0:0:0:0:
301,159,32099,1,8,0:0:0:0:
218,151,32255,2,0,L|170:161,2,37.5,8|8|12,0:0|0:0|0:0,0:0:0:0:
146,352,33654,5,4,0:0:0:0:
277,319,33965,1,8,0:0:0:0:
407,285,34275,2,0,L|448:277,4,28.1250010728836,8|8|8|8|0,0:0|0:0|0:0|0:0|0:0,0:0:0:0:
280,198,34897,6,0,P|240:193|160:173,2,112.500004291535,4|0|0,0:0|0:0|0:0,0:0:0:0:
353,251,35674,1,2,0:0:0:0:
353,251,35830,1,2,0:0:0:0:
360,166,35985,6,0,P|392:142|472:136,2,112.500004291535
314,237,36762,1,2,0:0:0:0:
358,318,36918,1,2,0:0:0:0:
358,318,37073,2,0,P|402:311|424:303,1,56.2500021457673,12|0,0:0|0:0,0:0:0:0:
494,211,37384,6,0,P|466:214|439:222,1,56.2500021457673,0|2,0:0|0:0,0:0:0:0:
360,166,37695,2,0,P|308:176|254:139,2,112.500004291535,2|0|2,0:0|0:0|0:0,0:0:0:0:
424,111,38472,1,2,0:0:0:0:
424,111,38783,6,0,L|483:127,2,56.2500021457673,0|2|2,0:0|0:0|0:0,0:0:0:0:
343,85,39249,2,0,P|351:138|363:222,1,112.500004291535,0|8,0:0|0:0,0:0:0:0:
467,355,39871,6,0,P|476:285|487:214,1,134.999995880127,4|8,0:0|0:0,0:0:0:0:
498,133,40338,1,0,0:0:0:0:
498,133,40493,2,0,P|449:142|424:153,1,67.4999979400635
359,196,40804,1,8,0:0:0:0:
331,112,40959,6,0,P|286:106|180:85,1,134.999995880127
113,115,41426,1,8,0:0:0:0:
93,200,41581,1,0,0:0:0:0:
93,200,41659,1,0,0:0:0:0:
93,200,41737,2,0,P|103:244|111:286,1,67.4999979400635
180,314,42047,2,0,L|174:353,2,33.7499989700318,8|8|8,0:0|0:0|0:0,0:0:0:0:
200,228,42358,5,4,0:0:0:0:
262,289,42514,2,0,P|300:306|337:305,1,67.4999979400635,0|8,0:0|0:0,0:0:0:0:
407,338,42825,1,0,0:0:0:0:
407,338,42980,2,0,P|424:300|423:263,1,67.4999979400635
402,189,43291,2,0,P|369:196|335:201,1,67.4999979400635,8|0,0:0|0:0,0:0:0:0:
286,129,43602,5,0,0:0:0:0:
286,129,43757,1,0,0:0:0:0:
329,52,43913,1,12,0:0:0:0:
329,52,44068,1,0,0:0:0:0:
414,32,44224,1,8,0:0:0:0:
414,32,44379,1,8,0:0:0:0:
486,80,44534,2,0,L|477:139,3,33.7499989700318,8|8|8|8,0:0|0:0|0:0|0:0,0:0:0:0:
458,132,44845,6,0,B|478:175|483:220|483:220|474:248|462:273,1,134.999995880127,4|0,0:0|0:0,0:0:0:0:
426,330,45467,1,8,0:0:0:0:
426,330,45778,1,0,0:0:0:0:
363,278,45933,6,0,P|328:261|274:256,2,89.9999972534181,2|2|0,0:0|0:0|0:0,0:0:0:0:
404,207,46711,2,0,P|392:166|384:108,1,89.9999972534181,8|8,0:0|0:0,0:0:0:0:
408,41,47177,1,0,0:0:0:0:
353,106,47332,6,0,P|316:111|271:87,1,89.9999972534181,4|0,0:0|0:0,0:0:0:0:
223,14,47799,1,0,0:0:0:0:
144,46,47954,1,8,0:0:0:0:
144,46,48265,1,8,0:0:0:0:
190,119,48420,6,0,P|179:174|165:228,1,112.500004291535,4|0,0:0|0:0,0:0:0:0:
84,269,48887,2,0,P|61:269|29:281,2,56.2500021457673,12|0|0,0:0|0:0|0:0,0:0:0:0:
123,348,49353,2,0,L|113:397,2,33.7499989700318,8|8|8,0:0|0:0|0:0,0:0:0:0:
209,309,49664,1,8,0:0:0:0:
209,309,49742,1,8,0:0:0:0:
209,309,49819,6,0,P|199:242|187:159,1,134.999995880127,4|8,0:0|0:0,0:0:0:0:
260,122,50286,1,0,0:0:0:0:
260,122,50441,2,0,P|265:77|269:50,2,67.4999979400635,0|0|8,0:0|0:0|0:0,0:0:0:0:
277,211,50908,6,0,P|312:178|403:179,1,134.999995880127
507,260,51374,2,0,P|473:258|441:249,1,67.4999979400635,8|0,0:0|0:0,0:0:0:0:
373,306,51685,1,0,0:0:0:0:
373,306,51840,2,0,P|340:297|306:295,1,67.4999979400635,0|8,0:0|0:0,0:0:0:0:
224,326,52151,5,4,0:0:0:0:
256,192,52229,12,0,54794,0:0:0:0:
106,248,55415,6,0,L|209:273,1,89.9999972534181,2|2,0:0|0:0,0:0:0:0:
272,312,55882,6,0,P|319:268|415:282,1,150,4|0,0:0|0:0,0:0:0:0:
473,325,56348,1,8,0:0:0:0:
473,325,56503,1,0,0:0:0:0:
427,247,56659,2,0,P|421:206|413:148,2,75,2|0|10,0:0|0:0|0:0,0:0:0:0:
354,349,57125,6,0,P|345:293|329:188,1,150
314,111,57591,2,0,P|265:157|175:142,1,150,8|0,0:0|0:0,0:0:0:0:
131,78,58058,1,0,0:0:0:0:
131,78,58213,2,0,L|143:165,1,75,8|0,0:0|0:0,0:0:0:0:
107,257,58524,6,0,L|117:182,1,75,2|0,0:0|0:0,0:0:0:0:
281,91,58835,2,0,P|243:87|209:74,1,75,10|0,0:0|0:0,0:0:0:0:
33,120,59146,2,0,P|70:115|105:102,1,75,2|0,0:0|0:0,0:0:0:0:
190,44,59457,1,8,0:0:0:0:
190,44,59612,6,0,P|181:111|170:206,1,150,2|2,0:0|0:0,0:0:0:0:
221,267,60078,2,0,B|263:234|312:222|312:222|336:224|357:236,1,150,8|8,0:0|0:0,0:0:0:0:
426,295,60545,1,8,0:0:0:0:
426,295,60700,1,8,0:0:0:0:
298,348,60856,6,0,P|289:273|279:199,1,150,4|0,0:0|0:0,0:0:0:0:
264,110,61322,1,8,0:0:0:0:
264,110,61633,2,0,P|325:125|353:130,1,75,2|0,0:0|0:0,0:0:0:0:
398,19,61944,2,0,P|362:27|326:37,1,75,10|0,0:0|0:0,0:0:0:0:
345,172,62255,6,0,P|413:156|494:136,2,150,0|10|0,0:0|0:0|0:0,0:0:0:0:
272,226,63032,1,0,0:0:0:0:
186,197,63187,1,10,0:0:0:0:
165,108,63343,1,8,0:0:0:0:
165,108,63420,1,8,0:0:0:0:
165,108,63498,6,0,P|175:58|181:13,1,75,6|0,0:0|0:0,0:0:0:0:
290,132,63809,2,0,P|280:182|274:227,1,75,10|0,0:0|0:0,0:0:0:0:
172,270,64120,2,0,P|180:234|186:197,1,75,10|0,0:0|0:0,0:0:0:0:
264,315,64431,1,10,0:0:0:0:
186,359,64586,6,0,P|108:343|29:328,1,150,4|2,0:0|0:0,0:0:0:0:
98,254,65053,2,0,P|135:263|172:270,1,75,2|0,0:0|0:0,0:0:0:0:
264,315,65363,2,0,P|259:294|254:274,2,37.5,8|8|8,0:0|0:0|0:0,0:0:0:0:
348,346,65674,1,8,0:0:0:0:
348,346,65752,1,8,0:0:0:0:
348,346,65830,6,0,L|366:246,1,89.9999972534181,8|0,0:0|0:0,0:0:0:0:
432,197,66296,6,0,P|393:150|405:47,1,150,4|0,0:0|0:0,0:0:0:0:
463,6,66762,1,0,0:0:0:0:
479,94,66918,1,8,0:0:0:0:
394,64,67073,6,0,P|321:50|246:38,1,150,2|2,0:0|0:0,0:0:0:0:
111,118,67540,2,0,L|185:105,1,75,8|0,0:0|0:0,0:0:0:0:
261,151,67851,2,0,L|248:205,2,37.5
347,228,68161,2,0,L|273:214,1,75,10|0,0:0|0:0,0:0:0:0:
160,186,68472,6,0,L|176:268,1,75
81,373,68783,2,0,L|95:299,1,75,10|0,0:0|0:0,0:0:0:0:
129,156,69094,2,0,B|110:166|82:170|82:170|35:158|-4:108,1,150,0|10,0:0|0:0,0:0:0:0:
107,24,69560,6,0,B|125:14|154:10|154:10|201:22|235:67,1,150,4|0,0:0|0:0,0:0:0:0:
308,157,70027,2,0,P|316:120|324:84,1,75,10|0,0:0|0:0,0:0:0:0:
216,156,70338,1,0,0:0:0:0:
256,236,70493,2,0,L|308:246,2,37.5,8|8|8,0:0|0:0|0:0,0:0:0:0:
179,283,70804,1,8,0:0:0:0:
179,283,70882,1,8,0:0:0:0:
179,283,70959,6,0,P|133:291|79:304,1,75,4|0,0:0|0:0,0:0:0:0:
13,245,71270,1,8,0:0:0:0:
106,195,71426,2,0,L|98:158,2,37.5,0|0|8,0:0|0:0|0:0,0:0:0:0:
200,148,71737,2,0,L|192:111,2,37.5,0|0|8,0:0|0:0|0:0,0:0:0:0:
293,100,72047,1,0,0:0:0:0:
293,100,72203,6,0,L|272:0,1,75,8|0,0:0|0:0,0:0:0:0:
200,148,72514,1,8,0:0:0:0:
289,202,72669,2,0,L|281:239,2,37.5,0|0|8,0:0|0:0|0:0,0:0:0:0:
378,257,72980,2,0,L|370:294,2,37.5,0|0|8,0:0|0:0|0:0,0:0:0:0:
466,314,73291,1,0,0:0:0:0:
466,314,73446,6,0,L|479:238,1,75,4|0,0:0|0:0,0:0:0:0:
362,146,73757,2,0,L|375:220,1,75,8|0,0:0|0:0,0:0:0:0:
245,344,74068,2,0,L|257:270,1,75,8|0,0:0|0:0,0:0:0:0:
284,119,74379,1,8,0:0:0:0:
284,119,74534,6,0,P|246:153|151:144,1,150,4|0,0:0|0:0,0:0:0:0:
44,26,75001,2,0,P|51:63|56:100,1,75,12|0,0:0|0:0,0:0:0:0:
22,201,75312,2,0,L|14:248,3,37.5,8|8|8|8,0:0|0:0|0:0|0:0,0:0:0:0:
52,256,75623,2,0,L|60:303,3,37.5,8|8|8|8,0:0|0:0|0:0|0:0,0:0:0:0:
47,332,75933,5,4,0:0:0:0:
165,109,77954,5,0,0:0:0:0:
165,109,78110,2,0,P|117:108|68:153,1,112.5,8|0,0:0|0:0,0:0:0:0:
71,149,78420,6,0,P|77:201|83:233,1,75,4|0,0:0|0:0,0:0:0:0:
98,304,78731,1,8,0:0:0:0:
191,342,78887,1,0,0:0:0:0:
191,342,79042,2,0,P|185:290|179:258,1,75
158,189,79353,1,8,0:0:0:0:
158,189,79509,6,0,P|187:227|300:218,1,150,2|2,0:0|0:0,0:0:0:0:
349,182,79975,1,8,0:0:0:0:
329,102,80130,2,0,L|317:41,2,37.5,2|0|0,0:0|0:0|0:0,0:0:0:0:
349,182,80441,1,2,0:0:0:0:
410,124,80597,2,0,P|421:89|428:52,1,75,10|0,0:0|0:0,0:0:0:0:
433,204,80908,6,0,P|485:195|522:184,2,75,0|0|8,0:0|0:0|0:0,0:0:0:0:
366,277,81374,1,0,0:0:0:0:
366,277,81529,2,0,P|326:269|286:263,1,75
220,317,81840,1,8,0:0:0:0:
220,317,81996,6,0,P|161:361|88:357,1,150,2|2,0:0|0:0,0:0:0:0:
19,300,82462,1,4,0:0:0:0:
60,220,82617,2,0,L|48:159,2,37.5,2|0|0,0:0|0:0|0:0,0:0:0:0:
156,185,82928,2,0,L|165:127,2,37.5,8|8|8,0:0|0:0|0:0,0:0:0:0:
136,273,83239,1,0,0:0:0:0:
237,322,83395,6,0,P|230:285|223:249,1,75,12|0,0:0|0:0,0:0:0:0:
296,162,83705,2,0,P|303:199|311:236,1,75,8|0,0:0|0:0,0:0:0:0:
346,354,84016,2,0,P|384:325|500:321,1,150,8|8,0:0|0:0,0:0:0:0:
504,230,84483,6,0,P|454:220|426:208,1,75,2|8,0:0|0:0,0:0:0:0:
395,66,84794,2,0,P|388:103|376:139,1,75,2|8,0:0|0:0,0:0:0:0:
290,197,85104,1,2,0:0:0:0:
290,197,85260,1,8,0:0:0:0:
249,117,85415,2,0,P|240:79|235:29,2,75,2|10|0,0:0|0:0|0:0,0:0:0:0:
176,217,85882,6,0,P|166:148|142:55,1,150,12|8,0:0|0:0,0:0:0:0:
65,29,86348,1,8,0:0:0:0:
15,103,86503,1,8,0:0:0:0:
15,103,86659,1,8,0:0:0:0:
93,145,86814,1,8,0:0:0:0:
93,145,86970,6,0,P|129:137|166:124,1,75,2|8,0:0|0:0,0:0:0:0:
272,59,87281,2,0,P|260:95|254:132,1,75,2|0,0:0|0:0,0:0:0:0:
255,257,87591,2,0,P|230:229|202:205,1,75,12|0,0:0|0:0,0:0:0:0:
93,145,87902,2,0,L|48:155,2,37.5,8|8|8,0:0|0:0|0:0,0:0:0:0:
180,122,88213,5,4,0:0:0:0:
