osu file format v14

[General]
AudioFilename: audio.mp3
AudioLeadIn: 0
PreviewTime: 55415
Countdown: 0
SampleSet: Soft
StackLeniency: 0.5
Mode: 0
LetterboxInBreaks: 0
WidescreenStoryboard: 0

[Editor]
DistanceSpacing: 0.7
BeatDivisor: 4
GridSize: 32
TimelineZoom: 1.4

[Metadata]
Title:Choumusubi Amulet (TV Size)
TitleUnicode:蝶結びアミュレット(TV Size)
Artist:Mia REGINA
ArtistUnicode:Mia REGINA
Creator:DreaM117er
Version:Extra
Source:装神少女まとい
Tags:Soushin Shoujo Matoi the Sacred Slayer OP tv size Moecho Moeri m1223961117
BeatmapID:1342154
BeatmapSetID:576534

[Difficulty]
HPDrainRate:5.7
CircleSize:4
OverallDifficulty:8
ApproachRate:9.3
SliderMultiplier:1.8
SliderTickRate:1

[Events]
//Background and Video events
0,0,"BG.jpg",0,0
//Break Periods
//Storyboard Layer 0 (Background)
//Storyboard Layer 1 (Fail)
//Storyboard Layer 2 (Pass)
//Storyboard Layer 3 (Foreground)
//Storyboard Sound Samples

[TimingPoints]
79,310.880829015544,4,2,1,40,1,0
545,-166.666666666667,4,2,1,20,0,0
700,-166.666666666667,4,2,1,40,0,0
6141,-166.666666666667,4,2,1,20,0,0
8783,-166.666666666667,4,2,1,5,0,0
9560,-83.3333333333333,4,2,1,60,0,0
9949,-83.3333333333333,4,2,1,10,0,0
10027,-100,4,2,1,60,0,0
11348,-100,4,2,1,10,0,0
11426,-100,4,2,1,60,0,0
12125,-100,4,2,1,10,0,0
12203,-100,4,2,1,60,0,0
12281,-100,4,2,1,10,0,0
12358,-100,4,2,1,60,0,0
12436,-100,4,2,1,10,0,0
12514,-100,4,2,1,60,0,0
13835,-100,4,2,1,10,0,0
13913,-100,4,2,1,60,0,0
15001,-111.111111111111,4,2,1,50,0,0
16322,-111.111111111111,4,2,1,10,0,0
16400,-111.111111111111,4,2,1,50,0,0
16477,-111.111111111111,4,2,1,10,0,0
16555,-111.111111111111,4,2,1,50,0,0
17721,-111.111111111111,4,2,1,10,0,0
17799,-111.111111111111,4,2,1,50,0,0
18809,-111.111111111111,4,2,1,10,0,0
18887,-111.111111111111,4,2,1,50,0,0
18965,-111.111111111111,4,2,1,10,0,0
19042,-111.111111111111,4,2,1,50,0,0
20208,-111.111111111111,4,2,1,10,0,0
20286,-111.111111111111,4,2,1,50,0,0
21296,-111.111111111111,4,2,1,10,0,0
21374,-111.111111111111,4,2,1,50,0,0
21452,-111.111111111111,4,2,1,10,0,0
21529,-111.111111111111,4,2,1,50,0,0
22695,-111.111111111111,4,2,1,10,0,0
22773,-111.111111111111,4,2,1,50,0,0
23783,-111.111111111111,4,2,1,10,0,0
23861,-111.111111111111,4,2,1,50,0,0
23939,-111.111111111111,4,2,1,10,0,0
24016,-111.111111111111,4,2,1,50,0,0
24949,-100,4,2,1,60,0,0
26270,-100,4,2,1,10,0,0
26348,-100,4,2,1,60,0,0
28757,-100,4,2,1,10,0,0
28835,-100,4,2,1,60,0,0
28913,-100,4,2,1,10,0,0
28990,-100,4,2,1,60,0,0
29845,-100,4,2,1,10,0,0
29923,-100,4,2,1,60,0,0
32022,-100,4,2,1,10,0,0
32099,-100,4,2,1,60,0,0
32177,-100,4,2,1,10,0,0
32255,-100,4,2,1,60,0,0
33654,-133.333333333333,4,2,1,60,0,0
33887,-133.333333333333,4,2,1,10,0,0
33965,-90.9090909090908,4,2,1,60,0,0
34198,-90.9090909090908,4,2,1,10,0,0
34275,-100,4,2,1,60,0,0
34897,-133.333333333333,4,2,1,45,0,0
39249,-200,4,2,1,45,0,0
39483,-200,4,2,1,10,0,0
39560,-90.9090909090909,4,2,1,45,0,0
39871,-111.111111111111,4,2,1,55,0,0
40882,-111.111111111111,4,2,1,10,0,0
40959,-111.111111111111,4,2,1,55,0,0
43369,-111.111111111111,4,2,1,10,0,0
43446,-111.111111111111,4,2,1,55,0,0
44534,-111.111111111111,4,2,1,45,0,0
44612,-111.111111111111,4,2,1,35,0,0
44690,-111.111111111111,4,2,1,55,0,0
44845,-166.666666666666,4,2,1,40,0,0
46089,-166.666666666666,4,2,1,10,0,0
46244,-166.666666666666,4,2,1,40,0,0
48420,-133.333333333333,4,2,1,40,0,0
49353,-111.111111111111,4,2,1,60,0,0
49586,-111.111111111111,4,2,1,10,0,0
49664,-111.111111111111,4,2,1,60,0,0
50053,-111.111111111111,4,2,1,10,0,0
50130,-111.111111111111,4,2,1,60,0,0
52306,-111.111111111111,4,2,1,30,0,0
52462,-111.111111111111,4,2,1,60,0,0
52617,-111.111111111111,4,2,1,50,0,0
52695,-111.111111111111,4,2,1,40,0,0
52773,-111.111111111111,4,2,1,30,0,0
52928,-111.111111111111,4,2,1,60,0,0
53084,-111.111111111111,4,2,1,50,0,0
53161,-111.111111111111,4,2,1,40,0,0
53239,-111.111111111111,4,2,1,30,0,0
53550,-100,4,2,1,60,0,0
53783,-100,4,2,1,10,0,0
53861,-100,4,2,1,60,0,0
54483,-83.3333333333333,4,2,1,70,0,0
54794,-166.666666666666,4,2,1,60,0,0
55571,-166.666666666666,4,2,1,10,0,0
55726,-166.666666666666,4,2,1,60,0,0
55882,-100,4,2,1,80,0,1
56115,-100,4,2,1,20,0,1
56192,-100,4,2,1,80,0,1
57358,-100,4,2,1,20,0,1
57436,-100,4,2,1,80,0,1
58757,-100,4,2,1,20,0,1
58835,-100,4,2,1,80,0,1
59845,-100,4,2,1,20,0,1
59923,-100,4,2,1,80,0,1
61089,-100,4,2,1,20,0,1
61167,-100,4,2,1,80,0,1
62177,-100,4,2,1,10,0,1
62255,-100,4,2,1,80,0,1
64819,-100,4,2,1,10,0,1
64897,-100,4,2,1,80,0,1
65363,-100,4,2,1,70,0,1
65830,-166.666666666667,4,2,1,80,0,0
66296,-100,4,2,1,80,0,1
66452,-100,4,2,1,30,0,1
66607,-100,4,2,1,80,0,1
67306,-100,4,2,1,20,0,1
67384,-100,4,2,1,80,0,1
68395,-100,4,2,1,10,0,1
68472,-100,4,2,1,80,0,1
69794,-100,4,2,1,20,0,1
69871,-100,4,2,1,80,0,1
69949,-100,4,2,1,20,0,1
70027,-100,4,2,1,80,0,1
70104,-100,4,2,1,10,0,1
70182,-100,4,2,1,80,0,1
70260,-100,4,2,1,10,0,1
70338,-100,4,2,1,80,0,1
70415,-100,4,2,1,10,0,1
70493,-100,4,2,1,80,0,1
70804,-100,4,2,1,80,0,0
70959,-90.9090909090909,4,2,1,80,0,1
71115,-90.9090909090909,4,2,1,30,0,1
71270,-90.9090909090909,4,2,1,80,0,1
74768,-90.9090909090909,4,2,1,20,0,1
74845,-90.9090909090909,4,2,1,80,0,1
75467,-90.9090909090909,4,2,1,60,0,1
75545,-90.9090909090909,4,2,1,40,0,1
75933,-100,4,2,1,80,0,0
77954,-83.3333333333333,4,2,1,80,0,0
78343,-100,4,2,1,10,0,0
78420,-100,4,2,1,60,0,0
79742,-100,4,2,1,10,0,0
79819,-100,4,2,1,60,0,0
80519,-100,4,2,1,10,0,0
80597,-100,4,2,1,60,0,0
80674,-100,4,2,1,10,0,0
80752,-100,4,2,1,60,0,0
80830,-100,4,2,1,10,0,0
80908,-100,4,2,1,60,0,0
82229,-100,4,2,1,10,0,0
82306,-100,4,2,1,60,0,0
83084,-100,4,2,1,50,0,0
83161,-100,4,2,1,40,0,0
83239,-100,4,2,1,30,0,0
83395,-100,4,2,1,60,0,0
85493,-100,4,2,1,10,0,0
85571,-100,4,2,1,60,0,0
85648,-100,4,2,1,10,0,0
85726,-100,4,2,1,60,0,0
85804,-100,4,2,1,10,0,0
85882,-100,4,2,1,60,0,0
88135,-100,4,2,1,10,0,0
88213,-166.666666666667,4,2,1,60,0,0
88291,-166.666666666667,4,2,1,5,0,0

[Colours]
Combo1 : 241,109,202
Combo2 : 251,28,95
Combo3 : 206,55,238

[HitObjects]
323,75,545,6,0,L|317:43,3,17.9999994506836,0|0|0|2,0:0|0:0|0:0|0:0,0:0:0:0:
327,96,1011,1,2,0:0:0:0:
310,202,1167,6,0,P|318:149|327:96,1,107.999996704102,4|0,0:0|0:0,0:0:0:0:
243,139,1633,1,0,0:0:0:0:
397,165,1788,1,0,0:0:0:0:
167,124,1944,2,0,P|167:154|186:189,1,53.9999983520508,2|0,0:0|0:0,0:0:0:0:
243,139,2255,1,2,0:0:0:0:
111,218,2410,6,0,P|90:169|91:105,1,107.999996704102,0|0,0:0|0:0,0:0:0:0:
310,102,2876,2,0,P|319:127|319:154,1,53.9999983520508,0|0,0:0|0:0,0:0:0:0:
248,301,3187,1,2,0:0:0:0:
176,262,3343,1,0,0:0:0:0:
213,190,3498,1,2,0:0:0:0:
285,227,3654,1,0,0:0:0:0:
175,347,3809,6,0,P|118:336|54:328,1,107.999996704102,0|0,0:0|0:0,0:0:0:0:
213,190,4275,1,0,0:0:0:0:
333,301,4431,2,0,P|389:290|454:282,1,107.999996704102,2|2,0:0|0:0,0:0:0:0:
295,144,4897,5,0,0:0:0:0:
295,144,5208,1,0,0:0:0:0:
332,218,5363,1,2,0:0:0:0:
404,179,5519,1,2,0:0:0:0:
367,107,5674,1,0,0:0:0:0:
295,144,5830,1,2,0:0:0:0:
447,251,5985,2,0,P|479:248|511:236,1,53.9999983520508,2|0,0:0|0:0,0:0:0:0:
295,144,6296,2,0,L|256:136,2,26.9999991760254
256,192,6529,12,0,8783,0:0:0:0:
158,58,9560,6,0,P|162:27|173:-2,1,53.9999983520508
36,97,9716,2,0,P|113:88|178:163,1,161.999995056153,8|0,0:0|0:0,0:0:0:0:
200,219,10027,5,4,0:0:0:0:
277,114,10182,1,0,0:0:0:0:
113,211,10338,1,8,0:0:0:0:
232,300,10493,1,0,0:0:0:0:
262,282,10571,1,0,0:0:0:0:
297,282,10648,1,0,0:0:0:0:
89,195,10804,1,0,0:0:0:0:
184,376,10959,1,8,0:0:0:0:
371,235,11115,6,0,P|384:299|332:362,1,135,2|0,0:0|0:0,0:0:0:0:
321,371,11426,1,2,0:0:0:0:
319,159,11581,1,8,0:0:0:0:
492,331,11737,1,2,0:0:0:0:
457,331,11814,1,0,0:0:0:0:
427,313,11892,1,0,0:0:0:0:
406,153,12047,6,0,P|425:141|447:136,1,45,2|0,0:0|0:0,0:0:0:0:
319,159,12203,2,0,P|319:136|336:98,1,45,10|0,0:0|0:0,0:0:0:0:
266,231,12358,2,0,P|247:217|235:198,1,45,0|0,0:0|0:0,0:0:0:0:
281,319,12514,5,0,0:0:0:0:
319,159,12669,1,0,0:0:0:0:
180,271,12825,1,8,0:0:0:0:
353,380,12980,1,0,0:0:0:0:
372,349,13058,1,0,0:0:0:0:
372,313,13135,1,0,0:0:0:0:
235,199,13291,1,0,0:0:0:0:
281,319,13446,1,8,0:0:0:0:
471,210,13602,6,0,P|401:213|352:151,1,135,2|0,0:0|0:0,0:0:0:0:
350,139,13913,2,0,P|360:90|409:51,1,90,2|8,0:0|0:0,0:0:0:0:
192,6,14224,1,2,0:0:0:0:
208,37,14301,1,0,0:0:0:0:
221,69,14379,2,0,P|229:97|231:127,1,45,0|0,0:0|0:0,0:0:0:0:
68,245,14534,5,8,0:0:0:0:
82,207,14612,1,8,0:0:0:0:
113,181,14690,1,8,0:0:0:0:
151,167,14768,1,0,0:0:0:0:
190,174,14845,1,8,0:0:0:0:
225,192,14923,1,8,0:0:0:0:
249,227,15001,6,0,P|241:269|232:323,1,80.9999975280763,4|0,0:0|0:0,0:0:0:0:
420,364,15312,2,0,P|383:338|340:342,1,80.9999975280763,8|0,0:0|0:0,0:0:0:0:
163,331,15623,1,0,0:0:0:0:
163,331,15778,2,0,P|202:330|234:305,1,80.9999975280763,0|0,0:0|0:0,0:0:0:0:
303,90,16089,6,0,P|271:128|281:221,1,121.499996292114,8|0,0:0|0:0,0:0:0:0:
307,266,16400,2,0,P|328:261|346:256,1,40.4999987640381,0|0,0:0|0:0,0:0:0:0:
438,271,16555,2,0,P|431:231|423:191,1,80.9999975280763,8|0,0:0|0:0,0:0:0:0:
394,32,16866,1,0,0:0:0:0:
350,163,17022,1,0,0:0:0:0:
512,130,17177,2,0,P|473:129|439:101,1,80.9999975280763,8|0,0:0|0:0,0:0:0:0:
204,122,17488,6,0,P|247:85|326:98,1,121.499996292114,0|0,0:0|0:0,0:0:0:0:
329,109,17799,2,0,P|320:157|312:198,1,80.9999975280763,8|0,0:0|0:0,0:0:0:0:
282,362,18110,1,0,0:0:0:0:
411,305,18265,2,0,P|379:284|321:287,1,80.9999975280763,0|0,0:0|0:0,0:0:0:0:
193,363,18576,6,0,P|205:306|220:227,1,121.499996292114,8|0,0:0|0:0,0:0:0:0:
279,193,18887,2,0,P|270:172|256:146,1,40.4999987640381,0|0,0:0|0:0,0:0:0:0:
301,81,19042,2,0,P|257:71|208:58,1,80.9999975280763,8|0,0:0|0:0,0:0:0:0:
102,141,19353,1,0,0:0:0:0:
102,141,19509,1,0,0:0:0:0:
198,266,19664,2,0,P|197:227|164:178,1,80.9999975280763,8|0,0:0|0:0,0:0:0:0:
88,341,19975,6,0,P|147:338|188:296,1,121.499996292114,0|0,0:0|0:0,0:0:0:0:
198,266,20286,2,0,P|197:227|164:178,1,80.9999975280763,8|0,0:0|0:0,0:0:0:0:
65,121,20597,1,0,0:0:0:0:
65,121,20752,2,0,P|109:111|158:98,1,80.9999975280763,0|0,0:0|0:0,0:0:0:0:
390,222,21063,6,0,P|331:227|283:193,1,121.499996292114,8|0,0:0|0:0,0:0:0:0:
244,120,21374,2,0,P|251:90|255:58,1,40.4999987640381,0|0,0:0|0:0,0:0:0:0:
323,13,21529,2,0,P|329:57|338:107,1,80.9999975280763,8|0,0:0|0:0,0:0:0:0:
400,242,21840,1,0,0:0:0:0:
457,148,21996,1,0,0:0:0:0:
330,271,22151,2,0,P|360:245|400:242,1,80.9999975280763,8|0,0:0|0:0,0:0:0:0:
462,289,22384,1,0,0:0:0:0:
471,298,22462,6,0,L|339:276,1,121.499996292114,0|0,0:0|0:0,0:0:0:0:
275,331,22773,2,0,P|252:288|254:251,1,80.9999975280763,8|0,0:0|0:0,0:0:0:0:
317,131,23084,1,0,0:0:0:0:
317,131,23239,2,0,P|273:141|236:150,1,80.9999975280763,0|0,0:0|0:0,0:0:0:0:
21,219,23550,6,0,P|71:215|141:255,1,121.499996292114,8|0,0:0|0:0,0:0:0:0:
189,308,23861,2,0,L|182:348,1,40.4999987640381,0|0,0:0|0:0,0:0:0:0:
271,291,24016,2,0,L|289:371,1,80.9999975280763,8|0,0:0|0:0,0:0:0:0:
182,347,24327,1,0,0:0:0:0:
330,213,24483,1,8,0:0:0:0:
354,198,24560,1,8,0:0:0:0:
380,189,24638,1,8,0:0:0:0:
409,187,24716,1,8,0:0:0:0:
437,192,24794,1,8,0:0:0:0:
494,334,24949,6,0,P|441:329|406:308,1,90,4|0,0:0|0:0,0:0:0:0:
259,157,25260,2,0,L|241:261,1,90,8|0,0:0|0:0,0:0:0:0:
243,245,25493,1,0,0:0:0:0:
243,245,25571,1,0,0:0:0:0:
205,371,25726,1,0,0:0:0:0:
162,192,25882,1,8,0:0:0:0:
17,312,26037,6,0,P|68:270|134:277,1,135,0|0,0:0|0:0,0:0:0:0:
159,297,26348,1,0,0:0:0:0:
338,225,26503,1,8,0:0:0:0:
213,175,26659,1,0,0:0:0:0:
213,175,26737,1,0,0:0:0:0:
213,175,26814,2,0,P|218:208|226:238,1,45,0|0,0:0|0:0,0:0:0:0:
259,304,26970,1,0,0:0:0:0:
415,235,27125,1,8,0:0:0:0:
318,48,27281,1,0,0:0:0:0:
318,48,27358,1,0,0:0:0:0:
318,48,27436,6,0,P|306:98|297:156,1,90,0|0,0:0|0:0,0:0:0:0:
259,304,27747,1,8,0:0:0:0:
415,235,27902,1,0,0:0:0:0:
374,234,27980,1,0,0:0:0:0:
338,254,28058,1,0,0:0:0:0:
244,312,28213,1,0,0:0:0:0:
387,364,28369,1,8,0:0:0:0:
232,320,28524,6,0,P|243:257|258:180,1,135,0|0,0:0|0:0,0:0:0:0:
224,112,28835,2,0,P|249:102|278:93,1,45,0|0,0:0|0:0,0:0:0:0:
330,34,28990,2,0,P|355:84|350:121,1,90,8|0,0:0|0:0,0:0:0:0:
172,216,29301,1,8,0:0:0:0:
172,216,29379,1,8,0:0:0:0:
172,216,29457,2,0,L|112:205,1,45,8|0,0:0|0:0,0:0:0:0:
0,331,29612,2,0,P|47:296|134:317,1,135,8|0,0:0|0:0,0:0:0:0:
182,362,29923,6,0,B|248:347|316:338|316:338|259:325,1,180,4|8,0:0|0:0,0:0:0:0:
242,213,30389,2,0,P|217:174|215:131,1,90,0|0,0:0|0:0,0:0:0:0:
400,25,30700,2,0,P|393:61|381:125,1,90,0|8,0:0|0:0,0:0:0:0:
344,287,31011,1,0,0:0:0:0:
311,171,31167,5,0,0:0:0:0:
431,260,31322,1,0,0:0:0:0:
286,357,31477,2,0,P|241:357|196:323,1,90,8|0,0:0|0:0,0:0:0:0:
19,184,31788,2,0,P|70:144|143:153,1,135
197,206,32099,2,0,L|191:251,1,45,8|0,0:0|0:0,0:0:0:0:
179,343,32255,1,8,0:0:0:0:
178,352,32332,1,8,0:0:0:0:
177,361,32410,5,12,0:0:0:0:
469,199,33654,6,0,P|444:238|447:294,1,101.250003862381,4|0,0:0|0:0,0:0:0:0:
492,358,33965,6,0,P|447:330|344:341,1,148.50000453186,8|0,0:0|0:0,0:0:0:0:
277,339,34275,1,8,0:0:0:0:
258,351,34353,1,8,0:0:0:0:
236,357,34431,1,8,0:0:0:0:
213,360,34509,1,8,0:0:0:0:
190,356,34586,6,0,L|181:310,1,45,0|0,0:0|0:0,0:0:0:0:
98,306,34742,2,0,L|112:246,1,45,0|0,0:0|0:0,0:0:0:0:
52,202,34897,6,0,P|85:183|129:184,1,67.5000025749208,4|0,0:0|0:0,0:0:0:0:
224,210,35208,1,0,0:0:0:0:
190,108,35363,1,0,0:0:0:0:
150,265,35519,1,0,0:0:0:0:
241,199,35674,2,0,P|234:158|225:115,1,67.5000025749208,2|2,0:0|0:0,0:0:0:0:
368,61,35985,6,0,P|350:89|332:118,1,67.5000025749208,0|0,0:0|0:0,0:0:0:0:
496,183,36296,2,0,P|463:173|431:164,1,67.5000025749208,0|0,0:0|0:0,0:0:0:0:
241,92,36607,2,0,P|251:155|266:244,1,135.000005149842,0|2,0:0|0:0,0:0:0:0:
262,225,36996,1,0,0:0:0:0:
262,225,37073,1,12,0:0:0:0:
297,373,37229,1,0,0:0:0:0:
353,201,37384,5,0,0:0:0:0:
165,332,37540,1,2,0:0:0:0:
165,332,37695,2,0,P|198:322|230:313,1,67.5000025749208,2|0,0:0|0:0,0:0:0:0:
445,315,38006,2,0,P|387:325|318:259,1,135.000005149842,0|2,0:0|0:0,0:0:0:0:
241,92,38472,5,2,0:0:0:0:
241,92,38783,1,0,0:0:0:0:
181,183,38939,1,2,0:0:0:0:
127,20,39094,1,2,0:0:0:0:
185,199,39249,6,0,L|106:184,1,67.5,0|0,0:0|0:0,0:0:0:0:
50,240,39560,6,0,P|97:231|158:213,1,99.0000030212403,8|0,0:0|0:0,0:0:0:0:
363,10,39871,6,0,P|348:75|327:180,1,161.999995056153,4|8,0:0|0:0,0:0:0:0:
240,352,40338,1,0,0:0:0:0:
225,323,40415,1,0,0:0:0:0:
225,290,40493,1,0,0:0:0:0:
329,168,40648,1,0,0:0:0:0:
234,190,40804,2,0,L|176:177,1,40.4999987640381,8|0,0:0|0:0,0:0:0:0:
82,62,40959,6,0,P|159:49|219:99,1,161.999995056153,0|0,0:0|0:0,0:0:0:0:
306,258,41426,1,8,0:0:0:0:
92,236,41581,1,0,0:0:0:0:
119,217,41659,1,0,0:0:0:0:
151,212,41737,1,0,0:0:0:0:
225,323,41892,1,0,0:0:0:0:
321,168,42047,2,0,P|326:146|331:110,1,40.4999987640381,8|8,0:0|0:0,0:0:0:0:
211,59,42203,2,0,P|214:79|219:99,1,40.4999987640381,8|8,0:0|0:0,0:0:0:0:
306,258,42358,6,0,P|358:244|404:234,1,80.9999975280763,4|0,0:0|0:0,0:0:0:0:
491,217,42669,1,8,0:0:0:0:
321,168,42825,1,0,0:0:0:0:
321,168,42902,1,0,0:0:0:0:
321,168,42980,1,0,0:0:0:0:
438,298,43135,1,0,0:0:0:0:
436,158,43291,2,0,L|445:119,1,40.4999987640381,8|0,0:0|0:0,0:0:0:0:
392,364,43446,5,0,0:0:0:0:
336,208,43602,1,0,0:0:0:0:
400,356,43757,1,0,0:0:0:0:
436,158,43913,1,12,0:0:0:0:
292,339,44068,1,0,0:0:0:0:
414,282,44224,1,8,0:0:0:0:
268,150,44379,5,8,0:0:0:0:
249,118,44457,1,8,0:0:0:0:
247,81,44534,1,8,0:0:0:0:
257,45,44612,1,8,0:0:0:0:
281,17,44690,1,8,0:0:0:0:
314,2,44768,1,8,0:0:0:0:
351,3,44845,6,0,L|372:114,1,107.999996704102,4|0,0:0|0:0,0:0:0:0:
391,193,45312,1,0,0:0:0:0:
286,275,45467,2,0,P|235:261|164:247,1,107.999996704102,8|0,0:0|0:0,0:0:0:0:
343,363,45933,2,0,P|367:352|415:344,1,53.9999983520508,2|0,0:0|0:0,0:0:0:0:
254,181,46244,5,2,0:0:0:0:
254,181,46555,1,0,0:0:0:0:
206,282,46711,2,0,P|194:329|190:356,1,53.9999983520508,8|0,0:0|0:0,0:0:0:0:
333,220,47022,2,0,P|345:255|354:292,1,53.9999983520508,8|0,0:0|0:0,0:0:0:0:
500,81,47332,6,0,P|447:85|404:117,1,107.999996704102,4|0,0:0|0:0,0:0:0:0:
333,220,47799,1,0,0:0:0:0:
214,146,47954,2,0,P|238:157|265:161,1,53.9999983520508,10|0,0:0|0:0,0:0:0:0:
403,117,48265,1,10,0:0:0:0:
308,352,48420,6,0,P|320:286|333:220,1,135.000005149842,4|0,0:0|0:0,0:0:0:0:
197,80,48887,2,0,P|207:119|217:164,1,67.5000025749208,12|0,0:0|0:0,0:0:0:0:
308,103,49198,1,0,0:0:0:0:
240,259,49353,1,8,0:0:0:0:
240,259,49431,1,8,0:0:0:0:
240,259,49509,2,0,L|177:245,1,40.4999987640381,8|0,0:0|0:0,0:0:0:0:
27,350,49664,1,8,0:0:0:0:
27,350,49742,1,8,0:0:0:0:
27,350,49819,6,0,P|84:315|149:324,1,121.499996292114,4|0,0:0|0:0,0:0:0:0:
160,332,50130,1,8,0:0:0:0:
373,299,50286,1,0,0:0:0:0:
341,317,50363,1,0,0:0:0:0:
305,319,50441,1,0,0:0:0:0:
200,250,50597,1,0,0:0:0:0:
246,372,50752,1,8,0:0:0:0:
281,206,50908,6,0,P|289:163|315:35,1,161.999995056153,0|0,0:0|0:0,0:0:0:0:
408,259,51374,2,0,P|422:315|431:353,1,80.9999975280763,8|0,0:0|0:0,0:0:0:0:
427,337,51607,1,0,0:0:0:0:
427,337,51685,1,0,0:0:0:0:
301,229,51840,1,0,0:0:0:0:
458,161,51996,1,8,0:0:0:0:
331,320,52151,6,0,P|290:330|241:346,1,80.9999975280763,4|0,0:0|0:0,0:0:0:0:
44,226,52462,1,8,0:0:0:0:
80,207,52540,1,8,0:0:0:0:
120,207,52617,1,8,0:0:0:0:
155,226,52695,1,8,0:0:0:0:
182,256,52773,2,0,L|173:295,1,40.4999987640381,8|8,0:0|0:0,0:0:0:0:
12,332,52928,5,8,0:0:0:0:
5,292,53006,1,8,0:0:0:0:
17,254,53084,1,8,0:0:0:0:
44,226,53161,1,8,0:0:0:0:
73,198,53239,1,8,0:0:0:0:
92,163,53317,1,8,0:0:0:0:
94,123,53395,1,8,0:0:0:0:
79,86,53472,1,8,0:0:0:0:
59,50,53550,6,0,P|112:96|200:75,1,135,8|0,0:0|0:0,0:0:0:0:
244,51,53861,1,8,0:0:0:0:
201,225,54016,1,8,0:0:0:0:
138,7,54172,1,8,0:0:0:0:
197,246,54327,1,8,0:0:0:0:
84,208,54483,6,0,P|116:198|149:192,1,53.9999983520508,8|8,0:0|0:0,0:0:0:0:
336,161,54638,2,0,P|302:154|270:145,1,53.9999983520508,8|8,0:0|0:0,0:0:0:0:
173,92,54794,1,8,0:0:0:0:
201,225,55415,6,0,L|213:297,1,53.9999983520508,2|0,0:0|0:0,0:0:0:0:
230,371,55726,1,2,0:0:0:0:
470,261,55882,6,0,P|421:224|332:234,1,135,4|0,0:0|0:0,0:0:0:0:
324,241,56192,1,0,0:0:0:0:
162,97,56348,2,0,P|202:119|254:119,1,90,8|0,0:0|0:0,0:0:0:0:
368,9,56659,2,0,L|357:67,1,45,2|0,0:0|0:0,0:0:0:0:
342,142,56814,1,0,0:0:0:0:
268,31,56970,1,10,0:0:0:0:
438,116,57125,6,0,P|451:182|462:248,1,135,0|0,0:0|0:0,0:0:0:0:
469,280,57436,1,0,0:0:0:0:
305,371,57591,2,0,P|313:327|322:283,1,90,8|0,0:0|0:0,0:0:0:0:
404,193,57902,1,0,0:0:0:0:
490,366,58058,1,0,0:0:0:0:
454,366,58135,1,0,0:0:0:0:
421,352,58213,1,8,0:0:0:0:
336,270,58369,1,0,0:0:0:0:
145,233,58524,6,0,P|203:237|265:175,1,135,2|0,0:0|0:0,0:0:0:0:
270,162,58835,2,0,P|260:120|249:62,1,90,10|0,0:0|0:0,0:0:0:0:
73,178,59146,1,2,0:0:0:0:
56,209,59224,1,0,0:0:0:0:
54,245,59301,1,0,0:0:0:0:
109,334,59457,1,8,0:0:0:0:
164,100,59612,6,0,B|120:83|120:83|96:88|34:103,1,135,2|0,0:0|0:0,0:0:0:0:
4,114,59923,1,2,0:0:0:0:
165,192,60078,1,8,0:0:0:0:
329,83,60234,1,0,0:0:0:0:
294,87,60312,1,0,0:0:0:0:
262,104,60389,1,0,0:0:0:0:
189,193,60545,1,8,0:0:0:0:
97,37,60700,1,8,0:0:0:0:
285,197,60856,6,0,P|273:251|256:340,1,135,4|0,0:0|0:0,0:0:0:0:
253,360,61167,1,0,0:0:0:0:
450,264,61322,2,0,P|402:236|354:240,1,90,8|0,0:0|0:0,0:0:0:0:
134,135,61633,1,2,0:0:0:0:
167,149,61711,1,0,0:0:0:0:
203,150,61788,1,0,0:0:0:0:
336,68,61944,2,0,P|296:120|301:186,1,135,10|0,0:0|0:0,0:0:0:0:
368,235,62255,6,0,P|325:268|276:263,1,90,0|0,0:0|0:0,0:0:0:0:
115,128,62566,2,0,P|159:139|203:151,1,90,10|0,0:0|0:0,0:0:0:0:
455,211,62876,2,0,P|411:222|368:235,1,90,0|0,0:0|0:0,0:0:0:0:
175,333,63187,1,10,0:0:0:0:
307,374,63343,1,8,0:0:0:0:
307,374,63420,1,8,0:0:0:0:
307,374,63498,6,0,P|297:326|285:265,1,90,6|0,0:0|0:0,0:0:0:0:
229,75,63809,1,10,0:0:0:0:
198,228,63965,1,0,0:0:0:0:
198,228,64042,1,0,0:0:0:0:
198,228,64120,1,10,0:0:0:0:
299,159,64275,1,0,0:0:0:0:
96,212,64431,1,10,0:0:0:0:
351,227,64586,6,0,P|386:176|362:99,1,135,4|0,0:0|0:0,0:0:0:0:
348,89,64897,2,0,L|291:79,1,45,2|0,0:0|0:0,0:0:0:0:
189,210,65053,2,0,L|243:198,1,45,2|0,0:0|0:0,0:0:0:0:
451,166,65208,2,0,L|407:175,1,45,0|0,0:0|0:0,0:0:0:0:
195,54,65363,5,10,0:0:0:0:
203,84,65441,1,8,0:0:0:0:
219,112,65519,1,8,0:0:0:0:
367,264,65674,1,8,0:0:0:0:
359,294,65752,1,8,0:0:0:0:
343,321,65830,6,0,P|298:297|237:303,1,107.999996704102,8|0,0:0|0:0,0:0:0:0:
189,360,66218,1,0,0:0:0:0:
174,367,66296,6,0,P|152:330|149:281,1,90,4|0,0:0|0:0,0:0:0:0:
199,163,66607,1,0,0:0:0:0:
98,191,66762,1,0,0:0:0:0:
242,300,66918,1,8,0:0:0:0:
16,310,67073,6,0,P|82:296|148:283,1,135,2|0,0:0|0:0,0:0:0:0:
180,279,67384,1,2,0:0:0:0:
325,193,67540,2,0,P|280:184|236:174,1,90,8|0,0:0|0:0,0:0:0:0:
70,132,67851,1,0,0:0:0:0:
70,132,67928,1,0,0:0:0:0:
70,132,68006,1,0,0:0:0:0:
192,21,68161,2,0,P|230:74|219:139,1,135,10|0,0:0|0:0,0:0:0:0:
152,187,68472,6,0,P|113:189|68:157,1,90,0|0,0:0|0:0,0:0:0:0:
335,59,68783,2,0,P|327:103|319:147,1,90,10|0,0:0|0:0,0:0:0:0:
270,359,69094,1,0,0:0:0:0:
227,218,69249,1,0,0:0:0:0:
359,304,69405,1,10,0:0:0:0:
91,348,69560,6,0,P|143:308|209:312,1,135,4|0,0:0|0:0,0:0:0:0:
243,335,69871,2,0,L|252:279,1,45,0|0,0:0|0:0,0:0:0:0:
286,93,70027,2,0,L|278:137,1,45,10|0,0:0|0:0,0:0:0:0:
377,288,70182,2,0,L|342:259,1,45,2|0,0:0|0:0,0:0:0:0:
154,193,70338,2,0,L|206:172,1,45,0|0,0:0|0:0,0:0:0:0:
440,153,70493,5,10,0:0:0:0:
408,153,70571,1,8,0:0:0:0:
377,160,70648,1,8,0:0:0:0:
157,8,70804,1,8,0:0:0:0:
185,21,70882,1,8,0:0:0:0:
211,43,70959,6,0,L|194:154,1,99.0000030212403,4|0,0:0|0:0,0:0:0:0:
150,372,71270,1,8,0:0:0:0:
359,335,71426,1,0,0:0:0:0:
352,306,71503,1,0,0:0:0:0:
335,281,71581,1,8,0:0:0:0:
170,161,71737,1,0,0:0:0:0:
153,186,71814,1,0,0:0:0:0:
145,215,71892,1,8,0:0:0:0:
180,361,72047,1,0,0:0:0:0:
270,216,72203,5,8,0:0:0:0:
67,169,72358,1,0,0:0:0:0:
339,131,72514,1,8,0:0:0:0:
99,29,72669,1,0,0:0:0:0:
106,57,72747,1,0,0:0:0:0:
115,85,72825,1,8,0:0:0:0:
320,215,72980,1,0,0:0:0:0:
329,187,73058,1,0,0:0:0:0:
336,159,73135,1,8,0:0:0:0:
226,78,73291,1,0,0:0:0:0:
284,298,73446,5,4,0:0:0:0:
413,213,73602,1,0,0:0:0:0:
184,262,73757,1,8,0:0:0:0:
403,359,73913,1,0,0:0:0:0:
396,331,73990,1,0,0:0:0:0:
387,303,74068,1,8,0:0:0:0:
329,187,74224,1,0,0:0:0:0:
257,367,74379,1,8,0:0:0:0:
474,217,74534,6,0,P|402:203|312:183,1,148.50000453186,4|0,0:0|0:0,0:0:0:0:
294,178,74845,1,0,0:0:0:0:
103,313,75001,2,0,P|152:300|216:286,1,99.0000030212403,4|0,0:0|0:0,0:0:0:0:
349,105,75312,5,8,0:0:0:0:
310,85,75389,1,8,0:0:0:0:
266,87,75467,1,8,0:0:0:0:
229,111,75545,1,8,0:0:0:0:
201,145,75623,1,8,0:0:0:0:
161,162,75700,1,8,0:0:0:0:
117,165,75778,1,8,0:0:0:0:
76,147,75856,1,8,0:0:0:0:
48,114,75933,5,4,0:0:0:0:
354,326,77954,6,0,P|350:357|339:386,1,53.9999983520508
476,287,78110,2,0,P|399:296|334:221,1,161.999995056153,8|0,0:0|0:0,0:0:0:0:
312,165,78420,5,4,0:0:0:0:
235,270,78576,1,0,0:0:0:0:
399,173,78731,1,8,0:0:0:0:
280,84,78887,1,0,0:0:0:0:
250,102,78965,1,0,0:0:0:0:
215,102,79042,1,0,0:0:0:0:
423,189,79198,1,0,0:0:0:0:
328,8,79353,1,8,0:0:0:0:
141,149,79509,6,0,P|128:85|180:22,1,135,2|0,0:0|0:0,0:0:0:0:
191,13,79819,1,2,0:0:0:0:
193,225,79975,1,8,0:0:0:0:
20,53,80130,1,2,0:0:0:0:
55,53,80208,1,0,0:0:0:0:
85,71,80286,1,0,0:0:0:0:
106,231,80441,6,0,P|87:243|65:248,1,45,2|0,0:0|0:0,0:0:0:0:
193,225,80597,2,0,P|193:248|176:286,1,45,10|0,0:0|0:0,0:0:0:0:
246,153,80752,2,0,P|265:167|277:186,1,45,0|0,0:0|0:0,0:0:0:0:
231,65,80908,5,0,0:0:0:0:
193,225,81063,1,0,0:0:0:0:
332,113,81218,1,8,0:0:0:0:
159,4,81374,1,0,0:0:0:0:
140,35,81452,1,0,0:0:0:0:
140,71,81529,1,0,0:0:0:0:
277,185,81685,1,0,0:0:0:0:
231,65,81840,1,8,0:0:0:0:
41,174,81996,6,0,P|111:171|160:233,1,135,2|0,0:0|0:0,0:0:0:0:
162,245,82306,2,0,P|152:294|103:333,1,90,2|4,0:0|0:0,0:0:0:0:
304,369,82617,2,0,L|291:310,2,45,2|0|0,0:0|0:0|0:0,0:0:0:0:
263,200,82928,1,8,0:0:0:0:
306,213,83006,1,8,0:0:0:0:
350,205,83084,1,8,0:0:0:0:
385,178,83161,1,8,0:0:0:0:
408,139,83239,1,8,0:0:0:0:
411,93,83317,1,8,0:0:0:0:
398,49,83395,6,0,P|351:58|300:69,1,90,4|0,0:0|0:0,0:0:0:0:
145,115,83705,1,8,0:0:0:0:
276,168,83861,1,0,0:0:0:0:
105,19,84016,2,0,P|114:66|125:117,1,90,8|0,0:0|0:0,0:0:0:0:
163,277,84327,1,8,0:0:0:0:
345,207,84483,6,0,P|299:194|245:182,1,90,2|8,0:0|0:0,0:0:0:0:
38,138,84794,1,2,0:0:0:0:
135,247,84949,1,8,0:0:0:0:
223,95,85104,1,2,0:0:0:0:
223,95,85182,1,0,0:0:0:0:
223,95,85260,1,8,0:0:0:0:
305,336,85415,6,0,L|293:293,1,45,2|0,0:0|0:0,0:0:0:0:
130,156,85571,2,0,L|173:166,1,45,10|0,0:0|0:0,0:0:0:0:
387,210,85726,2,0,L|343:220,1,45,0|0,0:0|0:0,0:0:0:0:
175,372,85882,5,4,0:0:0:0:
210,245,86037,1,0,0:0:0:0:
386,300,86192,1,8,0:0:0:0:
205,361,86348,1,8,0:0:0:0:
130,156,86503,1,8,0:0:0:0:
301,205,86659,1,8,0:0:0:0:
79,257,86814,1,8,0:0:0:0:
385,300,86970,6,0,P|340:307|297:318,1,90,2|8,0:0|0:0,0:0:0:0:
79,257,87281,1,2,0:0:0:0:
224,150,87436,1,0,0:0:0:0:
175,372,87591,2,0,P|189:319|199:273,1,90,4|0,0:0|0:0,0:0:0:0:
264,63,87902,1,8,0:0:0:0:
264,63,87980,1,8,0:0:0:0:
264,63,88058,2,0,L|220:72,1,45,8|0,0:0|0:0,0:0:0:0:
22,181,88213,6,0,P|99:166|161:214,1,161.999995056153,4|0,0:0|0:0,0:0:0:0:
