osu file format v14

[General]
AudioFilename: audio.mp3
AudioLeadIn: 0
PreviewTime: 55415
Countdown: 0
SampleSet: Soft
StackLeniency: 0.5
Mode: 0
LetterboxInBreaks: 0
WidescreenStoryboard: 0

[Editor]
DistanceSpacing: 1
BeatDivisor: 2
GridSize: 32
TimelineZoom: 1

[Metadata]
Title:Choumusubi Amulet (TV Size)
TitleUnicode:蝶結びアミュレット(TV Size)
Artist:Mia REGINA
ArtistUnicode:Mia REGINA
Creator:DreaM117er
Version:Easy
Source:装神少女まとい
Tags:Soushin Shoujo Matoi the Sacred Slayer OP tv size Moecho Moeri m1223961117
BeatmapID:1224676
BeatmapSetID:576534

[Difficulty]
HPDrainRate:2
CircleSize:2.5
OverallDifficulty:2
ApproachRate:3
SliderMultiplier:0.9
SliderTickRate:1

[Events]
//Background and Video events
0,0,"BG.jpg",0,0
//Break Periods
2,6495,8120
//Storyboard Layer 0 (Background)
//Storyboard Layer 1 (Fail)
//Storyboard Layer 2 (Pass)
//Storyboard Layer 3 (Foreground)
//Storyboard Sound Samples

[TimingPoints]
79,310.880829015544,4,2,1,40,1,0
6296,-100,4,2,1,10,0,0
9560,-100,4,2,1,40,0,0
10027,-100,4,2,1,60,0,0
15001,-100,4,2,1,50,0,0
24949,-100,4,2,1,60,0,0
32410,-100,4,2,1,45,0,0
39871,-100,4,2,1,60,0,0
44845,-100,4,2,1,40,0,0
49353,-100,4,2,1,60,0,0
55882,-100,4,2,1,80,0,1
65830,-100,4,2,1,80,0,0
66296,-100,4,2,1,80,0,1
70804,-100,4,2,1,80,0,0
70959,-100,4,2,1,80,0,1
75933,-100,4,2,1,80,0,0
78420,-100,4,2,1,60,0,0

[Colours]
Combo1 : 241,109,202
Combo2 : 251,28,95
Combo3 : 206,55,238

[HitObjects]
224,271,1167,6,0,P|266:315|362:297,1,135,4|0,0:0|0:0,0:0:0:0:
416,274,1944,1,2,0:0:0:0:
484,157,2410,2,0,P|411:149|334:134,1,135,0|0,0:0|0:0,0:0:0:0:
266,169,3187,2,0,P|194:180|152:190,1,90,2|2,0:0|0:0,0:0:0:0:
105,238,3809,6,0,P|88:196|91:152,2,90,0|0|2,0:0|0:0|0:0,0:0:0:0:
219,309,4897,2,0,B|300:277|362:333|375:385|456:400|516:240|421:221|346:214|337:305,1,405
292,208,9560,6,0,L|300:164,1,45,0|8,0:0|0:0,0:0:0:0:
354,92,10027,2,0,P|397:103|442:108,2,90,4|8|0,0:0|0:0|0:0,0:0:0:0:
222,122,11115,2,0,P|215:77|208:33,1,90,2|2,0:0|0:0,0:0:0:0:
117,36,11737,2,0,P|129:104|141:191,1,135,2|10,0:0|0:0,0:0:0:0:
90,245,12514,6,0,P|44:250|-5:266,2,90,0|8|0,0:0|0:0|0:0,0:0:0:0:
205,314,13602,2,0,P|254:322|302:328,1,90,2|2,0:0|0:0,0:0:0:0:
373,284,14224,2,0,P|427:295|485:244,1,135,2|8,0:0|0:0,0:0:0:0:
508,159,15001,5,4,0:0:0:0:
453,87,15312,2,0,P|386:77|303:62,1,135,8|0,0:0|0:0,0:0:0:0:
240,21,16089,2,0,P|274:76|266:153,1,135,8|8,0:0|0:0,0:0:0:0:
217,217,16866,2,0,P|163:236|121:230,1,90,0|8,0:0|0:0,0:0:0:0:
54,280,17488,5,0,0:0:0:0:
9,201,17799,2,0,L|29:55,1,135,8|0,0:0|0:0,0:0:0:0:
101,16,18576,2,0,P|138:59|235:48,1,135,8|8,0:0|0:0,0:0:0:0:
298,89,19353,2,0,P|358:80|399:71,1,90,0|8,0:0|0:0,0:0:0:0:
472,100,19975,6,0,P|480:55|487:11,2,90,0|8|0,0:0|0:0|0:0,0:0:0:0:
425,227,21063,2,0,P|379:179|313:180,1,135,8|8,0:0|0:0,0:0:0:0:
238,229,21840,2,0,P|246:281|258:343,1,90,0|8,0:0|0:0,0:0:0:0:
181,373,22462,6,0,L|2:349,2,180,2|2|2,0:0|0:0|0:0,0:0:0:0:
252,317,24016,1,8,0:0:0:0:
332,276,24327,2,0,P|388:284|425:305,1,90,0|8,0:0|0:0,0:0:0:0:
500,264,24949,6,0,P|509:322|513:360,2,90,4|8|0,0:0|0:0|0:0,0:0:0:0:
473,131,26037,2,0,P|424:178|351:164,1,135,0|8,0:0|0:0,0:0:0:0:
301,103,26814,2,0,P|257:111|189:128,1,90,0|8,0:0|0:0,0:0:0:0:
187,34,27436,6,0,P|231:25|275:15,2,90,0|8|0,0:0|0:0|0:0,0:0:0:0:
52,19,28524,2,0,P|18:80|47:161,1,135,0|8,0:0|0:0,0:0:0:0:
102,195,29301,2,0,P|121:243|117:290,1,90,8|8,0:0|0:0,0:0:0:0:
142,367,29923,6,0,P|97:368|57:348,2,90,4|8|0,0:0|0:0|0:0,0:0:0:0:
224,331,30856,1,8,0:0:0:0:
284,264,31167,2,0,P|327:257|377:252,1,90,0|8,0:0|0:0,0:0:0:0:
422,176,31788,2,0,P|466:183|511:187,2,90,0|8|12,0:0|0:0|0:0,0:0:0:0:
114,76,33654,5,4,0:0:0:0:
28,105,33965,2,0,P|21:64|14:11,2,90,8|8|0,0:0|0:0|0:0,0:0:0:0:
54,191,34897,6,0,P|107:178|208:258,1,180,4|2,0:0|0:0,0:0:0:0:
272,361,35985,2,0,P|227:370|183:376,2,90,2|2|0,0:0|0:0|0:0,0:0:0:0:
396,308,37073,1,12,0:0:0:0:
376,219,37384,6,0,P|331:213|287:203,1,90,0|2,0:0|0:0,0:0:0:0:
206,162,38006,2,0,P|156:206|66:198,1,135,0|2,0:0|0:0,0:0:0:0:
3,183,38783,2,0,P|14:108|26:36,1,135,0|0,0:0|0:0,0:0:0:0:
107,15,39560,1,8,0:0:0:0:
167,81,39871,6,0,L|260:62,2,90,4|8|0,0:0|0:0|0:0,0:0:0:0:
175,215,40959,2,0,L|268:196,1,90,2|2,0:0|0:0,0:0:0:0:
351,214,41581,2,0,P|414:201|490:191,1,135,0|8,0:0|0:0,0:0:0:0:
467,103,42358,6,0,B|391:117|342:125|342:125|269:101,1,180,4|0,0:0|0:0,0:0:0:0:
203,129,43291,1,8,0:0:0:0:
187,217,43602,2,0,P|179:267|169:329,2,90,0|12|8,0:0|0:0|0:0,0:0:0:0:
217,39,44845,6,0,B|166:55|166:55|117:47|41:33,1,180,4|8,0:0|0:0,0:0:0:0:
5,163,45933,2,0,P|21:222|25:276,1,90,2|2,0:0|0:0,0:0:0:0:
43,338,46555,2,0,P|97:311|192:310,1,135,2|8,0:0|0:0,0:0:0:0:
252,268,47332,6,0,P|290:314|407:318,1,180,4|10,0:0|0:0,0:0:0:0:
493,218,48420,2,0,B|504:275|514:308|514:308|511:336|503:360,2,135,4|12|8,0:0|0:0|0:0,0:0:0:0:
415,107,49819,6,0,P|459:84|508:84,2,90,4|8|0,0:0|0:0|0:0,0:0:0:0:
301,183,50908,2,0,P|311:249|322:316,1,135,2|8,0:0|0:0,0:0:0:0:
236,344,51685,2,0,P|226:278|215:211,1,135,0|4,0:0|0:0,0:0:0:0:
256,192,52306,12,0,54327,0:0:0:0:
335,31,55882,6,0,L|317:180,1,135,4|8,0:0|0:0,0:0:0:0:
374,236,56659,2,0,B|398:248|422:256|422:256|461:247|501:231,2,135,2|2|8,0:0|0:0|0:0,0:0:0:0:
297,283,57902,2,0,P|238:291|194:301,1,90,0|8,0:0|0:0,0:0:0:0:
141,358,58524,2,0,P|119:308|123:262,1,90,2|10,0:0|0:0,0:0:0:0:
152,189,59146,2,0,P|86:175|9:162,2,135,2|2|8,0:0|0:0|0:0,0:0:0:0:
238,213,60389,1,8,0:0:0:0:
276,83,60856,6,0,P|342:73|409:60,1,135,4|8,0:0|0:0,0:0:0:0:
448,142,61633,2,0,P|454:186|464:230,1,90,2|10,0:0|0:0,0:0:0:0:
376,254,62255,2,0,P|369:209|359:165,2,90,0|10|0,0:0|0:0|0:0,0:0:0:0:
345,338,63187,1,10,0:0:0:0:
260,367,63498,6,0,P|198:360|171:334,1,90,6|10,0:0|0:0,0:0:0:0:
131,265,64120,2,0,P|81:308|-13:293,2,135,10|4|0,0:0|0:0|0:0,0:0:0:0:
172,185,65363,2,0,P|162:117|148:20,1,135,8|8,0:0|0:0,0:0:0:0:
282,13,66296,5,4,0:0:0:0:
350,71,66607,2,0,B|397:52|440:47|440:47|507:83,2,135,0|2|8,0:0|0:0|0:0,0:0:0:0:
289,138,67851,2,0,P|345:164|382:157,1,90,0|10,0:0|0:0,0:0:0:0:
461,157,68472,2,0,L|441:277,1,90,0|10,0:0|0:0,0:0:0:0:
397,321,69094,2,0,P|485:336|518:389,2,135,0|4|10,0:0|0:0|0:0,0:0:0:0:
321,370,70338,2,0,L|225:349,1,90,0|8,0:0|0:0,0:0:0:0:
152,311,70959,6,0,P|86:327|60:324,2,90,4|8|8,0:0|0:0|0:0,0:0:0:0:
226,260,71892,1,8,0:0:0:0:
303,213,72203,2,0,P|347:217|386:239,1,90,8|8,0:0|0:0,0:0:0:0:
463,286,72825,2,0,P|473:242|480:197,1,90,8|8,0:0|0:0,0:0:0:0:
425,125,73446,6,0,P|415:81|406:28,1,90,4|8,0:0|0:0,0:0:0:0:
317,43,74068,2,0,P|251:28|184:16,2,135,8|4|12,0:0|0:0|0:0,0:0:0:0:
336,131,75312,2,0,P|291:200|196:186,1,180,8|4,0:0|0:0,0:0:0:0:
220,176,77954,6,0,L|212:220,1,45,0|8,0:0|0:0,0:0:0:0:
158,292,78420,2,0,P|114:280|69:275,2,90,4|8|0,0:0|0:0|0:0,0:0:0:0:
290,262,79509,2,0,P|297:307|304:351,1,90,2|2,0:0|0:0,0:0:0:0:
395,348,80130,2,0,P|383:280|371:193,1,135,2|10,0:0|0:0,0:0:0:0:
422,139,80908,6,0,P|468:134|517:118,2,90,0|8|0,0:0|0:0|0:0,0:0:0:0:
307,70,81996,2,0,P|258:62|210:56,1,90,2|2,0:0|0:0,0:0:0:0:
139,100,82617,2,0,P|85:89|27:140,1,135,2|0,0:0|0:0,0:0:0:0:
9,225,83395,6,0,P|58:233|106:239,1,90,12|8,0:0|0:0,0:0:0:0:
158,304,84016,2,0,P|228:282|259:283,1,90,8|8,0:0|0:0,0:0:0:0:
328,248,84638,2,0,P|390:271|432:266,2,90,8|8|8,0:0|0:0|0:0,0:0:0:0:
256,192,85571,1,8,0:0:0:0:
256,192,85882,12,4,88213,0:0:0:0:
