osu file format v14

[General]
AudioFilename: audio.mp3
AudioLeadIn: 0
PreviewTime: 223585
Countdown: 1
SampleSet: None
StackLeniency: 0.2
Mode: 0
LetterboxInBreaks: 0
WidescreenStoryboard: 0

[Editor]
DistanceSpacing: 0.9
BeatDivisor: 4
GridSize: 32
TimelineZoom: 2.999999

[Metadata]
Title:My Sweet Maiden
TitleUnicode:My Sweet Maiden
Artist:Mia REGINA / R3 Music Box
ArtistUnicode:Mia REGINA / R3 Music Box
Creator:Agony-Nyan
Version:
Source:
Tags:
BeatmapID:2043228
BeatmapSetID:976312

[Difficulty]
HPDrainRate:4
CircleSize:4
OverallDifficulty:9.7
ApproachRate:9.8
SliderMultiplier:2.3
SliderTickRate:1

[Events]
//Background and Video events
//Break Periods
//Storyboard Layer 0 (Background)
//Storyboard Layer 1 (Fail)
//Storyboard Layer 2 (Pass)
//Storyboard Layer 3 (Foreground)
//Storyboard Sound Samples

[TimingPoints]
760,279.06976744186,4,2,8,30,1,0
1318,294.117647058824,4,2,1,35,1,0
10729,294.117647058824,3,2,2,45,1,0
26611,294.117647058824,4,2,2,60,1,0
45424,294.117647058824,4,2,2,60,1,0
45424,-100,4,3,2,60,0,0
45718,-100,4,3,10,85,0,0
47776,-100,4,2,8,60,0,0
50129,-100,4,3,10,80,0,0
51306,-66.6666666666667,4,3,10,80,0,0
71306,-133.333333333333,4,3,10,60,0,0
76010,-100,4,2,2,80,0,0
79247,-80,4,2,2,80,0,0
79688,-80,4,3,10,80,0,0
80718,-80,4,3,5,80,0,0
83071,-66.6666666666667,4,3,5,80,0,0
273015,705.882352941176,4,2,69,35,1,0
273720,705.882352941176,4,2,69,35,1,0
307607,789.473684210526,4,2,69,35,1,0
308001,779.220779220779,4,2,69,35,1,0
308780,833.333333333333,4,2,69,35,1,0
309613,1000,4,2,69,35,1,0
310113,1071.42857142857,4,2,69,35,1,0
310648,845.070422535211,4,2,69,35,1,0

[HitObjects]
82,326,45424,5,0,0:0:0:0:
82,326,45717,5,2,0:0:0:0:
396,37,45864,1,2,0:0:0:0:
132,2,46011,5,2,0:0:0:0:
435,300,46158,1,2,0:0:0:0:
420,123,46305,5,2,0:0:0:0:
144,384,46452,1,2,0:0:0:0:
26,47,46600,5,2,0:0:0:0:
353,384,46747,1,2,0:0:0:0:
0,271,46894,5,0,0:0:0:0:
274,22,47041,1,0,0:0:0:0:
304,29,47114,1,0,0:0:0:0:
337,52,47188,2,0,P|350:82|355:122,1,57.5
341,209,47335,5,0,0:0:0:0:
287,231,47408,1,0,0:0:0:0:
228,216,47482,2,0,B|103:196|163:263|21:231,1,172.5
5,192,47776,5,0,0:0:0:0:
21,157,47874,1,0,0:0:0:0:
59,154,47973,1,0,0:0:0:0:
74,188,48071,1,0,0:0:0:0:
46,215,48169,1,0,0:0:0:0:
26,247,48267,1,0,0:0:0:0:
36,291,48365,1,0,0:0:0:0:
83,316,48463,1,0,0:0:0:0:
140,294,48561,1,0,0:0:0:0:
201,290,48659,1,0,0:0:0:0:
264,317,48757,1,0,0:0:0:0:
332,309,48855,1,0,0:0:0:0:
396,284,48953,6,0,P|426:253|437:186,1,76.6666666666667
347,42,49149,2,0,P|321:75|312:129,1,76.6666666666667
317,217,49345,5,0,0:0:0:0:
251,195,49443,1,0,0:0:0:0:
192,232,49541,1,0,0:0:0:0:
202,300,49639,1,0,0:0:0:0:
266,325,49737,1,0,0:0:0:0:
319,281,49835,2,0,P|382:231|484:229,1,153.333333333333
437,298,50129,5,10,0:0:0:0:
261,11,50276,1,10,0:0:0:0:
104,347,50424,1,10,0:0:0:0:
87,80,50571,5,10,0:0:0:0:
490,172,50718,1,10,0:0:0:0:
0,246,50865,1,10,0:0:0:0:
18,64,51012,5,10,0:0:0:0:
262,340,51159,1,10,0:0:0:0:
262,340,51232,1,10,0:0:0:0:
262,340,51306,5,0,0:0:0:0:
304,19,51453,1,0,0:0:0:0:
385,220,51894,6,0,P|359:161|363:249,1,258.75000987053
340,206,52188,6,0,B|179:182|235:252|81:230,1,258.75000987053
6,207,52482,5,0,0:0:0:0:
151,0,52629,1,0,0:0:0:0:
240,319,52776,1,0,0:0:0:0:
85,181,52924,2,0,P|44:108|66:10,1,172.500006580353
108,89,53218,5,0,0:0:0:0:
279,239,53365,2,0,L|475:215,1,172.500006580353
107,251,53659,2,0,P|54:174|83:84,1,172.500006580353
295,11,53953,6,0,L|278:198,1,172.500006580353
247,290,54247,6,0,P|233:363|218:270,1,258.75000987053
207,318,54541,6,0,B|198:227|198:227|224:148|224:148|215:59,1,258.75000987053
348,48,54835,6,0,B|362:166|362:166|341:225,1,172.500006580353
286,290,55129,5,0,0:0:0:0:
152,47,55276,1,0,0:0:0:0:
0,310,55424,1,0,0:0:0:0:
275,161,55571,1,0,0:0:0:0:
152,47,55718,6,0,B|137:103|137:103|181:236,1,172.500006580353
232,272,56012,2,0,B|381:251|360:310|502:304,1,258.75000987053
428,206,56306,2,0,P|347:174|279:110,1,172.500006580353
221,72,56600,5,0,0:0:0:0:
205,45,56674,1,0,0:0:0:0:
171,53,56747,1,0,0:0:0:0:
164,85,56821,1,0,0:0:0:0:
193,110,56894,1,0,0:0:0:0:
235,102,56968,1,0,0:0:0:0:
286,105,57041,1,0,0:0:0:0:
339,133,57115,1,0,0:0:0:0:
366,186,57188,6,0,B|385:215|434:230|434:230|340:208|247:232,1,258.75000987053
138,249,57482,2,0,B|121:200|121:200|131:136|131:136|115:72,1,172.500006580353
243,30,57776,2,0,P|343:27|445:159,1,258.75000987053
498,310,58071,2,0,B|434:291|373:320|373:320|377:325|377:325|373:320|373:320|313:344|234:316,1,258.75000987053
119,274,58365,6,0,P|177:211|279:185,1,172.500006580353
447,175,58659,2,0,P|377:123|284:106,1,172.500006580353
155,70,58953,6,0,B|94:98|85:156|85:156|74:280|215:355|322:251|328:169|197:21|141:170|167:190|167:190|171:199|198:202,1,603.750023031236
182,195,59541,5,0,0:0:0:0:
383,12,59688,1,0,0:0:0:0:
492,350,59835,1,0,0:0:0:0:
75,82,59982,5,0,0:0:0:0:
508,218,60129,1,0,0:0:0:0:
7,273,60276,1,0,0:0:0:0:
126,375,60424,5,0,0:0:0:0:
328,37,60571,1,0,0:0:0:0:
328,37,60644,1,0,0:0:0:0:
328,37,60718,5,0,0:0:0:0:
0,116,60865,1,0,0:0:0:0:
490,198,61012,1,0,0:0:0:0:
16,277,61159,1,0,0:0:0:0:
372,335,61306,1,0,0:0:0:0:
406,286,61379,5,0,0:0:0:0:
408,225,61453,1,0,0:0:0:0:
383,170,61526,1,0,0:0:0:0:
327,144,61600,1,0,0:0:0:0:
266,141,61674,1,0,0:0:0:0:
213,170,61747,1,0,0:0:0:0:
154,187,61821,1,0,0:0:0:0:
94,179,61894,2,0,P|137:118|241:91,1,172.500006580353
382,111,62188,5,0,0:0:0:0:
153,45,62335,1,0,0:0:0:0:
153,45,62409,1,0,0:0:0:0:
153,45,62482,1,0,0:0:0:0:
91,319,62629,1,0,0:0:0:0:
265,197,62776,2,0,P|347:152|444:157,1,172.500006580353
271,295,63071,2,0,B|109:271|169:345|-10:312,1,258.75000987053
10,242,63365,2,0,B|-6:192|-6:192|15:60,1,172.500006580353
180,95,63659,6,0,P|169:42|218:111,1,258.75000987053
218,60,63953,2,0,B|196:145|196:145|217:229|217:229|196:311,1,258.75000987053
190,330,64247,5,0,0:0:0:0:
454,176,64394,1,0,0:0:0:0:
77,129,64541,1,0,0:0:0:0:
84,138,64615,1,0,0:0:0:0:
84,138,64688,2,0,P|170:129|247:166,1,172.500006580353
290,261,64982,5,0,0:0:0:0:
386,74,65129,1,0,0:0:0:0:
506,326,65276,1,0,0:0:0:0:
461,286,65350,1,0,0:0:0:0:
407,259,65424,2,0,B|228:222|319:318|78:275,1,258.75000987053
45,281,65718,6,0,P|27:189|71:101,1,172.500006580353
171,65,66012,5,0,0:0:0:0:
246,47,66085,1,0,0:0:0:0:
322,64,66159,1,0,0:0:0:0:
372,122,66232,1,0,0:0:0:0:
393,197,66306,2,0,L|411:304,1,86.2500032901765
123,245,66453,2,0,L|114:150,1,86.2500032901765
109,88,66600,5,0,0:0:0:0:
109,88,66894,5,0,0:0:0:0:
506,169,67041,1,0,0:0:0:0:
216,11,67188,5,0,0:0:0:0:
486,333,67335,1,0,0:0:0:0:
51,275,67482,5,0,0:0:0:0:
395,12,67629,1,0,0:0:0:0:
482,362,67776,5,0,0:0:0:0:
198,54,67924,1,0,0:0:0:0:
146,259,68071,5,0,0:0:0:0:
483,0,68218,1,0,0:0:0:0:
133,12,68365,5,0,0:0:0:0:
483,359,68512,1,0,0:0:0:0:
0,230,68659,5,0,0:0:0:0:
261,20,68806,1,0,0:0:0:0:
261,20,68879,1,0,0:0:0:0:
261,20,68953,6,0,L|244:114,1,86.2500032901765
424,352,69100,2,0,L|441:260,1,86.2500032901765
453,190,69247,5,0,0:0:0:0:
447,112,69321,1,0,0:0:0:0:
399,51,69394,1,0,0:0:0:0:
322,36,69468,1,0,0:0:0:0:
251,68,69541,1,0,0:0:0:0:
218,139,69615,1,0,0:0:0:0:
156,185,69688,1,0,0:0:0:0:
87,171,69762,1,0,0:0:0:0:
54,120,69835,1,0,0:0:0:0:
67,69,69909,1,0,0:0:0:0:
116,56,69982,1,0,0:0:0:0:
145,98,70056,1,0,0:0:0:0:
108,145,70129,5,0,0:0:0:0:
83,200,70203,1,0,0:0:0:0:
96,258,70276,1,0,0:0:0:0:
162,277,70350,1,0,0:0:0:0:
220,239,70424,1,0,0:0:0:0:
264,187,70497,1,0,0:0:0:0:
332,174,70571,1,0,0:0:0:0:
392,205,70644,1,0,0:0:0:0:
412,271,70718,1,0,0:0:0:0:
382,332,70791,1,0,0:0:0:0:
314,350,70865,5,0,0:0:0:0:
242,321,70938,1,0,0:0:0:0:
202,253,71012,1,0,0:0:0:0:
227,180,71085,1,0,0:0:0:0:
296,144,71159,1,0,0:0:0:0:
367,172,71232,1,0,0:0:0:0:
404,240,71306,1,0,0:0:0:0:
256,192,71379,12,0,72188,0:0:0:0:
256,192,72335,6,0,L|269:93,1,86.2500032901765
276,30,72629,5,0,0:0:0:0:
109,221,72776,1,0,0:0:0:0:
368,261,72924,1,0,0:0:0:0:
289,342,73071,5,0,0:0:0:0:
303,222,73218,1,0,0:0:0:0:
317,102,73365,1,0,0:0:0:0:
159,316,73512,5,0,0:0:0:0:
317,102,73659,1,0,0:0:0:0:
475,316,73806,5,0,0:0:0:0:
317,102,73953,1,0,0:0:0:0:
323,7,74100,5,0,0:0:0:0:
317,102,74247,1,0,0:0:0:0:
311,196,74394,1,0,0:0:0:0:
252,157,74541,6,0,P|199:172|150:158,1,86.2500032901765
385,75,74835,2,0,P|438:60|487:74,1,86.2500032901765
466,156,75129,5,0,0:0:0:0:
107,258,75276,1,0,0:0:0:0:
100,256,75424,1,0,0:0:0:0:
478,292,75571,1,0,0:0:0:0:
478,292,75644,1,0,0:0:0:0:
478,292,75718,2,0,L|464:232,1,43.1250016450883
425,75,75865,2,0,L|411:15,1,43.1250016450883
328,33,76012,6,0,P|220:12|96:132,1,287.5,2|0,0:0|0:0,0:0:0:0:
37,222,76453,2,0,B|139:197|102:271|232:245,1,172.5,2|0,0:0|0:0,0:0:0:0:
301,268,76747,5,0,0:0:0:0:
301,268,76821,1,0,0:0:0:0:
301,268,76894,2,0,L|305:127,1,115,2|0,0:0|0:0,0:0:0:0:
241,37,77188,6,0,P|310:14|470:156,1,287.5,2|0,0:0|0:0,0:0:0:0:
473,248,77629,2,0,B|429:219|429:219|281:235,1,172.5,2|0,0:0|0:0,0:0:0:0:
186,242,77924,5,0,0:0:0:0:
186,242,77997,1,0,0:0:0:0:
186,242,78071,2,0,P|215:194|205:107,1,115,2|0,0:0|0:0,0:0:0:0:
114,71,78365,6,2,B|294:54|217:165|410:139,1,287.5,2|0,0:0|0:0,0:0:0:0:
459,26,78806,6,0,P|483:123|344:253,1,287.5,2|0,0:0|0:0,0:0:0:0:
244,320,79247,6,0,B|217:222|217:222|247:123|247:123|233:42,1,287.5,2|0,0:0|0:0,0:0:0:0:
119,43,79615,5,0,0:0:0:0:
119,43,79688,2,0,L|113:122,1,71.875
287,240,79835,2,0,L|293:161,1,71.875
148,28,79982,2,0,L|142:107,1,71.875
316,225,80129,2,14,L|322:146,1,71.875
328,47,80276,5,14,0:0:0:0:
249,34,80350,1,14,0:0:0:0:
175,63,80424,1,14,0:0:0:0:
134,129,80497,1,14,0:0:0:0:
133,208,80571,1,14,0:0:0:0:
182,268,80644,1,14,0:0:0:0:
259,284,80718,2,0,P|303:283|344:266,1,71.875,12|0,0:0|0:0,0:0:0:0:
512,184,80865,2,0,P|458:163|423:167,1,71.875,2|0,0:0|0:0,0:0:0:0:
338,174,81012,5,0,0:0:0:0:
213,0,81159,1,2,0:0:0:0:
109,280,81306,1,12,0:0:0:0:
109,280,81379,2,0,B|169:294|217:253|217:253|268:293|268:293|314:265|370:289,1,287.5
482,256,81747,5,0,0:0:0:0:
503,179,81821,1,0,0:0:0:0:
482,103,81894,2,2,B|344:93|402:157|258:147,1,215.625
133,200,82188,6,0,P|133:125|242:43,1,215.625,8|0,0:0|0:0,0:0:0:0:
361,75,82482,6,0,L|355:163,1,71.875
370,70,82629,2,0,L|364:158,1,71.875
418,234,82776,6,0,B|456:269|456:269|288:255,1,215.625,14|0,0:0|0:0,0:0:0:0:
48,279,83071,6,0,P|90:262|117:204,1,86.2500032901765,14|0,0:0|0:0,0:0:0:0:
331,233,83218,2,0,P|303:196|240:185,1,86.2500032901765,8|0,0:0|0:0,0:0:0:0:
139,0,83365,2,0,P|132:44|169:97,1,86.2500032901765,8|0,0:0|0:0,0:0:0:0:
247,181,83512,6,0,L|268:93,1,86.2500032901765,8|0,0:0|0:0,0:0:0:0:
366,184,83659,2,2,L|358:223,9,28.7500010967255,10|2|2|2|2|2|2|2|2|2,0:0|0:0|0:0|0:0|0:0|0:0|0:0|0:0|0:0|0:0,0:0:0:0:
247,181,83953,5,0,0:0:0:0:
198,206,84026,1,0,0:0:0:0:
144,206,84100,2,0,P|91:196|45:160,1,86.2500032901765
355,106,84247,2,0,P|408:116|454:152,1,86.2500032901765,14|0,0:0|0:0,0:0:0:0:
510,210,84394,5,0,0:0:0:0:
470,277,84468,1,0,0:0:0:0:
395,297,84541,2,0,L|385:232,6,43.1250016450883,14|0|0|0|0|0|0,0:0|0:0|0:0|0:0|0:0|0:0|0:0,0:0:0:0:
295,224,84835,2,2,L|307:182,18,28.7500010967255,14|2|2|2|2|2|2|2|2|2|2|2|2|2|2|2|2|2|2,0:0|0:0|0:0|0:0|0:0|0:0|0:0|0:0|0:0|0:0|0:0|0:0|0:0|0:0|0:0|0:0|0:0|0:0|0:0,0:0:0:0:
205,274,85424,6,2,L|119:285,1,86.2500032901765,14|0,0:0|0:0,0:0:0:0:
330,105,85571,2,2,L|415:93,1,86.2500032901765,2|0,0:0|0:0,0:0:0:0:
433,191,85718,6,2,L|422:315,1,86.2500032901765,10|0,0:0|0:0,0:0:0:0:
443,182,85865,2,2,L|432:306,1,86.2500032901765,2|0,0:0|0:0,0:0:0:0:
375,361,86012,6,0,B|391:272|324:193|324:193|278:133|326:6|444:119|363:225|363:225|341:244|301:255,1,517.500019741059,14|0,0:0|0:0,0:0:0:0:
312,249,86526,1,0,0:0:0:0:
204,289,86600,6,0,L|191:204,1,86.2500032901765
213,296,86747,6,0,L|200:211,1,86.2500032901765
127,142,86894,6,0,P|156:106|382:104,1,258.75000987053,14|0,0:0|0:0,0:0:0:0:
438,158,87188,6,0,P|368:215|260:355,1,258.75000987053,14|0,0:0|0:0,0:0:0:0:
271,332,87482,2,0,P|194:204|118:127,1,258.75000987053,10|0,0:0|0:0,0:0:0:0:
55,43,87776,6,0,L|170:25,1,86.2500032901765,14|0,0:0|0:0,0:0:0:0:
50,50,87924,6,0,L|165:32,1,86.2500032901765
288,44,88071,6,0,L|273:133,1,86.2500032901765,8|0,0:0|0:0,0:0:0:0:
113,250,88218,2,0,L|91:160,1,86.2500032901765
112,0,88365,6,0,B|40:16|25:84|25:84|6:200|101:266|239:220|275:120|193:-5|50:71|110:126|110:126|119:130|149:125,1,603.750023031236,8|0,0:0|0:0,0:0:0:0:
117,127,88953,5,14,0:0:0:0:
110,178,89026,1,0,0:0:0:0:
96,228,89100,2,0,L|70:338,1,86.2500032901765
306,268,89247,2,0,L|317:217,6,43.1250016450883,8|0|0|0|0|0|0,0:0|0:0|0:0|0:0|0:0|0:0|0:0,0:0:0:0:
44,223,89541,6,2,L|49:126,1,86.2500032901765,14|2,0:0|0:0,0:0:0:0:
34,230,89688,6,2,L|39:133,1,86.2500032901765
249,341,89835,6,2,L|254:244,1,86.2500032901765
239,348,89982,6,2,L|244:251,1,86.2500032901765
