osu file format v14

[General]
AudioFilename: audio.mp3
AudioLeadIn: 0
PreviewTime: 40026
Countdown: 0
SampleSet: Soft
StackLeniency: 0.7
Mode: 0
LetterboxInBreaks: 0
WidescreenStoryboard: 0

[Editor]
DistanceSpacing: 1
BeatDivisor: 4
GridSize: 4
TimelineZoom: 1.1

[Metadata]
Title:Guang Yu Xin Yang
TitleUnicode:光与信仰
Artist:Mia
ArtistUnicode:血纯茗雅
Creator:Kibbleru
Version:Normal
Source:妖怪名单
Tags:yao guai ming dan
BeatmapID:1098914
BeatmapSetID:516839

[Difficulty]
HPDrainRate:3
CircleSize:3
OverallDifficulty:4
ApproachRate:5
SliderMultiplier:1
SliderTickRate:1

[Events]
//Background and Video events
Video,0,"optc (4).flv"
0,0,"fox.jpg",0,0
//Break Periods
//Storyboard Layer 0 (Background)
//Storyboard Layer 1 (Fail)
//Storyboard Layer 2 (Pass)
//Storyboard Layer 3 (Foreground)
//Storyboard Sound Samples

[TimingPoints]
0,342.837552139878,4,2,1,40,1,0
0,-100,4,2,1,40,0,0
21255,-100,4,2,1,40,0,0
21941,-100,4,2,1,40,0,0
24684,-100,4,2,1,40,0,0
32226,-100,4,2,1,40,0,0
40626,-100,4,2,1,40,0,0
41140,-100,4,2,1,60,0,1
51425,-100,4,2,1,60,0,1
52111,-100,4,2,1,60,0,1
62053,-100,4,2,1,60,0,1
62396,-100,4,2,1,60,0,1
62739,-100,4,2,1,60,0,0
63082,-100,4,2,1,60,0,1
72681,-100,4,2,1,60,0,0
73367,-100,4,2,1,60,0,1
74052,-100,4,2,1,60,0,0
79195,-100,4,2,1,60,0,0
79538,-100,4,2,1,60,0,1
81595,-100,4,2,1,60,0,1
82281,-100,4,2,1,60,0,1
84338,-100,4,2,1,40,0,0
87766,-100,4,2,1,10,0,0

[Colours]
Combo1 : 75,170,239
Combo2 : 255,148,40
Combo3 : 238,132,247

[HitObjects]
55,92,0,5,8,0:1:0:0:
138,146,342,2,0,P|187:144|234:126,1,100,10|10,0:1|0:1,0:0:0:0:
281,38,1028,1,8,0:1:0:0:
374,74,1371,2,0,L|361:173,1,100,10|8,0:1|0:1,0:0:0:0:
390,213,1885,2,0,L|403:312,1,100,2|0,0:0|0:0,0:0:0:0:
382,357,2399,1,10,0:1:0:0:
302,295,2742,5,8,0:1:0:0:
206,326,3085,2,0,P|156:317|107:309,1,100,10|10,0:1|0:1,0:0:0:0:
84,212,3771,1,8,0:1:0:0:
152,138,4114,2,0,P|219:109|288:132,1,150,10|2,0:1|0:1,0:0:0:0:
310,177,4799,2,0,L|297:237,2,50,8|8|10,0:1|0:3|0:1,0:0:0:0:
401,135,5485,5,8,0:1:0:0:
467,210,5828,2,0,P|454:258|445:307,1,100,10|10,0:1|0:1,0:0:0:0:
370,374,6513,1,8,0:1:0:0:
329,282,6856,2,0,P|279:276|229:268,1,100,10|8,0:1|0:1,0:0:0:0:
179,270,7371,2,0,P|129:275|79:283,1,100,2|0,0:0|0:0,0:0:0:0:
32,266,7885,1,10,0:1:0:0:
65,171,8228,6,0,P|114:165|164:157,1,100,10|10,0:1|0:1,0:0:0:0:
263,144,8913,2,0,P|312:151|362:157,1,100,10|10,0:1|0:1,0:0:0:0:
424,236,9599,1,8,0:1:0:0:
347,300,9942,1,8,0:1:0:0:
252,266,10285,2,0,L|241:331,2,50,8|8|8,0:1|0:0|0:1,0:0:0:0:
228,221,10799,2,0,L|219:171,1,50,8|8,0:0|0:1,0:0:0:0:
161,90,11313,6,0,P|210:81|258:69,1,100,10|10,0:1|0:1,0:0:0:0:
353,37,11999,1,8,0:1:0:0:
446,73,12342,2,0,P|423:116|430:165,1,100,10|8,0:1|0:1,0:0:0:0:
460,205,12856,2,0,P|482:248|475:297,1,100,2|0,0:0|0:0,0:0:0:0:
444,337,13370,1,10,0:1:0:0:
369,273,13713,5,8,0:1:0:0:
271,294,14056,2,0,P|221:288|171:282,1,100,10|10,0:1|0:1,0:0:0:0:
72,299,14742,1,8,0:0:0:0:
52,201,15084,2,0,P|130:196|177:136,1,150,10|2,0:1|0:0,0:0:0:0:
171,94,15770,2,0,L|160:28,2,50,8|8|8,0:1|0:3|0:1,0:0:0:0:
267,67,16456,5,8,0:1:0:0:
356,112,16799,2,0,L|338:223,1,100,10|10,0:1|0:1,0:0:0:0:
409,282,17484,1,8,0:1:0:0:
345,359,17827,2,0,P|295:356|245:351,1,100,10|8,0:1|0:1,0:0:0:0:
209,315,18341,2,0,P|159:317|109:322,1,100,2|0,0:0|0:0,0:0:0:0:
65,347,18856,1,10,0:1:0:0:
21,257,19198,6,0,P|25:207|29:157,1,100,10|10,0:1|0:1,0:0:0:0:
122,118,19884,2,0,P|126:167|130:217,1,100,10|10,0:1|0:1,0:0:0:0:
193,295,20570,1,8,0:1:0:0:
275,239,20913,1,0,0:1:0:0:
364,283,21255,2,0,L|375:213,1,50,8|8,0:0|0:0,0:0:0:0:
381,184,21598,2,0,L|392:114,1,50,8|8,0:0|0:0,0:0:0:0:
397,85,21941,6,0,P|359:110|293:107,1,100,12|8,0:1|0:0,0:0:0:0:
224,52,22627,2,0,L|229:-4,2,50,8|8|8,0:1|0:1|0:0,0:0:0:0:
149,119,23312,2,0,B|164:181|129:200|147:267,1,150,10|8,0:1|0:1,0:0:0:0:
158,316,23998,2,0,L|153:365,2,50,8|10|10,0:0|0:1|0:1,0:0:0:0:
246,267,24684,6,0,P|290:246|339:252,1,100,12|8,0:1|0:1,0:0:0:0:
434,223,25369,2,0,P|466:259|468:322,1,100,10|2,0:0|0:0,0:0:0:0:
393,372,26055,2,0,L|293:360,1,100,8|8,0:1|0:1,0:0:0:0:
215,297,26741,2,0,L|115:285,1,100,10|2,0:0|0:0,0:0:0:0:
56,204,27427,6,0,P|43:155|34:106,2,100,8|8|10,0:1|0:1|0:0,0:0:0:0:
136,144,28455,1,2,0:0:0:0:
216,203,28798,2,0,P|311:211|371:129,1,200,8|10,0:1|0:0,0:0:0:0:
271,120,29826,1,2,0:0:0:0:
328,38,30169,6,0,P|377:32|427:25,1,100,8|8,0:1|0:1,0:0:0:0:
494,99,30855,2,0,P|480:147|467:195,1,100,10|2,0:0|0:0,0:0:0:0:
380,245,31541,1,10,0:1:0:0:
294,194,31883,1,8,0:1:0:0:
235,275,32226,1,12,0:0:0:0:
138,252,32569,2,0,L|79:244,1,50,8|8,0:0|0:0,0:0:0:0:
38,252,32912,6,0,P|14:210|23:155,1,100,12|8,0:1|0:0,0:0:0:0:
96,94,33598,2,0,L|113:34,2,50,8|8|8,0:1|0:1|0:0,0:0:0:0:
130,129,34112,1,0,0:0:0:0:
130,129,34283,2,0,P|179:120|229:115,1,100,10|8,0:1|0:0,0:0:0:0:
311,177,34969,2,0,P|364:198|415:185,1,100,8|10,0:1|0:0,0:0:0:0:
441,156,35483,1,0,0:0:0:0:
441,156,35655,6,0,B|406:242|476:257|435:351,1,200,10|8,0:1|0:1,0:0:0:0:
350,298,36683,1,10,0:0:0:0:
309,206,37026,2,0,L|204:226,1,100,10|8,0:1|0:0,0:0:0:0:
166,248,37540,2,0,L|61:228,1,100,2|0,0:0|0:0,0:0:0:0:
19,241,38054,1,10,0:0:0:0:
1,142,38397,6,0,P|46:119|98:124,1,100,10|8,0:1|0:0,0:0:0:0:
163,198,39083,2,0,L|166:248,2,50,8|10|8,0:1|0:1|0:0,0:0:0:0:
196,160,39597,1,12,0:1:0:0:
388,40,40626,6,0,L|381:107,1,50,8|8,0:1|0:0,0:0:0:0:
444,167,41140,6,0,P|398:186|349:178,1,100,12|8,0:1|0:0,0:0:0:0:
266,121,41826,2,0,L|277:52,2,50,8|8|10,0:1|0:1|0:0,0:0:0:0:
228,213,42511,2,0,P|251:257|247:307,1,100,10|8,0:1|0:0,0:0:0:0:
149,326,43197,2,0,P|126:282|130:232,1,100,2|8,0:1|0:0,0:0:0:0:
170,140,43883,6,0,L|184:25,1,100,12|8,0:1|0:0,0:0:0:0:
281,52,44568,2,0,P|283:76|286:101,2,50,0|0|10,0:1|0:1|0:0,0:0:0:0:
380,66,45254,2,0,L|478:47,1,100,2|8,0:1|0:0,0:0:0:0:
480,147,45940,1,2,0:1:0:0:
511,242,46283,1,8,0:0:0:0:
450,321,46625,6,0,P|401:325|357:304,1,100,12|8,0:1|0:0,0:0:0:0:
296,222,47311,2,0,P|271:218|246:215,2,50,8|0|10,0:1|0:1|0:0,0:0:0:0:
348,136,47997,2,0,P|298:128|249:120,1,100,10|10,0:1|0:0,0:0:0:0:
155,86,48682,2,0,P|105:94|56:101,1,100,10|10,0:1|0:0,0:0:0:0:
98,192,49368,6,0,L|86:251,2,50,10|8|8,0:1|0:1|0:0,0:0:0:0:
191,227,50054,2,0,L|179:286,2,50,8|8|8,0:1|0:1|0:0,0:0:0:0:
257,152,50739,2,0,L|319:143,2,50,8|8|8,0:1|0:1|0:0,0:0:0:0:
215,123,51254,1,8,0:1:0:0:
215,123,51425,2,0,L|113:114,1,100,12|12,0:0|0:0,0:0:0:0:
95,212,52111,6,0,L|194:220,1,100,12|8,0:1|0:0,0:0:0:0:
261,294,52796,2,0,L|253:349,2,50,8|8|10,0:1|0:1|0:0,0:0:0:0:
336,228,53482,2,0,P|373:205|436:206,1,100,2|10,0:0|0:0,0:0:0:0:
460,299,54168,2,0,P|423:322|360:321,1,100,10|10,0:1|0:0,0:0:0:0:
269,304,54854,5,10,0:1:0:0:
188,245,55196,1,8,0:0:0:0:
99,291,55539,2,0,P|89:241|79:192,1,100,10|8,0:1|0:0,0:0:0:0:
91,93,56225,2,0,P|130:123|179:129,1,100,10|8,0:1|0:0,0:0:0:0:
263,74,56911,2,0,L|270:14,2,50,0|0|10,0:1|0:1|0:0,0:0:0:0:
315,159,57596,6,0,L|383:146,2,50,12|8|8,0:1|0:1|0:0,0:0:0:0:
280,194,58110,2,0,P|231:189|181:186,1,100,2|0,0:0|0:0,0:0:0:0:
141,214,58625,1,10,0:0:0:0:
42,195,58968,2,0,P|49:244|56:294,1,100,10|10,0:1|0:0,0:0:0:0:
155,313,59653,2,0,P|147:263|140:213,1,100,10|10,0:1|0:0,0:0:0:0:
219,151,60339,6,0,L|229:96,2,50,10|8|8,0:1|0:1|0:0,0:0:0:0:
286,225,61025,2,0,L|294:274,2,50,8|8|8,0:1|0:1|0:0,0:0:0:0:
361,158,61710,2,0,L|425:144,1,50,10|8,0:1|0:1,0:0:0:0:
457,164,62053,2,0,P|478:208|470:257,1,100,12|10,0:0|0:1,0:0:0:0:
383,305,62739,2,0,L|322:293,1,50,8|8,0:0|0:0,0:0:0:0:
293,265,63082,6,0,P|246:257|193:284,1,100,12|8,0:1|0:0,0:0:0:0:
99,267,63767,2,0,P|48:273|2:248,1,100,8|10,0:1|0:0,0:0:0:0:
67,172,64453,2,0,L|56:113,2,50,10|8|8,0:1|0:1|0:0,0:0:0:0:
162,141,65139,2,0,P|211:134|260:126,1,100,10|8,0:1|0:0,0:0:0:0:
358,151,65824,6,0,P|340:197|345:246,1,100,12|8,0:1|0:0,0:0:0:0:
444,265,66510,2,0,P|461:218|456:169,1,100,8|10,0:1|0:0,0:0:0:0:
420,75,67196,2,0,L|413:15,2,50,10|8|8,0:1|0:1|0:0,0:0:0:0:
347,143,67881,2,0,P|297:135|248:127,1,100,8|8,0:1|0:0,0:0:0:0:
188,47,68567,6,0,B|222:129|160:160|197:242,1,200,12|8,0:1|0:1,0:0:0:0:
203,342,69596,1,10,0:0:0:0:
293,299,69938,2,0,L|397:288,1,100,10|10,0:1|0:0,0:0:0:0:
406,189,70624,2,0,L|306:199,1,100,10|10,0:1|0:0,0:0:0:0:
216,155,71310,6,0,P|166:149|116:142,1,100,10|8,0:1|0:0,0:0:0:0:
51,218,71995,2,0,L|61:270,1,50,10|8,0:1|0:0,0:0:0:0:
67,316,72338,2,0,L|57:368,2,50,8|8|12,0:0|0:0|0:0,0:0:0:0:
210,174,73367,2,0,P|257:160|305:170,1,100,10|10,0:0|0:0,0:0:0:0:
362,252,74052,6,0,P|322:338|227:349,1,200,12|8,0:1|0:0,0:0:0:0:
261,255,75081,1,2,0:0:0:0:
161,268,75424,2,0,L|41:254,1,100,10|0,0:1|0:1,0:0:0:0:
66,156,76109,2,0,L|165:167,1,100,10|2,0:0|0:0,0:0:0:0:
263,190,76795,6,0,P|322:114|294:21,2,200,10|10|8,0:1|0:0|0:1,0:0:0:0:
173,144,78509,1,8,0:1:0:0:
75,119,78852,2,0,L|89:224,1,100,10|8,0:0|0:0,0:0:0:0:
73,266,79366,1,8,0:0:0:0:
73,265,79538,6,0,P|117:245|166:252,1,100,12|8,0:1|0:0,0:0:0:0:
209,277,80052,2,0,P|253:297|302:290,1,100,0|8,0:0|0:1,0:0:0:0:
345,264,80566,1,8,0:0:0:0:
399,180,80909,2,0,L|454:172,2,50,8|8|8,0:1|0:1|0:0,0:0:0:0:
351,162,81423,1,0,0:0:0:0:
351,162,81595,2,0,L|233:147,1,100,12|12,0:0|0:0,0:0:0:0:
161,192,82281,6,0,P|176:239|173:289,1,100,12|8,0:1|0:0,0:0:0:0:
75,309,82966,2,0,P|59:261|62:212,1,100,8|8,0:1|0:0,0:0:0:0:
98,118,83652,2,0,L|102:61,2,50,10|8|8,0:1|0:1|0:0,0:0:0:0:
197,108,84338,6,0,B|280:76|310:136|393:101,1,200,8|12,0:3|0:1,0:0:0:0:
256,192,85109,12,0,87766,0:0:0:0:
