osu file format v14

[General]
AudioFilename: audio.mp3
AudioLeadIn: 0
PreviewTime: 24828
Countdown: 1
SampleSet: Soft
StackLeniency: 0.7
Mode: 3
LetterboxInBreaks: 0
SpecialStyle: 0
WidescreenStoryboard: 0

[Editor]
DistanceSpacing: 2
BeatDivisor: 8
GridSize: 16
TimelineZoom: 1.4

[Metadata]
Title:Fresh It Up!!!
TitleUnicode:Fresh It Up!!!
Artist:MiNTi
ArtistUnicode:MiNTi
Creator:Arroz
Version:Fresh
Source:BOFU2017
Tags:
BeatmapID:1475869
BeatmapSetID:696795

[Difficulty]
HPDrainRate:8
CircleSize:4
OverallDifficulty:7.5
ApproachRate:5
SliderMultiplier:1.4
SliderTickRate:1

[Events]
//Background and Video events
Video,0,"BGA.mp4"
0,0,"fresh it up Arroz.png",0,0
//Break Periods
//Storyboard Layer 0 (Background)
//Storyboard Layer 1 (Fail)
//Storyboard Layer 2 (Pass)
//Storyboard Layer 3 (Foreground)
//Storyboard Sound Samples

[TimingPoints]
1,413.793103448276,4,2,0,50,1,0
29276,-10000,4,2,0,50,0,0
29587,-100,4,2,0,50,0,0
39001,-10000,4,2,0,50,0,0
39104,-100,4,2,0,50,0,0

[HitObjects]
448,192,1,128,0,414:0:0:0:0:
320,192,414,128,0,828:0:0:0:0:
192,192,828,128,0,1242:0:0:0:0:
64,192,828,1,0,0:0:0:0:
448,192,1035,1,0,0:0:0:0:
320,192,1449,1,0,0:0:0:0:
192,192,1552,1,0,0:0:0:0:
64,192,1656,128,0,2069:0:0:0:0:
320,192,2069,128,0,2483:0:0:0:0:
192,192,2276,1,0,0:0:0:0:
64,192,2483,1,0,0:0:0:0:
448,192,2483,1,0,0:0:0:0:
192,192,2690,128,0,3104:0:0:0:0:
448,192,2897,1,0,0:0:0:0:
320,192,3104,128,0,3518:0:0:0:0:
64,192,3104,1,0,0:0:0:0:
448,192,3311,1,0,0:0:0:0:
192,192,3311,1,0,0:0:0:0:
64,192,3621,128,0,4138:0:0:0:0:
192,192,3621,128,0,4138:0:0:0:0:
448,192,4138,1,0,0:0:0:0:
320,192,4138,1,0,0:0:0:0:
192,192,4345,1,0,0:0:0:0:
448,192,4345,1,0,0:0:0:0:
192,192,4656,1,0,0:0:0:0:
320,192,4656,1,0,0:0:0:0:
64,192,4966,1,0,0:0:0:0:
320,192,4966,1,0,0:0:0:0:
320,192,5276,1,0,0:0:0:0:
64,192,5276,1,0,0:0:0:0:
448,192,5587,1,0,0:0:0:0:
64,192,5690,1,0,0:0:0:0:
192,192,5725,1,0,0:0:0:0:
320,192,5759,1,0,0:0:0:0:
448,192,5794,1,0,0:0:0:0:
192,192,6001,128,0,6621:0:0:0:0:
448,192,6621,128,0,7449:0:0:0:0:
64,192,7035,1,0,0:0:0:0:
192,192,7035,1,0,0:0:0:0:
64,192,7380,1,0,0:0:0:0:
192,192,7414,1,0,0:0:0:0:
320,192,7449,128,0,8276:0:0:0:0:
448,192,7863,1,0,0:0:0:0:
64,192,7863,1,0,0:0:0:0:
192,192,8069,1,0,0:0:0:0:
64,192,8276,1,0,0:0:0:0:
192,192,8276,128,0,9104:0:0:0:0:
448,192,8276,1,0,0:0:0:0:
320,192,8690,1,0,0:0:0:0:
448,192,8690,1,0,0:0:0:0:
320,192,8897,1,0,0:0:0:0:
448,192,9035,1,0,0:0:0:0:
320,192,9069,1,0,0:0:0:0:
64,192,9104,128,0,9932:0:0:0:0:
320,192,9483,1,0,0:0:0:0:
192,192,9483,1,0,0:0:0:0:
320,192,9725,1,0,0:0:0:0:
448,192,9725,1,0,0:0:0:0:
192,192,9932,128,0,11587:0:0:0:0:
320,192,10138,1,0,0:0:0:0:
64,192,10552,1,0,0:0:0:0:
448,192,10690,1,0,0:0:0:0:
320,192,10725,1,0,0:0:0:0:
64,192,10966,1,0,0:0:0:0:
448,192,11173,1,0,0:0:0:0:
320,192,11380,128,0,12207:0:0:0:0:
448,192,11587,128,0,12621:0:0:0:0:
64,192,12207,128,0,12621:0:0:0:0:
192,192,12690,1,0,0:0:0:0:
320,192,12759,1,0,0:0:0:0:
448,192,12828,1,0,0:0:0:0:
64,192,12897,1,0,0:0:0:0:
192,192,12966,1,0,0:0:0:0:
320,192,13035,1,0,0:0:0:0:
192,192,13242,1,0,0:0:0:0:
448,192,13242,1,0,0:0:0:0:
320,192,13242,128,0,13449:0:0:0:0:
64,192,13449,1,0,0:0:0:0:
192,192,13552,1,0,0:0:0:0:
448,192,13656,1,0,0:0:0:0:
320,192,13656,1,0,0:0:0:0:
192,192,13863,1,0,0:0:0:0:
320,192,13966,1,0,0:0:0:0:
192,192,14069,1,0,0:0:0:0:
64,192,14276,1,0,0:0:0:0:
448,192,14483,1,0,0:0:0:0:
320,192,14483,1,0,0:0:0:0:
192,192,14587,1,0,0:0:0:0:
64,192,14690,1,0,0:0:0:0:
192,192,14794,1,0,0:0:0:0:
320,192,14897,1,0,0:0:0:0:
448,192,14897,1,0,0:0:0:0:
64,192,14897,128,0,15104:0:0:0:0:
192,192,15104,1,0,0:0:0:0:
448,192,15207,1,0,0:0:0:0:
64,192,15311,1,0,0:0:0:0:
320,192,15311,1,0,0:0:0:0:
448,192,15518,1,0,0:0:0:0:
320,192,15621,1,0,0:0:0:0:
64,192,15725,1,0,0:0:0:0:
448,192,15725,1,0,0:0:0:0:
192,192,15725,128,0,15932:0:0:0:0:
320,192,15932,1,0,0:0:0:0:
448,192,15932,1,0,0:0:0:0:
64,192,16138,1,0,0:0:0:0:
192,192,16138,1,0,0:0:0:0:
192,192,16345,1,0,0:0:0:0:
448,192,16345,1,0,0:0:0:0:
64,192,16552,1,0,0:0:0:0:
320,192,16552,128,0,16759:0:0:0:0:
64,192,16759,1,0,0:0:0:0:
192,192,16863,1,0,0:0:0:0:
320,192,16966,1,0,0:0:0:0:
64,192,16966,1,0,0:0:0:0:
448,192,17069,1,0,0:0:0:0:
320,192,17173,1,0,0:0:0:0:
192,192,17276,1,0,0:0:0:0:
448,192,17380,1,0,0:0:0:0:
320,192,17380,1,0,0:0:0:0:
320,192,17587,1,0,0:0:0:0:
448,192,17587,1,0,0:0:0:0:
320,192,17794,1,0,0:0:0:0:
192,192,17897,1,0,0:0:0:0:
64,192,18001,1,0,0:0:0:0:
320,192,18104,1,0,0:0:0:0:
192,192,18207,1,0,0:0:0:0:
448,192,18207,128,0,18621:0:0:0:0:
320,192,18414,1,0,0:0:0:0:
192,192,18518,1,0,0:0:0:0:
320,192,18621,1,0,0:0:0:0:
64,192,18725,1,0,0:0:0:0:
320,192,18828,1,0,0:0:0:0:
192,192,18932,1,0,0:0:0:0:
64,192,19035,1,0,0:0:0:0:
448,192,19035,1,0,0:0:0:0:
192,192,19242,1,0,0:0:0:0:
320,192,19242,1,0,0:0:0:0:
64,192,19449,1,0,0:0:0:0:
448,192,19449,1,0,0:0:0:0:
192,192,19656,1,0,0:0:0:0:
320,192,19656,1,0,0:0:0:0:
320,192,19863,128,0,20276:0:0:0:0:
64,192,19863,1,0,0:0:0:0:
448,192,20069,1,0,0:0:0:0:
192,192,20276,128,0,20690:0:0:0:0:
64,192,20276,1,0,0:0:0:0:
448,192,20483,1,0,0:0:0:0:
64,192,20690,128,0,21104:0:0:0:0:
320,192,20690,1,0,0:0:0:0:
192,192,20897,1,0,0:0:0:0:
448,192,21104,1,0,0:0:0:0:
320,192,21207,1,0,0:0:0:0:
192,192,21311,1,0,0:0:0:0:
64,192,21414,1,0,0:0:0:0:
192,192,21518,1,0,0:0:0:0:
448,192,21518,128,0,21932:0:0:0:0:
64,192,21725,1,0,0:0:0:0:
320,192,21932,128,0,22345:0:0:0:0:
192,192,21932,1,0,0:0:0:0:
448,192,22138,1,0,0:0:0:0:
192,192,22345,128,0,22759:0:0:0:0:
64,192,22345,1,0,0:0:0:0:
448,192,22552,1,0,0:0:0:0:
320,192,22759,1,0,0:0:0:0:
192,192,22966,1,0,0:0:0:0:
64,192,23069,128,0,23587:0:0:0:0:
320,192,23173,1,0,0:0:0:0:
448,192,23173,1,0,0:0:0:0:
192,192,23380,1,0,0:0:0:0:
320,192,23380,1,0,0:0:0:0:
448,192,23587,1,0,0:0:0:0:
320,192,23587,1,0,0:0:0:0:
192,192,23794,1,0,0:0:0:0:
320,192,23794,1,0,0:0:0:0:
64,192,24001,1,0,0:0:0:0:
192,192,24001,1,0,0:0:0:0:
448,192,24001,128,0,24621:0:0:0:0:
320,192,24207,1,0,0:0:0:0:
192,192,24207,1,0,0:0:0:0:
64,192,24414,1,0,0:0:0:0:
192,192,24414,1,0,0:0:0:0:
320,192,24621,1,0,0:0:0:0:
192,192,24621,1,0,0:0:0:0:
448,192,24828,1,0,0:0:0:0:
320,192,24932,1,0,0:0:0:0:
64,192,25035,1,0,0:0:0:0:
192,192,25035,1,0,0:0:0:0:
64,192,25138,1,0,0:0:0:0:
192,192,25138,1,0,0:0:0:0:
448,192,25242,1,0,0:0:0:0:
320,192,25345,1,0,0:0:0:0:
64,192,25449,1,0,0:0:0:0:
192,192,25449,1,0,0:0:0:0:
64,192,25552,1,0,0:0:0:0:
192,192,25552,1,0,0:0:0:0:
320,192,25656,1,0,0:0:0:0:
192,192,25759,1,0,0:0:0:0:
448,192,25863,1,0,0:0:0:0:
64,192,25966,1,0,0:0:0:0:
192,192,26069,1,0,0:0:0:0:
320,192,26173,1,0,0:0:0:0:
448,192,26276,1,0,0:0:0:0:
64,192,26483,1,0,0:0:0:0:
320,192,26483,1,0,0:0:0:0:
448,192,26483,1,0,0:0:0:0:
192,192,26690,1,0,0:0:0:0:
320,192,26794,1,0,0:0:0:0:
64,192,26897,1,0,0:0:0:0:
192,192,26897,1,0,0:0:0:0:
448,192,26897,1,0,0:0:0:0:
320,192,27001,1,0,0:0:0:0:
448,192,27104,1,0,0:0:0:0:
64,192,27311,1,0,0:0:0:0:
192,192,27311,1,0,0:0:0:0:
320,192,27311,1,0,0:0:0:0:
448,192,27414,1,0,0:0:0:0:
64,192,27518,1,0,0:0:0:0:
192,192,27621,1,0,0:0:0:0:
320,192,27621,1,0,0:0:0:0:
448,192,27621,1,0,0:0:0:0:
64,192,27725,1,0,0:0:0:0:
448,192,27828,1,0,0:0:0:0:
320,192,27932,1,0,0:0:0:0:
192,192,27932,1,0,0:0:0:0:
64,192,27932,1,0,0:0:0:0:
448,192,28035,1,0,0:0:0:0:
64,192,28138,1,0,0:0:0:0:
320,192,28138,1,0,0:0:0:0:
192,192,28138,1,0,0:0:0:0:
448,192,28345,1,0,0:0:0:0:
448,192,28552,1,0,0:0:0:0:
192,192,28552,1,0,0:0:0:0:
320,192,28552,1,0,0:0:0:0:
64,192,28656,1,0,0:0:0:0:
448,192,28759,1,0,0:0:0:0:
64,192,28966,1,0,0:0:0:0:
192,192,28966,1,0,0:0:0:0:
448,192,28966,1,0,0:0:0:0:
320,192,29069,1,0,0:0:0:0:
192,192,29173,1,0,0:0:0:0:
320,192,29276,1,0,0:0:0:0:
64,192,29794,1,0,0:0:0:0:
192,192,29794,1,0,0:0:0:0:
448,192,29794,1,0,0:0:0:0:
320,192,29794,1,0,0:0:0:0:
448,192,30207,1,0,0:0:0:0:
320,192,30207,1,0,0:0:0:0:
64,192,30207,1,0,0:0:0:0:
192,192,30311,1,0,0:0:0:0:
64,192,30414,1,0,0:0:0:0:
192,192,30518,1,0,0:0:0:0:
448,192,30621,1,0,0:0:0:0:
320,192,30621,1,0,0:0:0:0:
64,192,30621,1,0,0:0:0:0:
192,192,30725,1,0,0:0:0:0:
448,192,30828,1,0,0:0:0:0:
320,192,30932,1,0,0:0:0:0:
448,192,31035,1,0,0:0:0:0:
192,192,31035,1,0,0:0:0:0:
64,192,31035,1,0,0:0:0:0:
320,192,31138,1,0,0:0:0:0:
192,192,31242,1,0,0:0:0:0:
64,192,31242,1,0,0:0:0:0:
448,192,31242,1,0,0:0:0:0:
320,192,31345,1,0,0:0:0:0:
64,192,31449,1,0,0:0:0:0:
192,192,31449,1,0,0:0:0:0:
448,192,31449,1,0,0:0:0:0:
320,192,31552,1,0,0:0:0:0:
64,192,31656,1,0,0:0:0:0:
192,192,31759,1,0,0:0:0:0:
320,192,31863,1,0,0:0:0:0:
448,192,31863,1,0,0:0:0:0:
192,192,31966,1,0,0:0:0:0:
448,192,32069,1,0,0:0:0:0:
320,192,32173,1,0,0:0:0:0:
448,192,32276,128,0,32483:0:0:0:0:
64,192,32276,128,0,32483:0:0:0:0:
192,192,32483,1,0,0:0:0:0:
320,192,32483,1,0,0:0:0:0:
448,192,32690,1,0,0:0:0:0:
320,192,32759,1,0,0:0:0:0:
192,192,32828,1,0,0:0:0:0:
448,192,32897,1,0,0:0:0:0:
320,192,32966,1,0,0:0:0:0:
192,192,33035,1,0,0:0:0:0:
64,192,33104,1,0,0:0:0:0:
448,192,33104,1,0,0:0:0:0:
320,192,33104,1,0,0:0:0:0:
448,192,33311,1,0,0:0:0:0:
64,192,33414,1,0,0:0:0:0:
192,192,33518,1,0,0:0:0:0:
320,192,33518,1,0,0:0:0:0:
448,192,33518,1,0,0:0:0:0:
64,192,33621,1,0,0:0:0:0:
320,192,33725,1,0,0:0:0:0:
448,192,33828,1,0,0:0:0:0:
64,192,33932,1,0,0:0:0:0:
192,192,33932,1,0,0:0:0:0:
320,192,33932,1,0,0:0:0:0:
448,192,34035,1,0,0:0:0:0:
64,192,34138,1,0,0:0:0:0:
192,192,34242,1,0,0:0:0:0:
448,192,34242,1,0,0:0:0:0:
320,192,34242,1,0,0:0:0:0:
64,192,34345,1,0,0:0:0:0:
448,192,34449,1,0,0:0:0:0:
64,192,34552,1,0,0:0:0:0:
192,192,34552,1,0,0:0:0:0:
320,192,34552,1,0,0:0:0:0:
448,192,34656,1,0,0:0:0:0:
64,192,34759,1,0,0:0:0:0:
192,192,34759,1,0,0:0:0:0:
320,192,34759,1,0,0:0:0:0:
448,192,34863,1,0,0:0:0:0:
320,192,34966,1,0,0:0:0:0:
320,192,35069,1,0,0:0:0:0:
192,192,35173,1,0,0:0:0:0:
64,192,35173,1,0,0:0:0:0:
448,192,35173,1,0,0:0:0:0:
320,192,35276,1,0,0:0:0:0:
192,192,35380,1,0,0:0:0:0:
448,192,35483,1,0,0:0:0:0:
64,192,35587,1,0,0:0:0:0:
192,192,35587,1,0,0:0:0:0:
320,192,35587,1,0,0:0:0:0:
448,192,35690,1,0,0:0:0:0:
64,192,35794,128,0,35897:0:0:0:0:
192,192,35897,128,0,36001:0:0:0:0:
320,192,36001,128,0,36104:0:0:0:0:
448,192,36001,1,0,0:0:0:0:
64,192,36104,128,0,36207:0:0:0:0:
192,192,36207,128,0,36311:0:0:0:0:
64,192,36414,1,0,0:0:0:0:
320,192,36414,1,0,0:0:0:0:
448,192,36414,1,0,0:0:0:0:
192,192,36518,1,0,0:0:0:0:
64,192,36621,128,0,36828:0:0:0:0:
320,192,36828,1,0,0:0:0:0:
448,192,36828,1,0,0:0:0:0:
320,192,37035,1,0,0:0:0:0:
192,192,37035,1,0,0:0:0:0:
320,192,37242,1,0,0:0:0:0:
64,192,37242,1,0,0:0:0:0:
192,192,37449,1,0,0:0:0:0:
64,192,37449,1,0,0:0:0:0:
192,192,37552,1,0,0:0:0:0:
64,192,37552,1,0,0:0:0:0:
320,192,37656,1,0,0:0:0:0:
448,192,37656,1,0,0:0:0:0:
192,192,37759,1,0,0:0:0:0:
64,192,37759,1,0,0:0:0:0:
64,192,37863,128,0,38069:0:0:0:0:
192,192,37863,128,0,38069:0:0:0:0:
320,192,38069,1,0,0:0:0:0:
448,192,38069,1,0,0:0:0:0:
192,192,38276,1,0,0:0:0:0:
448,192,38380,1,0,0:0:0:0:
320,192,38483,1,0,0:0:0:0:
192,192,38483,1,0,0:0:0:0:
64,192,38587,1,0,0:0:0:0:
192,192,38690,1,0,0:0:0:0:
448,192,38690,1,0,0:0:0:0:
320,192,38794,1,0,0:0:0:0:
192,192,38897,128,0,39104:0:0:0:0:
64,192,38897,128,0,39104:0:0:0:0:
192,192,39311,1,0,0:0:0:0:
320,192,39311,1,0,0:0:0:0:
448,192,39311,1,0,0:0:0:0:
64,192,39311,1,0,0:0:0:0:
448,192,39518,1,0,0:0:0:0:
192,192,39569,1,0,0:0:0:0:
320,192,39621,1,0,0:0:0:0:
448,192,39673,1,0,0:0:0:0:
64,192,39725,128,0,39932:0:0:0:0:
320,192,39932,1,0,0:0:0:0:
192,192,39932,1,0,0:0:0:0:
448,192,40035,1,0,0:0:0:0:
320,192,40138,1,0,0:0:0:0:
192,192,40242,1,0,0:0:0:0:
448,192,40345,1,0,0:0:0:0:
320,192,40345,1,0,0:0:0:0:
192,192,40449,1,0,0:0:0:0:
64,192,40552,128,0,40759:0:0:0:0:
448,192,40759,1,0,0:0:0:0:
192,192,40863,1,0,0:0:0:0:
448,192,40966,128,0,41173:0:0:0:0:
192,192,41069,1,0,0:0:0:0:
64,192,41173,1,0,0:0:0:0:
192,192,41276,1,0,0:0:0:0:
320,192,41380,1,0,0:0:0:0:
448,192,41380,1,0,0:0:0:0:
192,192,41587,1,0,0:0:0:0:
64,192,41690,1,0,0:0:0:0:
320,192,41794,1,0,0:0:0:0:
448,192,41897,1,0,0:0:0:0:
192,192,42001,128,0,42207:0:0:0:0:
320,192,42001,128,0,42207:0:0:0:0:
64,192,42001,1,0,0:0:0:0:
448,192,42207,1,0,0:0:0:0:
320,192,42414,1,0,0:0:0:0:
192,192,42414,1,0,0:0:0:0:
448,192,42621,1,0,0:0:0:0:
64,192,42621,1,0,0:0:0:0:
192,192,42725,1,0,0:0:0:0:
320,192,42828,1,0,0:0:0:0:
448,192,42932,1,0,0:0:0:0:
192,192,43035,1,0,0:0:0:0:
64,192,43035,1,0,0:0:0:0:
320,192,43035,1,0,0:0:0:0:
448,192,43138,1,0,0:0:0:0:
320,192,43242,1,0,0:0:0:0:
192,192,43345,1,0,0:0:0:0:
64,192,43345,1,0,0:0:0:0:
320,192,43449,1,0,0:0:0:0:
192,192,43552,1,0,0:0:0:0:
64,192,43552,1,0,0:0:0:0:
448,192,43656,1,0,0:0:0:0:
320,192,43759,1,0,0:0:0:0:
192,192,43863,1,0,0:0:0:0:
64,192,43863,128,0,44069:0:0:0:0:
448,192,43863,128,0,44069:0:0:0:0:
320,192,44069,1,0,0:0:0:0:
192,192,44173,1,0,0:0:0:0:
448,192,44276,1,0,0:0:0:0:
320,192,44483,1,0,0:0:0:0:
64,192,44483,1,0,0:0:0:0:
192,192,44587,1,0,0:0:0:0:
320,192,44690,1,0,0:0:0:0:
448,192,44690,1,0,0:0:0:0:
192,192,44794,1,0,0:0:0:0:
192,192,44897,1,0,0:0:0:0:
64,192,45001,1,0,0:0:0:0:
320,192,45001,1,0,0:0:0:0:
192,192,45104,1,0,0:0:0:0:
448,192,45207,128,0,45518:0:0:0:0:
320,192,45207,128,0,45518:0:0:0:0:
64,192,45311,1,0,0:0:0:0:
192,192,45518,1,0,0:0:0:0:
64,192,45621,1,0,0:0:0:0:
192,192,45725,1,0,0:0:0:0:
64,192,45828,1,0,0:0:0:0:
320,192,45932,1,0,0:0:0:0:
448,192,45932,1,0,0:0:0:0:
192,192,46035,1,0,0:0:0:0:
64,192,46138,1,0,0:0:0:0:
320,192,46138,1,0,0:0:0:0:
448,192,46242,1,0,0:0:0:0:
64,192,46345,1,0,0:0:0:0:
192,192,46380,1,0,0:0:0:0:
320,192,46414,1,0,0:0:0:0:
448,192,46483,1,0,0:0:0:0:
320,192,46552,1,0,0:0:0:0:
448,192,46656,1,0,0:0:0:0:
192,192,46759,1,0,0:0:0:0:
320,192,46863,1,0,0:0:0:0:
320,192,46966,1,0,0:0:0:0:
320,192,47069,1,0,0:0:0:0:
64,192,47173,1,0,0:0:0:0:
448,192,47173,1,0,0:0:0:0:
192,192,47276,1,0,0:0:0:0:
320,192,47276,1,0,0:0:0:0:
192,192,47380,1,0,0:0:0:0:
320,192,47380,1,0,0:0:0:0:
64,192,47483,1,0,0:0:0:0:
448,192,47483,1,0,0:0:0:0:
192,192,47587,1,0,0:0:0:0:
320,192,47587,1,0,0:0:0:0:
192,192,47690,1,0,0:0:0:0:
320,192,47690,1,0,0:0:0:0:
64,192,47794,1,0,0:0:0:0:
448,192,47794,1,0,0:0:0:0:
64,192,47897,1,0,0:0:0:0:
448,192,47897,1,0,0:0:0:0:
192,192,48001,1,0,0:0:0:0:
320,192,48035,1,0,0:0:0:0:
448,192,48069,1,0,0:0:0:0:
192,192,48138,1,0,0:0:0:0:
64,192,48207,1,0,0:0:0:0:
192,192,48311,1,0,0:0:0:0:
320,192,48414,1,0,0:0:0:0:
448,192,48518,1,0,0:0:0:0:
448,192,48621,1,0,0:0:0:0:
448,192,48725,1,0,0:0:0:0:
64,192,48828,1,0,0:0:0:0:
320,192,48828,1,0,0:0:0:0:
448,192,48932,1,0,0:0:0:0:
192,192,48932,1,0,0:0:0:0:
192,192,49035,1,0,0:0:0:0:
448,192,49035,1,0,0:0:0:0:
320,192,49138,1,0,0:0:0:0:
64,192,49138,1,0,0:0:0:0:
192,192,49242,1,0,0:0:0:0:
448,192,49242,1,0,0:0:0:0:
448,192,49345,1,0,0:0:0:0:
192,192,49345,1,0,0:0:0:0:
320,192,49449,1,0,0:0:0:0:
64,192,49449,1,0,0:0:0:0:
448,192,49552,1,0,0:0:0:0:
192,192,49552,1,0,0:0:0:0:
192,192,49656,128,0,49863:0:0:0:0:
448,192,49656,128,0,49863:0:0:0:0:
64,192,49863,1,0,0:0:0:0:
320,192,49966,1,0,0:0:0:0:
320,192,50069,128,0,50276:0:0:0:0:
448,192,50276,1,0,0:0:0:0:
192,192,50380,1,0,0:0:0:0:
64,192,50483,128,0,50690:0:0:0:0:
448,192,50483,1,0,0:0:0:0:
320,192,50587,1,0,0:0:0:0:
192,192,50690,1,0,0:0:0:0:
448,192,50794,1,0,0:0:0:0:
192,192,50897,1,0,0:0:0:0:
320,192,50897,1,0,0:0:0:0:
64,192,51001,1,0,0:0:0:0:
448,192,51104,128,0,51518:0:0:0:0:
320,192,51104,1,0,0:0:0:0:
192,192,51311,1,0,0:0:0:0:
320,192,51518,128,0,52345:0:0:0:0:
64,192,51518,1,0,0:0:0:0:
192,192,51725,1,0,0:0:0:0:
448,192,51932,1,0,0:0:0:0:
64,192,52035,1,0,0:0:0:0:
192,192,52138,1,0,0:0:0:0:
448,192,52242,1,0,0:0:0:0:
64,192,52345,1,0,0:0:0:0:
192,192,52449,128,0,52759:0:0:0:0:
448,192,52449,128,0,52759:0:0:0:0:
192,192,52966,1,0,0:0:0:0:
320,192,52966,1,0,0:0:0:0:
448,192,52966,1,0,0:0:0:0:
448,192,53173,1,0,0:0:0:0:
64,192,53276,1,0,0:0:0:0:
448,192,53483,1,0,0:0:0:0:
192,192,53587,1,0,0:0:0:0:
64,192,53690,1,0,0:0:0:0:
192,192,53794,1,0,0:0:0:0:
448,192,53794,128,0,54001:0:0:0:0:
64,192,53897,1,0,0:0:0:0:
192,192,54001,1,0,0:0:0:0:
320,192,54104,1,0,0:0:0:0:
64,192,54207,1,0,0:0:0:0:
448,192,54207,1,0,0:0:0:0:
192,192,54207,128,0,54414:0:0:0:0:
448,192,54414,1,0,0:0:0:0:
320,192,54518,1,0,0:0:0:0:
192,192,54621,1,0,0:0:0:0:
64,192,54621,1,0,0:0:0:0:
320,192,54828,1,0,0:0:0:0:
192,192,54932,1,0,0:0:0:0:
320,192,55035,1,0,0:0:0:0:
448,192,55035,1,0,0:0:0:0:
64,192,55138,1,0,0:0:0:0:
64,192,55242,1,0,0:0:0:0:
448,192,55345,1,0,0:0:0:0:
320,192,55449,1,0,0:0:0:0:
192,192,55552,1,0,0:0:0:0:
64,192,55656,128,0,56276:0:0:0:0:
320,192,55759,1,0,0:0:0:0:
448,192,55863,1,0,0:0:0:0:
192,192,55863,1,0,0:0:0:0:
448,192,56069,1,0,0:0:0:0:
320,192,56069,1,0,0:0:0:0:
320,192,56276,1,0,0:0:0:0:
448,192,56276,1,0,0:0:0:0:
320,192,56483,1,0,0:0:0:0:
192,192,56587,1,0,0:0:0:0:
64,192,56690,1,0,0:0:0:0:
448,192,56690,1,0,0:0:0:0:
192,192,56897,1,0,0:0:0:0:
192,192,57001,1,0,0:0:0:0:
320,192,57104,1,0,0:0:0:0:
448,192,57104,128,0,57311:0:0:0:0:
192,192,57207,1,0,0:0:0:0:
64,192,57311,1,0,0:0:0:0:
320,192,57518,128,0,57725:0:0:0:0:
448,192,57518,1,0,0:0:0:0:
64,192,57621,1,0,0:0:0:0:
192,192,57725,1,0,0:0:0:0:
320,192,57932,1,0,0:0:0:0:
192,192,57932,1,0,0:0:0:0:
320,192,58035,1,0,0:0:0:0:
320,192,58138,1,0,0:0:0:0:
192,192,58138,1,0,0:0:0:0:
320,192,58242,1,0,0:0:0:0:
448,192,58345,1,0,0:0:0:0:
320,192,58449,1,0,0:0:0:0:
320,192,58552,128,0,58759:0:0:0:0:
64,192,58759,128,0,58966:0:0:0:0:
448,192,58966,1,0,0:0:0:0:
320,192,59069,1,0,0:0:0:0:
192,192,59173,1,0,0:0:0:0:
448,192,59173,1,0,0:0:0:0:
64,192,59276,1,0,0:0:0:0:
320,192,59380,1,0,0:0:0:0:
448,192,59587,128,0,59656:0:0:0:0:
64,192,59587,1,0,0:0:0:0:
320,192,59656,128,0,59725:0:0:0:0:
192,192,59725,128,0,59794:0:0:0:0:
320,192,59794,128,0,59863:0:0:0:0:
64,192,60001,1,0,0:0:0:0:
448,192,60069,1,0,0:0:0:0:
192,192,60138,1,0,0:0:0:0:
448,192,60345,1,0,0:0:0:0:
192,192,60414,1,0,0:0:0:0:
64,192,60414,1,0,0:0:0:0:
320,192,60552,128,0,60621:0:0:0:0:
192,192,60621,128,0,60690:0:0:0:0:
64,192,60690,128,0,60759:0:0:0:0:
192,192,60828,128,0,60932:0:0:0:0:
448,192,60828,1,0,0:0:0:0:
64,192,60932,128,0,61035:0:0:0:0:
192,192,61035,128,0,61138:0:0:0:0:
64,192,61242,128,0,61311:0:0:0:0:
320,192,61242,1,0,0:0:0:0:
192,192,61311,128,0,61380:0:0:0:0:
320,192,61380,128,0,61449:0:0:0:0:
64,192,61449,128,0,61587:0:0:0:0:
448,192,61656,128,0,61794:0:0:0:0:
192,192,61656,1,0,0:0:0:0:
64,192,61794,128,0,61932:0:0:0:0:
320,192,62069,128,0,62173:0:0:0:0:
192,192,62069,1,0,0:0:0:0:
448,192,62173,128,0,62276:0:0:0:0:
320,192,62276,128,0,62380:0:0:0:0:
448,192,62380,128,0,62483:0:0:0:0:
192,192,62483,128,0,62587:0:0:0:0:
64,192,62483,128,0,62587:0:0:0:0:
192,192,62690,128,0,62794:0:0:0:0:
64,192,62690,128,0,62794:0:0:0:0:
448,192,62897,128,0,62966:0:0:0:0:
320,192,62966,128,0,63035:0:0:0:0:
192,192,63035,128,0,63104:0:0:0:0:
64,192,63104,128,0,63173:0:0:0:0:
320,192,63173,128,0,63242:0:0:0:0:
192,192,63242,128,0,63311:0:0:0:0:
320,192,63311,128,0,63380:0:0:0:0:
448,192,63380,128,0,63449:0:0:0:0:
64,192,63518,1,0,0:0:0:0:
192,192,63587,1,0,0:0:0:0:
320,192,63656,1,0,0:0:0:0:
192,192,63725,1,0,0:0:0:0:
448,192,63794,1,0,0:0:0:0:
320,192,63794,1,0,0:0:0:0:
192,192,63863,1,0,0:0:0:0:
64,192,63863,1,0,0:0:0:0:
448,192,63932,1,0,0:0:0:0:
320,192,63932,1,0,0:0:0:0:
192,192,64001,1,0,0:0:0:0:
64,192,64001,1,0,0:0:0:0:
64,192,64138,1,0,0:0:0:0:
192,192,64138,1,0,0:0:0:0:
320,192,64207,1,0,0:0:0:0:
448,192,64207,1,0,0:0:0:0:
192,192,64276,1,0,0:0:0:0:
64,192,64276,1,0,0:0:0:0:
320,192,64345,1,0,0:0:0:0:
448,192,64345,1,0,0:0:0:0:
192,192,64449,1,0,0:0:0:0:
320,192,64552,128,0,64759:0:0:0:0:
448,192,64552,128,0,64759:0:0:0:0:
64,192,64552,1,0,0:0:0:0:
64,192,64759,1,0,0:0:0:0:
320,192,64966,1,0,0:0:0:0:
448,192,64966,1,0,0:0:0:0:
320,192,65069,1,0,0:0:0:0:
192,192,65173,1,0,0:0:0:0:
448,192,65276,1,0,0:0:0:0:
320,192,65380,1,0,0:0:0:0:
448,192,65483,1,0,0:0:0:0:
64,192,65587,128,0,65794:0:0:0:0:
448,192,65725,1,0,0:0:0:0:
320,192,65794,1,0,0:0:0:0:
448,192,65863,1,0,0:0:0:0:
320,192,65932,1,0,0:0:0:0:
192,192,66001,1,0,0:0:0:0:
64,192,66069,1,0,0:0:0:0:
192,192,66207,128,0,69518:0:0:0:0:
64,192,66207,128,0,67863:0:0:0:0:
448,192,67035,1,0,0:0:0:0:
320,192,67035,1,0,0:0:0:0:
320,192,67242,128,0,67449:0:0:0:0:
448,192,67449,128,0,67656:0:0:0:0:
320,192,67656,128,0,67863:0:0:0:0:
448,192,67863,128,0,71380:0:0:0:0:
64,192,68621,1,0,0:0:0:0:
320,192,68690,1,0,0:0:0:0:
64,192,68897,128,0,69104:0:0:0:0:
320,192,69104,128,0,69311:0:0:0:0:
64,192,69311,128,0,69518:0:0:0:0:
320,192,69518,128,0,72828:0:0:0:0:
192,192,70345,1,0,0:0:0:0:
64,192,70345,1,0,0:0:0:0:
64,192,70966,128,0,71173:0:0:0:0:
192,192,71173,128,0,71380:0:0:0:0:
64,192,71380,128,0,73656:0:0:0:0:
192,192,71587,128,0,71794:0:0:0:0:
448,192,72001,128,0,72828:0:0:0:0:
192,192,72001,1,0,0:0:0:0:
192,192,72828,128,0,75518:0:0:0:0:
448,192,73035,128,0,73242:0:0:0:0:
320,192,73242,128,0,73449:0:0:0:0:
448,192,73656,128,0,74483:0:0:0:0:
320,192,73656,1,0,0:0:0:0:
64,192,74276,1,0,0:0:0:0:
64,192,74483,128,0,74690:0:0:0:0:
64,192,75104,1,0,0:0:0:0:
448,192,75156,1,0,0:0:0:0:
64,192,75207,1,0,0:0:0:0:
448,192,75259,1,0,0:0:0:0:
320,192,75311,128,0,77794:0:0:0:0:
64,192,75311,1,0,0:0:0:0:
64,192,75518,128,0,75725:0:0:0:0:
192,192,75725,1,0,0:0:0:0:
192,192,75828,128,0,76035:0:0:0:0:
64,192,76035,1,0,0:0:0:0:
64,192,76138,128,0,77794:2:2:0:0:
448,192,76345,128,0,76759:0:0:0:0:
192,192,76966,1,0,0:0:0:0:
448,192,76966,1,0,0:0:0:0:
448,192,77587,1,0,0:0:0:0:
192,192,77794,128,0,78207:0:0:0:0:
448,192,77794,128,0,78207:0:0:0:0:
320,192,78001,1,0,0:0:0:0:
320,192,78207,128,0,78621:0:0:0:0:
64,192,78207,128,0,78621:0:0:0:0:
192,192,78414,1,0,0:0:0:0:
192,192,78621,128,0,78932:0:0:0:0:
448,192,78621,128,0,78932:0:0:0:0:
64,192,79035,1,0,0:0:0:0:
192,192,79087,1,0,0:0:0:0:
320,192,79138,1,0,0:0:0:0:
192,192,79190,1,0,0:0:0:0:
320,192,79242,1,0,0:0:0:0:
448,192,79294,1,0,0:0:0:0:
320,192,79345,1,0,0:0:0:0:
448,192,79397,1,0,0:0:0:0:
64,192,79449,128,0,79656:0:0:0:0:
192,192,79449,128,0,79656:0:0:0:0:
448,192,79656,1,0,0:0:0:0:
320,192,79759,1,0,0:0:0:0:
192,192,79863,128,0,80069:0:0:0:0:
320,192,79863,128,0,80069:0:0:0:0:
448,192,80069,1,0,0:0:0:0:
64,192,80173,1,0,0:0:0:0:
320,192,80276,1,0,0:0:0:0:
448,192,80276,128,0,80483:0:0:0:0:
192,192,80483,1,0,0:0:0:0:
64,192,80483,128,0,80690:0:0:0:0:
448,192,80794,1,0,0:0:0:0:
320,192,80794,1,0,0:0:0:0:
192,192,80897,1,0,0:0:0:0:
64,192,81001,1,0,0:0:0:0:
320,192,81104,128,0,81311:0:0:0:0:
192,192,81104,128,0,81311:0:0:0:0:
64,192,81311,1,0,0:0:0:0:
448,192,81414,128,0,81518:0:0:0:0:
64,192,81518,128,0,81725:0:0:0:0:
320,192,81518,128,0,81725:0:0:0:0:
192,192,81725,1,0,0:0:0:0:
448,192,81932,1,0,0:0:0:0:
320,192,82035,1,0,0:0:0:0:
64,192,82138,1,0,0:0:0:0:
192,192,82138,1,0,0:0:0:0:
192,192,82345,1,0,0:0:0:0:
320,192,82345,1,0,0:0:0:0:
448,192,82345,1,0,0:0:0:0:
192,192,82552,1,0,0:0:0:0:
320,192,82552,1,0,0:0:0:0:
448,192,82552,1,0,0:0:0:0:
64,192,82759,1,0,0:0:0:0:
320,192,82759,1,0,0:0:0:0:
448,192,82759,128,0,82966:0:0:0:0:
192,192,82966,1,0,0:0:0:0:
64,192,83069,1,0,0:0:0:0:
320,192,83173,128,0,83380:0:0:0:0:
448,192,83173,1,0,0:0:0:0:
192,192,83380,1,0,0:0:0:0:
320,192,83483,1,0,0:0:0:0:
192,192,83587,128,0,83794:0:0:0:0:
64,192,83587,1,0,0:0:0:0:
448,192,83794,1,0,0:0:0:0:
64,192,83897,1,0,0:0:0:0:
320,192,84001,1,0,0:0:0:0:
192,192,84104,1,0,0:0:0:0:
448,192,84104,1,0,0:0:0:0:
320,192,84414,128,0,84466:0:0:0:0:
64,192,84414,1,0,0:0:0:0:
448,192,84466,128,0,84828:0:0:0:0:
192,192,84621,1,0,0:0:0:0:
320,192,84828,128,0,85242:0:0:0:0:
64,192,84828,1,0,0:0:0:0:
192,192,85035,1,0,0:0:0:0:
448,192,85242,1,0,0:0:0:0:
192,192,85345,1,0,0:0:0:0:
64,192,85449,1,0,0:0:0:0:
320,192,85552,1,0,0:0:0:0:
448,192,85656,128,0,86069:0:0:0:0:
320,192,85656,1,0,0:0:0:0:
192,192,85759,1,0,0:0:0:0:
192,192,85863,1,0,0:0:0:0:
64,192,85966,1,0,0:0:0:0:
64,192,86069,128,0,86276:0:0:0:0:
320,192,86069,128,0,86276:0:0:0:0:
192,192,86069,128,0,86276:0:0:0:0:
448,192,86276,1,0,0:0:0:0:
192,192,86483,128,0,86690:0:0:0:0:
448,192,86483,128,0,86690:0:0:0:0:
64,192,86483,128,0,86690:0:0:0:0:
320,192,86483,1,0,0:0:0:0:
320,192,86690,1,0,0:0:0:0:
192,192,86897,128,0,87311:0:0:0:0:
448,192,86897,128,0,87311:0:0:0:0:
320,192,86897,128,0,87311:0:0:0:0:
64,192,86897,1,0,0:0:0:0:
64,192,87104,1,0,0:0:0:0:
320,192,87414,1,0,0:0:0:0:
448,192,87414,1,0,0:0:0:0:
192,192,87621,1,0,0:0:0:0:
448,192,87621,1,0,0:0:0:0:
192,192,87725,128,0,88035:0:0:0:0:
320,192,87725,1,0,0:0:0:0:
64,192,87932,1,0,0:0:0:0:
448,192,88035,128,0,88345:0:0:0:0:
320,192,88035,1,0,0:0:0:0:
64,192,88138,1,0,0:0:0:0:
192,192,88242,1,0,0:0:0:0:
64,192,88345,128,0,88552:0:0:0:0:
320,192,88345,1,0,0:0:0:0:
448,192,88552,1,0,0:0:0:0:
320,192,88656,1,0,0:0:0:0:
192,192,88759,1,0,0:0:0:0:
448,192,88759,1,0,0:0:0:0:
320,192,88863,1,0,0:0:0:0:
448,192,88966,1,0,0:0:0:0:
64,192,88966,1,0,0:0:0:0:
192,192,89069,1,0,0:0:0:0:
64,192,89173,1,0,0:0:0:0:
320,192,89173,1,0,0:0:0:0:
448,192,89276,1,0,0:0:0:0:
64,192,89380,1,0,0:0:0:0:
192,192,89380,1,0,0:0:0:0:
320,192,89483,1,0,0:0:0:0:
192,192,89587,1,0,0:0:0:0:
320,192,89690,1,0,0:0:0:0:
448,192,89794,1,0,0:0:0:0:
192,192,89794,1,0,0:0:0:0:
320,192,89897,1,0,0:0:0:0:
192,192,90001,1,0,0:0:0:0:
320,192,90104,1,0,0:0:0:0:
192,192,90207,1,0,0:0:0:0:
64,192,90207,1,0,0:0:0:0:
320,192,90311,1,0,0:0:0:0:
192,192,90414,1,0,0:0:0:0:
320,192,90518,1,0,0:0:0:0:
448,192,90518,1,0,0:0:0:0:
192,192,90621,1,0,0:0:0:0:
64,192,90621,1,0,0:0:0:0:
320,192,90725,1,0,0:0:0:0:
192,192,90828,1,0,0:0:0:0:
64,192,90828,1,0,0:0:0:0:
320,192,91035,1,0,0:0:0:0:
192,192,91104,1,0,0:0:0:0:
320,192,91173,1,0,0:0:0:0:
64,192,91242,1,0,0:0:0:0:
192,192,91311,1,0,0:0:0:0:
448,192,91380,1,0,0:0:0:0:
64,192,91449,1,0,0:0:0:0:
192,192,91518,1,0,0:0:0:0:
448,192,91587,1,0,0:0:0:0:
320,192,91656,1,0,0:0:0:0:
64,192,91725,1,0,0:0:0:0:
320,192,91794,1,0,0:0:0:0:
192,192,91863,128,0,92276:0:0:0:0:
320,192,92276,1,0,0:0:0:0:
448,192,92328,1,0,0:0:0:0:
320,192,92380,1,0,0:0:0:0:
192,192,92432,1,0,0:0:0:0:
64,192,92483,1,0,0:0:0:0:
192,192,92535,1,0,0:0:0:0:
320,192,92587,1,0,0:0:0:0:
192,192,92690,1,0,0:0:0:0:
64,192,92690,128,0,92897:0:0:0:0:
448,192,92690,128,0,92897:0:0:0:0:
320,192,92794,1,0,0:0:0:0:
192,192,92897,1,0,0:0:0:0:
64,192,93001,1,0,0:0:0:0:
448,192,93104,128,0,93311:0:0:0:0:
320,192,93104,128,0,93311:0:0:0:0:
192,192,93104,1,0,0:0:0:0:
64,192,93207,1,0,0:0:0:0:
192,192,93311,1,0,0:0:0:0:
64,192,93414,1,0,0:0:0:0:
192,192,93518,128,0,93725:0:0:0:0:
320,192,93518,128,0,93725:0:0:0:0:
448,192,93518,1,0,0:0:0:0:
64,192,93621,1,0,0:0:0:0:
448,192,93725,1,0,0:0:0:0:
320,192,93828,1,0,0:0:0:0:
192,192,93932,128,0,94138:0:0:0:0:
64,192,93932,128,0,94138:0:0:0:0:
448,192,93932,1,0,0:0:0:0:
320,192,94035,1,0,0:0:0:0:
448,192,94138,1,0,0:0:0:0:
192,192,94242,1,0,0:0:0:0:
320,192,94345,128,0,94552:0:0:0:0:
448,192,94345,128,0,94552:0:0:0:0:
64,192,94345,1,0,0:0:0:0:
64,192,94449,1,0,0:0:0:0:
192,192,94552,1,0,0:0:0:0:
192,192,94656,1,0,0:0:0:0:
320,192,94759,128,0,94863:0:0:0:0:
448,192,94759,128,0,94863:0:0:0:0:
64,192,94759,1,0,0:0:0:0:
64,192,94863,1,0,0:0:0:0:
320,192,94966,128,0,95069:0:0:0:0:
448,192,94966,128,0,95069:0:0:0:0:
192,192,95069,1,0,0:0:0:0:
320,192,95173,128,0,95380:0:0:0:0:
448,192,95173,128,0,95380:0:0:0:0:
64,192,95173,1,0,0:0:0:0:
64,192,95276,1,0,0:0:0:0:
192,192,95380,1,0,0:0:0:0:
320,192,95483,1,0,0:0:0:0:
192,192,95587,1,0,0:0:0:0:
64,192,95587,1,0,0:0:0:0:
192,192,95690,1,0,0:0:0:0:
320,192,95690,1,0,0:0:0:0:
320,192,95794,1,0,0:0:0:0:
448,192,95794,1,0,0:0:0:0:
192,192,95897,1,0,0:0:0:0:
64,192,96001,128,0,96207:0:0:0:0:
320,192,96001,128,0,96207:0:0:0:0:
448,192,96001,128,0,96207:0:0:0:0:
192,192,96207,1,0,0:0:0:0:
448,192,96414,128,0,96621:0:0:0:0:
192,192,96414,128,0,96621:0:0:0:0:
64,192,96414,128,0,96621:0:0:0:0:
320,192,96621,1,0,0:0:0:0:
320,192,96828,128,0,97035:0:0:0:0:
192,192,96828,128,0,97035:0:0:0:0:
64,192,96828,128,0,97035:0:0:0:0:
448,192,96828,128,0,97035:0:0:0:0:
64,192,97138,1,0,0:0:0:0:
448,192,97138,1,0,0:0:0:0:
320,192,97138,1,0,0:0:0:0:
192,192,97138,1,0,0:0:0:0:
448,192,97449,1,0,0:0:0:0:
192,192,97449,1,0,0:0:0:0:
320,192,97449,1,0,0:0:0:0:
64,192,97449,1,0,0:0:0:0:
192,192,97656,1,0,0:0:0:0:
320,192,97759,1,0,0:0:0:0:
448,192,97863,1,0,0:0:0:0:
64,192,97863,1,0,0:0:0:0:
320,192,97966,1,0,0:0:0:0:
320,192,98069,1,0,0:0:0:0:
192,192,98069,1,0,0:0:0:0:
320,192,98173,1,0,0:0:0:0:
64,192,98276,1,0,0:0:0:0:
320,192,98276,1,0,0:0:0:0:
448,192,98380,1,0,0:0:0:0:
192,192,98483,128,0,98690:0:0:0:0:
64,192,98483,128,0,98690:0:0:0:0:
448,192,98483,1,0,0:0:0:0:
320,192,98690,128,0,98897:0:0:0:0:
448,192,98690,128,0,98897:0:0:0:0:
64,192,98897,1,0,0:0:0:0:
64,192,99001,1,0,0:0:0:0:
192,192,99104,1,0,0:0:0:0:
192,192,99207,1,0,0:0:0:0:
448,192,99311,128,0,99518:0:0:0:0:
320,192,99311,128,0,99518:0:0:0:0:
64,192,99311,1,0,0:0:0:0:
192,192,99518,1,0,0:0:0:0:
320,192,99725,128,0,99932:0:0:0:0:
192,192,99725,128,0,99932:0:0:0:0:
64,192,99725,1,0,0:0:0:0:
448,192,99932,1,0,0:0:0:0:
192,192,100138,128,0,100345:0:0:0:0:
64,192,100138,128,0,100345:0:0:0:0:
320,192,100138,1,0,0:0:0:0:
448,192,100345,1,0,0:0:0:0:
192,192,100552,1,0,0:0:0:0:
320,192,100552,1,0,0:0:0:0:
448,192,100552,1,0,0:0:0:0:
64,192,100656,1,0,0:0:0:0:
192,192,100759,1,0,0:0:0:0:
320,192,100863,1,0,0:0:0:0:
64,192,100966,128,0,101173:0:0:0:0:
192,192,100966,128,0,101173:0:0:0:0:
448,192,100966,1,0,0:0:0:0:
320,192,101173,1,0,0:0:0:0:
448,192,101276,1,0,0:0:0:0:
192,192,101380,128,0,101483:0:0:0:0:
64,192,101380,128,0,101483:0:0:0:0:
320,192,101380,1,0,0:0:0:0:
448,192,101483,1,0,0:0:0:0:
192,192,101587,128,0,101690:0:0:0:0:
64,192,101587,128,0,101690:0:0:0:0:
448,192,101587,1,0,0:0:0:0:
320,192,101690,1,0,0:0:0:0:
64,192,101794,128,0,102001:0:0:0:0:
192,192,101794,128,0,102001:0:0:0:0:
448,192,101794,1,0,0:0:0:0:
320,192,101897,1,0,0:0:0:0:
448,192,102001,1,0,0:0:0:0:
320,192,102104,1,0,0:0:0:0:
192,192,102207,1,0,0:0:0:0:
64,192,102311,1,0,0:0:0:0:
320,192,102414,1,0,0:0:0:0:
448,192,102414,1,0,0:0:0:0:
192,192,102518,1,0,0:0:0:0:
64,192,102621,128,0,102828:0:0:0:0:
320,192,102621,128,0,102828:0:0:0:0:
448,192,102621,1,0,0:0:0:0:
192,192,102828,1,0,0:0:0:0:
448,192,103035,128,0,103242:0:0:0:0:
320,192,103035,128,0,103242:0:0:0:0:
64,192,103035,1,0,0:0:0:0:
192,192,103242,1,0,0:0:0:0:
192,192,103449,128,0,103656:0:0:0:0:
64,192,103449,128,0,103656:0:0:0:0:
448,192,103449,1,0,0:0:0:0:
320,192,103656,1,0,0:0:0:0:
192,192,103863,1,0,0:0:0:0:
320,192,103966,1,0,0:0:0:0:
192,192,104069,1,0,0:0:0:0:
448,192,104069,1,0,0:0:0:0:
320,192,104173,1,0,0:0:0:0:
192,192,104276,1,0,0:0:0:0:
448,192,104276,1,0,0:0:0:0:
64,192,104276,1,0,0:0:0:0:
320,192,104380,1,0,0:0:0:0:
448,192,104483,1,0,0:0:0:0:
64,192,104483,1,0,0:0:0:0:
320,192,104587,1,0,0:0:0:0:
192,192,104690,1,0,0:0:0:0:
64,192,104690,1,0,0:0:0:0:
448,192,104794,1,0,0:0:0:0:
320,192,104897,1,0,0:0:0:0:
64,192,105001,1,0,0:0:0:0:
192,192,105104,1,0,0:0:0:0:
320,192,105104,1,0,0:0:0:0:
448,192,105207,1,0,0:0:0:0:
64,192,105311,1,0,0:0:0:0:
192,192,105414,1,0,0:0:0:0:
320,192,105518,1,0,0:0:0:0:
448,192,105518,1,0,0:0:0:0:
192,192,105621,1,0,0:0:0:0:
64,192,105621,1,0,0:0:0:0:
64,192,105725,128,0,106138:0:0:0:0:
192,192,105725,128,0,106138:0:0:0:0:
448,192,105725,128,0,106138:0:0:0:0:
320,192,105725,128,0,106138:0:0:0:0:
64,192,106345,1,0,0:0:0:0:
192,192,106449,1,0,0:0:0:0:
320,192,106552,1,0,0:0:0:0:
448,192,106552,1,0,0:0:0:0:
192,192,106656,1,0,0:0:0:0:
64,192,106759,128,0,106966:0:0:0:0:
320,192,106759,128,0,106966:0:0:0:0:
192,192,106966,1,0,0:0:0:0:
448,192,107069,1,0,0:0:0:0:
320,192,107173,1,0,0:0:0:0:
448,192,107276,1,0,0:0:0:0:
192,192,107380,1,0,0:0:0:0:
64,192,107483,1,0,0:0:0:0:
320,192,107483,1,0,0:0:0:0:
448,192,107587,1,0,0:0:0:0:
320,192,107690,1,0,0:0:0:0:
64,192,107794,1,0,0:0:0:0:
448,192,107794,1,0,0:0:0:0:
192,192,107897,1,0,0:0:0:0:
320,192,108001,1,0,0:0:0:0:
448,192,108001,1,0,0:0:0:0:
192,192,108104,1,0,0:0:0:0:
64,192,108207,1,0,0:0:0:0:
320,192,108311,1,0,0:0:0:0:
64,192,108414,1,0,0:0:0:0:
192,192,108414,1,0,0:0:0:0:
448,192,108518,1,0,0:0:0:0:
448,192,108621,1,0,0:0:0:0:
192,192,108621,1,0,0:0:0:0:
448,192,108725,1,0,0:0:0:0:
320,192,108828,1,0,0:0:0:0:
64,192,108828,1,0,0:0:0:0:
192,192,108932,1,0,0:0:0:0:
64,192,109035,1,0,0:0:0:0:
448,192,109035,1,0,0:0:0:0:
64,192,109138,1,0,0:0:0:0:
192,192,109242,1,0,0:0:0:0:
320,192,109242,1,0,0:0:0:0:
448,192,109345,1,0,0:0:0:0:
320,192,109449,1,0,0:0:0:0:
192,192,109552,1,0,0:0:0:0:
64,192,109656,1,0,0:0:0:0:
320,192,109656,1,0,0:0:0:0:
192,192,109759,1,0,0:0:0:0:
64,192,109863,1,0,0:0:0:0:
192,192,109966,1,0,0:0:0:0:
320,192,110069,1,0,0:0:0:0:
448,192,110069,1,0,0:0:0:0:
64,192,110173,1,0,0:0:0:0:
192,192,110276,1,0,0:0:0:0:
448,192,110276,1,0,0:0:0:0:
320,192,110380,1,0,0:0:0:0:
192,192,110483,1,0,0:0:0:0:
448,192,110483,1,0,0:0:0:0:
320,192,110587,1,0,0:0:0:0:
448,192,110690,1,0,0:0:0:0:
64,192,110690,1,0,0:0:0:0:
192,192,110794,1,0,0:0:0:0:
64,192,110897,1,0,0:0:0:0:
320,192,110897,1,0,0:0:0:0:
192,192,111001,1,0,0:0:0:0:
320,192,111104,128,0,111207:0:0:0:0:
320,192,111311,128,0,111414:0:0:0:0:
448,192,111414,128,0,111518:0:0:0:0:
448,192,111621,128,0,111725:0:0:0:0:
64,192,111828,128,0,111932:0:0:0:0:
320,192,111932,128,0,112345:0:0:0:0:
448,192,111932,128,0,112345:0:0:0:0:
64,192,112138,1,0,0:0:0:0:
192,192,112242,1,0,0:0:0:0:
64,192,112345,1,0,0:0:0:0:
192,192,112449,1,0,0:0:0:0:
64,192,112552,1,0,0:0:0:0:
320,192,112552,1,0,0:0:0:0:
448,192,112552,1,0,0:0:0:0:
192,192,112656,1,0,0:0:0:0:
64,192,112759,1,0,0:0:0:0:
448,192,112759,1,0,0:0:0:0:
320,192,112863,1,0,0:0:0:0:
192,192,112966,1,0,0:0:0:0:
64,192,112966,1,0,0:0:0:0:
448,192,113069,1,0,0:0:0:0:
192,192,113173,1,0,0:0:0:0:
320,192,113276,1,0,0:0:0:0:
448,192,113380,1,0,0:0:0:0:
320,192,113432,1,0,0:0:0:0:
192,192,113483,1,0,0:0:0:0:
64,192,113535,1,0,0:0:0:0:
448,192,113587,1,0,0:0:0:0:
320,192,113638,1,0,0:0:0:0:
192,192,113690,1,0,0:0:0:0:
64,192,113742,1,0,0:0:0:0:
320,192,113794,1,0,0:0:0:0:
192,192,113845,1,0,0:0:0:0:
320,192,113897,1,0,0:0:0:0:
192,192,113949,1,0,0:0:0:0:
448,192,114001,1,0,0:0:0:0:
192,192,114052,1,0,0:0:0:0:
64,192,114104,1,0,0:0:0:0:
448,192,114207,1,0,0:0:0:0:
320,192,114207,1,0,0:0:0:0:
448,192,114311,1,0,0:0:0:0:
320,192,114311,1,0,0:0:0:0:
192,192,114414,128,0,114518:0:0:0:0:
64,192,114414,128,0,114518:0:0:0:0:
320,192,114518,1,0,0:0:0:0:
448,192,114518,1,0,0:0:0:0:
320,192,114621,128,0,114725:0:0:0:0:
448,192,114621,128,0,114725:0:0:0:0:
192,192,114725,1,0,0:0:0:0:
64,192,114725,1,0,0:0:0:0:
320,192,114828,128,0,114932:0:0:0:0:
448,192,114828,128,0,114932:0:0:0:0:
192,192,114932,128,0,115035:0:0:0:0:
448,192,115035,128,0,115138:0:0:0:0:
64,192,115035,128,0,115138:0:0:0:0:
320,192,115138,128,0,115242:0:0:0:0:
192,192,115242,128,0,115345:0:0:0:0:
448,192,115242,128,0,115345:0:0:0:0:
64,192,115345,128,0,115449:0:0:0:0:
320,192,115449,128,0,115552:0:0:0:0:
448,192,115449,128,0,115552:0:0:0:0:
192,192,115552,128,0,115656:0:0:0:0:
64,192,115656,128,0,115863:0:0:0:0:
320,192,115656,128,0,115863:0:0:0:0:
448,192,115914,1,0,0:0:0:0:
320,192,115966,1,0,0:0:0:0:
192,192,116018,1,0,0:0:0:0:
64,192,116069,1,0,0:0:0:0:
448,192,116121,1,0,0:0:0:0:
320,192,116173,1,0,0:0:0:0:
192,192,116225,1,0,0:0:0:0:
64,192,116276,1,0,0:0:0:0:
448,192,116328,1,0,0:0:0:0:
320,192,116380,1,0,0:0:0:0:
192,192,116432,1,0,0:0:0:0:
64,192,116483,1,0,0:0:0:0:
448,192,116535,1,0,0:0:0:0:
320,192,116587,1,0,0:0:0:0:
192,192,116638,1,0,0:0:0:0:
64,192,116690,1,0,0:0:0:0:
448,192,116742,1,0,0:0:0:0:
320,192,116794,1,0,0:0:0:0:
192,192,116845,1,0,0:0:0:0:
64,192,116897,1,0,0:0:0:0:
448,192,116949,1,0,0:0:0:0:
320,192,117001,1,0,0:0:0:0:
192,192,117052,1,0,0:0:0:0:
64,192,117104,1,0,0:0:0:0:
448,192,117156,1,0,0:0:0:0:
320,192,117207,1,0,0:0:0:0:
192,192,117259,1,0,0:0:0:0:
64,192,117311,1,0,0:0:0:0:
448,192,117363,1,0,0:0:0:0:
320,192,117414,1,0,0:0:0:0:
64,192,117518,128,0,117725:0:0:0:0:
448,192,117518,128,0,117725:0:0:0:0:
192,192,117518,128,0,117725:0:0:0:0:
320,192,117725,1,0,0:0:0:0:
320,192,117828,128,0,118035:0:0:0:0:
448,192,117828,128,0,118035:0:0:0:0:
192,192,117828,128,0,118035:0:0:0:0:
64,192,118035,1,0,0:0:0:0:
64,192,118138,128,0,118345:0:0:0:0:
320,192,118138,128,0,118345:0:0:0:0:
192,192,118138,128,0,118345:0:0:0:0:
448,192,118345,1,0,0:0:0:0:
320,192,118449,128,0,118656:0:0:0:0:
448,192,118449,128,0,118656:0:0:0:0:
192,192,118449,128,0,118656:0:0:0:0:
64,192,118656,1,0,0:0:0:0:
448,192,118759,128,0,118966:0:0:0:0:
192,192,118759,128,0,118966:0:0:0:0:
64,192,118759,128,0,118966:0:0:0:0:
320,192,118966,1,0,0:0:0:0:
64,192,119173,128,0,120001:0:0:0:0:
192,192,119173,128,0,120001:0:0:0:0:
320,192,119173,128,0,120001:0:0:0:0:
448,192,119173,128,0,120001:0:0:0:0:
