osu file format v14

[General]
AudioFilename: audio.ogg
AudioLeadIn: 0
PreviewTime: 118397
Countdown: 0
SampleSet: Soft
StackLeniency: 0.7
Mode: 0
LetterboxInBreaks: 0
WidescreenStoryboard: 1

[Editor]
DistanceSpacing: 1
BeatDivisor: 4
GridSize: 32
TimelineZoom: 3.100006

[Metadata]
Title:BEST PLOT
TitleUnicode:BEST PLOT
Artist:MiLO
ArtistUnicode:MiLO
Creator:Zekk
Version:Insane
Source:ユキイロサイン
Tags:yukiiro sign wonder fool eroge galgame visual novel video game ed ending vocals jpop j HAMA-kgn j-pop full ver version pop japanese svetlana shikibe mayu kazato asa shizuku- garden kowari
BeatmapID:3554362
BeatmapSetID:1739110

[Difficulty]
HPDrainRate:5
CircleSize:4
OverallDifficulty:8
ApproachRate:9
SliderMultiplier:1.68
SliderTickRate:1

[Events]
//Background and Video events
0,0,"b763385f8737049ad452343c658d5595eb705113_s2_n2.jpg",0,0
//Break Periods
//Storyboard Layer 0 (Background)
//Storyboard Layer 1 (Fail)
//Storyboard Layer 2 (Pass)
//Storyboard Layer 3 (Foreground)
//Storyboard Layer 4 (Overlay)
//Storyboard Sound Samples

[TimingPoints]
183,285.714285714286,4,2,1,60,1,0
183,-125,4,2,1,60,0,0
9325,-100,4,2,1,70,0,0
18468,-117.647058823529,4,2,1,50,0,0
27040,-117.647058823529,4,2,1,55,0,0
32183,-105.263157894737,4,2,1,65,0,0
34468,-105.263157894737,4,2,1,65,0,0
36754,-105.263157894737,4,2,1,65,0,0
45897,-111.111111111111,4,2,1,60,0,0
50183,-90.9090909090909,4,2,1,70,0,0
50468,-100,4,2,1,70,0,0
53897,-100,4,2,1,75,0,0
55040,-90.9090909090909,4,2,1,80,0,1
73325,-105.263157894737,4,2,1,65,0,0
81040,-90.9090909090909,4,2,1,65,0,0
81325,-105.263157894737,4,2,1,65,0,0
82468,-111.111111111111,4,2,1,55,0,0
90468,-100,4,2,1,60,0,0
91611,-100,4,2,1,65,0,0
96183,-105.263157894737,4,2,1,65,0,0
100754,-105.263157894737,4,2,1,65,0,0
101040,-100,4,2,1,65,0,0
105325,-105.263157894737,4,2,1,65,0,0
109897,-111.111111111111,4,2,1,60,0,0
114468,-100,4,2,1,70,0,0
116754,-100,4,2,1,75,0,0
119040,-90.9090909090909,4,2,1,80,0,1
137325,-105.263157894737,4,2,1,65,0,0
141897,-111.111111111111,4,2,1,58,0,0
155611,-100,4,2,1,65,0,0
160183,-90.9090909090909,4,2,1,80,0,1
169325,-100,4,2,1,75,0,0
173897,-90.9090909090909,4,2,1,85,0,1
177897,-90.9090909090909,4,2,1,85,0,0
178468,-90.9090909090909,4,2,1,80,0,1
196754,-100,4,2,1,70,0,0

[Colours]
Combo1 : 147,219,227
Combo2 : 145,196,191
Combo3 : 158,176,197

[HitObjects]
451,218,9325,6,0,P|384:211|261:171,1,168,6|10,3:1|0:0,0:0:0:0:
205,266,9754,1,0,3:2:0:0:
205,266,9825,1,0,3:0:0:0:
205,266,9897,2,0,P|220:302|232:373,1,84,2|2,3:2|3:2,0:0:0:0:
320,275,10183,1,10,0:2:0:0:
126,357,10325,6,0,P|68:353|-7:297,1,126,2|0,0:2|0:0,0:0:0:0:
10,318,10611,2,0,P|25:282|37:211,1,84,2|8,0:2|0:2,0:0:0:0:
2,120,10897,2,0,B|38:153|38:153|95:165|165:124,1,168,2|2,3:2|3:2,0:0:0:0:
241,50,11325,1,10,0:2:0:0:
241,50,11611,6,0,P|268:103|280:189,1,126,2|0,3:2|0:0,0:0:0:0:
280,167,11897,2,0,P|318:153|381:147,1,84,10|0,0:2|3:2,0:0:0:0:
512,302,12183,2,0,P|451:315|380:244,1,168,2|10,3:2|0:2,0:0:0:0:
276,304,12611,2,0,P|295:347|309:406,1,84,2|0,0:2|3:0,0:0:0:0:
268,224,12897,1,2,3:2:0:0:
268,224,13040,1,10,0:2:0:0:
185,292,13183,2,0,P|115:269|-3:249,1,168,2|2,0:2|3:2,0:0:0:0:
132,187,13611,1,10,0:2:0:0:
132,187,13897,6,0,P|147:112|83:52,1,168,6|10,3:2|0:2,0:0:0:0:
193,10,14325,1,0,3:2:0:0:
193,10,14397,1,0,3:0:0:0:
193,10,14468,2,0,P|232:27|302:49,1,84,2|2,3:2|0:2,0:0:0:0:
327,161,14754,1,10,0:2:0:0:
370,85,14897,2,0,P|319:78|242:138,1,126,2|0,0:2|0:0,0:0:0:0:
237,160,15183,2,0,P|257:199|274:258,1,84,2|8,0:2|0:2,0:0:0:0:
146,356,15468,5,10,0:2:0:0:
146,356,15540,1,8,0:2:0:0:
146,356,15611,1,0,3:2:0:0:
181,256,15754,1,8,0:2:0:0:
268,330,15897,2,0,P|308:315|375:304,1,84,2|8,3:2|0:2,0:0:0:0:
512,207,16183,6,0,P|445:222|366:151,1,168,6|0,3:2|0:0,0:0:0:0:
210,8,17325,6,0,P|234:88|245:179,1,168,6|8,3:2|0:2,0:0:0:0:
147,132,17754,1,8,0:2:0:0:
155,273,17897,2,0,P|190:257|245:246,1,84,0|8,3:2|0:2,0:0:0:0:
329,321,18183,2,0,P|386:340|465:353,1,126,8|0,3:3|0:0,0:0:0:0:
488,359,18468,6,0,P|507:300|463:238,1,142.800002723694,6|2,3:1|0:2,0:0:0:0:
337,166,19040,2,0,P|357:89|358:25,2,142.800002723694,2|2|2,0:2|0:2|0:2,0:0:0:0:
447,85,19897,1,2,0:2:0:0:
260,57,20183,6,0,P|201:98|109:81,1,142.800002723694,2|2,0:2|3:2,0:0:0:0:
59,34,20611,1,0,0:0:0:0:
6,113,20754,2,0,P|32:172|60:271,1,142.800002723694,2|2,3:2|0:2,0:0:0:0:
21,348,21325,1,2,0:2:0:0:
123,300,21611,2,0,P|183:330|233:340,1,107.10000204277,2|0,0:2|0:0,0:0:0:0:
221,338,21897,6,0,P|283:315|380:316,1,142.800002723694,2|2,0:2|0:2,0:0:0:0:
257,216,22468,1,2,0:2:0:0:
400,84,22754,2,0,P|390:120|387:179,1,71.4000013618469,2|0,3:2|0:0,0:0:0:0:
479,218,23040,6,0,B|440:198|440:198|387:200|327:232,1,142.800002723694,2|0,3:2|0:2,0:0:0:0:
273,37,23468,2,0,P|316:74|430:71,1,142.800002723694,2|0,0:2|0:0,0:0:0:0:
257,216,23897,2,0,P|251:171|235:130,1,71.4000013618469,2|0,0:2|0:0,0:0:0:0:
152,107,24183,6,0,P|71:140|6:147,1,142.800002723694,2|2,0:2|0:2,0:0:0:0:
117,208,24611,1,0,0:0:0:0:
59,270,24754,2,0,P|70:304|76:358,1,71.4000013618469,2|0,0:2|0:0,0:0:0:0:
231,249,25040,2,0,P|189:264|145:272,1,71.4000013618469,2|0,3:2|0:0,0:0:0:0:
270,330,25325,6,0,B|306:365|306:365|350:380|421:367,1,142.800002723694,2|2,3:2|0:2,0:0:0:0:
486,292,25897,1,2,0:2:0:0:
333,216,26183,1,2,0:2:0:0:
467,89,26468,2,0,P|439:177|428:242,1,142.800002723694,2|2,0:2|0:2,0:0:0:0:
361,118,26897,1,0,0:0:0:0:
254,229,27040,6,0,P|211:239|163:257,1,71.4000013618469,8|0,0:2|0:0,0:0:0:0:
33,79,27325,2,0,P|72:106|146:124,1,107.10000204277,12|0,0:2|0:0,0:0:0:0:
151,149,27611,6,0,P|169:196|124:278,1,142.800002723694,6|0,3:1|0:0,0:0:0:0:
46,381,28183,2,0,P|76:368|137:355,1,71.4000013618469,2|0,3:2|0:0,0:0:0:0:
203,310,28468,2,0,P|235:323|270:332,1,71.4000013618469
385,384,28754,6,0,P|367:315|357:232,1,142.800002723694,2|0,3:2|0:0,0:0:0:0:
320,145,29183,1,0,3:0:0:0:
320,145,29254,1,0,3:0:0:0:
320,145,29325,2,0,P|358:162|417:173,1,71.4000013618469,2|0,3:2|0:0,0:0:0:0:
492,22,29611,2,0,P|438:17|383:63,1,107.10000204277,2|0,0:2|0:0,0:0:0:0:
361,61,29897,6,0,P|326:51|204:-4,1,142.800002723694,2|0,3:2|0:0,0:0:0:0:
148,71,30325,1,0,0:0:0:0:
211,129,30468,2,0,P|218:165|238:224,1,71.4000013618469,0|0,3:2|0:0,0:0:0:0:
267,282,30754,2,0,P|215:248|148:255,1,107.10000204277
139,272,31040,6,0,P|74:291|-22:303,1,142.800002723694,0|2,3:2|0:2,0:0:0:0:
87,372,31468,1,0,0:2:0:0:
139,272,31611,1,2,3:2:0:0:
139,272,31754,1,8,0:2:0:0:
221,339,31897,1,10,0:2:0:0:
221,339,32183,6,0,P|264:295|370:307,1,159.59999573822,6|10,3:2|0:2,0:0:0:0:
463,224,32611,1,0,3:2:0:0:
463,224,32683,1,0,3:0:0:0:
463,224,32754,2,0,P|420:212|351:185,1,119.699996803665,6|0,3:2|0:0,0:0:0:0:
316,167,33040,2,0,P|303:209|277:266,1,79.7999978691102,8|0,0:2|3:2,0:0:0:0:
172,130,33325,6,0,P|179:30|261:14,1,159.59999573822,6|10,3:2|0:2,0:0:0:0:
110,68,33754,1,8,0:3:0:0:
110,68,33825,1,0,3:0:0:0:
110,68,33897,2,0,P|73:60|12:35,1,79.7999978691102,4|4,0:3|3:0,0:0:0:0:
74,180,34183,1,8,0:2:0:0:
172,130,34325,1,8,0:2:0:0:
0,213,34468,6,0,P|74:230|159:268,1,159.59999573822,6|8,3:2|0:2,0:0:0:0:
211,350,34897,1,0,3:2:0:0:
271,273,35040,2,0,P|263:238|231:166,1,79.7999978691102,2|0,3:2|0:0,0:0:0:0:
304,105,35325,2,0,P|347:152|423:146,1,119.699996803665,8|0,0:2|3:0,0:0:0:0:
436,144,35611,6,0,P|479:162|533:177,1,79.7999978691102,6|0,3:2|0:0,0:0:0:0:
420,332,35897,1,8,0:2:0:0:
479,257,36040,2,0,P|402:245|341:292,1,159.59999573822,6|8,3:2|0:2,0:0:0:0:
297,384,36468,1,8,0:3:0:0:
297,384,36611,1,4,0:3:0:0:
218,318,36754,6,0,P|151:343|83:359,1,119.699996803665,6|0,3:1|0:0,0:0:0:0:
71,365,37040,1,8,0:2:0:0:
7,278,37183,2,0,P|-12:225|67:152,1,159.59999573822,0|2,3:2|3:2,0:0:0:0:
141,224,37611,2,0,P|177:228|234:250,1,79.7999978691102,10|0,0:2|3:0,0:0:0:0:
218,241,37825,1,0,3:0:0:0:
218,241,37897,5,2,3:2:0:0:
297,171,38040,2,0,P|288:134|260:80,1,79.7999978691102,2|10,0:0|0:2,0:0:0:0:
201,5,38325,2,0,P|253:51|362:53,1,159.59999573822,2|2,3:2|3:2,0:0:0:0:
465,122,38754,2,0,P|420:132|371:151,1,79.7999978691102,10|0,0:2|3:2,0:0:0:0:
251,237,39040,6,0,B|285:273|285:273|335:291|419:281,1,159.59999573822,2|8,3:2|0:2,0:0:0:0:
217,384,39468,2,0,P|213:342|194:286,1,79.7999978691102,2|0,3:2|0:2,0:0:0:0:
129,231,39754,1,2,3:2:0:0:
52,287,39897,1,10,0:2:0:0:
52,287,40183,6,0,P|28:227|95:151,1,159.59999573822,2|10,3:2|0:2,0:0:0:0:
178,88,40611,2,0,P|224:109|287:126,1,79.7999978691102,2|0,3:2|0:0,0:0:0:0:
185,189,40897,1,2,3:2:0:0:
293,269,41040,2,0,P|281:224|261:164,1,79.7999978691102,10|0,0:2|3:2,0:0:0:0:
204,343,41325,6,0,P|288:358|385:398,1,159.59999573822,6|10,3:2|0:2,0:0:0:0:
475,227,41754,2,0,P|425:279|326:263,1,159.59999573822,2|0,3:2|3:2,0:0:0:0:
361,99,42183,2,0,P|378:141|387:193,1,79.7999978691102,10|0,0:2|0:0,0:0:0:0:
385,174,42397,1,0,3:0:0:0:
385,174,42468,5,2,3:2:0:0:
451,88,42611,1,0,0:0:0:0:
451,88,42754,1,10,0:2:0:0:
292,152,42897,2,0,B|254:129|204:130|204:130|172:162|112:177,1,159.59999573822,2|0,3:2|3:2,0:0:0:0:
38,75,43325,2,0,P|78:57|142:43,1,79.7999978691102,10|0,0:2|0:0,0:0:0:0:
190,234,43611,6,0,P|145:196|37:207,1,159.59999573822,2|10,3:2|0:2,0:0:0:0:
102,302,44040,2,0,P|118:346|126:386,1,79.7999978691102,2|0,3:2|0:0,0:0:0:0:
13,331,44325,1,0,3:2:0:0:
185,308,44468,2,0,P|255:339|328:356,1,119.699996803665,10|0,0:2|0:0,0:0:0:0:
345,345,44754,6,0,P|329:301|321:261,1,79.7999978691102,6|2,3:2|0:2,0:0:0:0:
454,132,45040,1,10,0:2:0:0:
512,215,45183,2,0,P|446:227|364:160,1,159.59999573822,2|0,3:2|3:2,0:0:0:0:
326,59,45611,1,10,0:1:0:0:
262,155,45754,1,8,0:2:0:0:
206,66,45897,6,0,P|145:88|75:102,1,113.399996539307,6|0,3:1|0:0,0:0:0:0:
97,98,46183,2,0,P|113:140|115:188,1,75.5999976928712,2|2,3:2|0:2,0:0:0:0:
18,223,46468,2,0,P|92:218|153:287,1,151.199995385742,10|2,0:2|3:2,0:0:0:0:
173,356,46897,1,10,0:2:0:0:
173,356,46968,1,0,3:0:0:0:
173,356,47040,1,2,3:2:0:0:
321,281,47183,1,10,0:2:0:0:
268,384,47325,2,0,P|260:348|238:301,1,75.5999976928712,2|0,3:2|0:0,0:0:0:0:
403,203,47611,6,0,P|385:264|371:374,1,151.199995385742,10|2,0:2|3:2,0:0:0:0:
470,277,48040,1,10,0:2:0:0:
403,203,48183,6,0,P|362:228|271:224,1,113.399996539307,2|0,3:2|0:2,0:0:0:0:
297,232,48468,2,0,P|289:196|267:149,1,75.5999976928712,2|0,3:2|0:2,0:0:0:0:
178,134,48754,2,0,P|100:171|35:182,1,151.199995385742,10|2,0:2|3:2,0:0:0:0:
150,246,49183,1,8,0:2:0:0:
69,314,49325,6,0,P|104:320|157:341,1,75.5999976928712,2|8,3:2|0:0,0:0:0:0:
141,333,49540,1,8,0:0:0:0:
141,333,49611,1,0,3:2:0:0:
282,274,49754,1,0,3:2:0:0:
237,366,49897,5,10,0:2:0:0:
178,134,50183,2,0,P|246:163|317:179,1,138.600004229736,4|0,3:2|0:0,0:0:0:0:
341,203,50468,6,0,P|405:152|492:162,1,168,6|2,3:2|3:2,0:0:0:0:
388,28,50897,1,8,0:2:0:0:
388,28,50968,1,8,0:0:0:0:
388,28,51040,2,0,P|372:71|365:130,1,84,2|10,3:2|0:2,0:0:0:0:
214,80,51325,1,2,3:2:0:0:
292,23,51468,1,10,0:2:0:0:
226,176,51611,6,0,P|159:151|77:140,1,126,2|0,3:2|0:0,0:0:0:0:
105,141,51897,2,0,P|97:182|82:221,1,84,2|8,3:2|0:2,0:0:0:0:
67,372,52183,1,2,3:2:0:0:
0,260,52325,1,8,0:2:0:0:
131,304,52468,2,0,P|179:287|252:277,1,84,2|8,3:2|0:2,0:0:0:0:
306,192,52754,6,0,P|347:235|475:240,1,168,6|2,3:2|0:2,0:0:0:0:
512,128,53183,1,0,3:2:0:0:
402,168,53325,1,8,0:2:0:0:
436,64,53468,1,8,0:3:0:0:
436,64,53611,2,0,P|386:85|327:99,1,84,4|4,0:3|3:0,0:0:0:0:
235,231,53897,5,6,3:2:0:0:
235,231,54183,1,6,3:2:0:0:
235,231,54468,1,6,3:2:0:0:
235,231,55040,6,0,B|182:204|182:204|110:207|43:265,1,184.800005639649,6|10,3:1|0:2,0:0:0:0:
17,95,55468,1,2,3:2:0:0:
17,95,55540,1,0,3:0:0:0:
17,95,55611,2,0,P|66:115|118:124,1,92.4000028198243,0|0,3:2|0:2,0:0:0:0:
231,72,55897,1,10,0:2:0:0:
128,28,56040,1,2,3:2:0:0:
198,160,56183,6,0,P|261:113|378:127,1,184.800005639649,2|10,3:2|0:2,0:0:0:0:
433,212,56611,2,0,P|417:253|404:309,1,92.4000028198243,2|0,0:2|3:2,0:0:0:0:
475,368,56897,1,2,0:2:0:0:
329,263,57040,2,0,P|269:289|174:316,1,138.600004229736,10|0,0:2|0:0,0:0:0:0:
165,327,57325,6,0,P|121:288|156:176,1,184.800005639649,2|10,3:2|0:2,0:0:0:0:
214,88,57754,1,2,0:2:0:0:
96,127,57897,2,0,P|58:111|-7:96,1,92.4000028198243,2|2,3:2|0:2,0:0:0:0:
146,5,58183,2,0,P|208:29|301:48,1,138.600004229736,10|0,0:2|3:2,0:0:0:0:
306,75,58468,6,0,P|332:160|346:265,1,184.800005639649,2|8,3:2|0:2,0:0:0:0:
437,185,58897,1,0,3:2:0:0:
437,185,58968,1,0,3:0:0:0:
437,185,59040,2,0,P|479:202|535:217,1,92.4000028198243,2|0,3:2|3:2,0:0:0:0:
503,365,59325,2,0,P|463:330|367:336,1,138.600004229736,10|0,0:2|3:2,0:0:0:0:
346,345,59611,6,0,B|287:358|243:379|243:379|201:376|158:345,1,184.800005639649,6|10,3:1|0:2,0:0:0:0:
92,239,60040,1,2,3:2:0:0:
92,239,60111,1,0,3:0:0:0:
92,239,60183,2,0,P|143:261|195:272,1,92.4000028198243,2|2,3:2|3:2,0:0:0:0:
329,131,60468,2,0,P|254:121|195:190,1,138.600004229736,10|0,0:2|3:0,0:0:0:0:
189,188,60754,6,0,P|173:108|134:13,1,184.800005639649,2|10,3:2|0:2,0:0:0:0:
0,146,61183,1,0,3:0:0:0:
0,146,61254,1,0,3:0:0:0:
0,146,61325,2,0,P|44:134|86:115,1,92.4000028198243,2|0,3:2|3:2,0:0:0:0:
189,188,61611,2,0,P|174:234|165:282,1,92.4000028198243,10|0,0:2|0:0,0:0:0:0:
284,358,61897,6,0,B|329:333|390:333|390:333|414:367|487:385,1,184.800005639649,2|10,3:2|0:2,0:0:0:0:
462,217,62325,1,0,3:2:0:0:
361,263,62468,2,0,P|318:251|260:223,1,92.4000028198243,2|2,3:2|0:2,0:0:0:0:
326,122,62754,1,10,0:2:0:0:
326,122,62897,1,2,3:2:0:0:
208,186,63040,6,0,P|226:233|233:289,1,92.4000028198243,2|2,3:2|0:0,0:0:0:0:
141,73,63325,1,8,0:0:0:0:
46,106,63468,2,0,P|91:153|223:138,1,184.800005639649,2|0,0:0|3:0,0:0:0:0:
262,14,63897,1,8,0:0:0:0:
326,122,64040,1,8,0:0:0:0:
512,80,64183,6,0,P|406:57|315:27,1,184.800005639649,4|8,3:1|0:2,0:0:0:0:
410,151,64611,1,2,3:2:0:0:
410,151,64683,1,0,3:0:0:0:
410,151,64754,2,0,P|423:187|434:248,1,92.4000028198243,0|0,3:0|0:2,0:0:0:0:
421,379,65040,1,10,0:2:0:0:
512,294,65183,1,2,0:2:0:0:
371,305,65325,6,0,P|319:286|260:277,1,92.4000028198243,2|2,3:2|0:2,0:0:0:0:
160,215,65611,1,8,0:2:0:0:
106,295,65754,2,0,P|167:315|265:241,1,184.800005639649,2|2,0:2|0:2,0:0:0:0:
184,126,66183,2,0,P|167:176|157:239,1,92.4000028198243,10|0,0:2|0:0,0:0:0:0:
20,60,66468,6,0,P|101:43|182:18,1,138.600004229736,2|0,3:1|0:0,0:0:0:0:
194,12,66754,2,0,P|242:31|297:44,1,92.4000028198243,10|0,0:1|0:2,0:0:0:0:
341,132,67040,2,0,P|431:139|491:56,1,184.800005639649,2|8,3:1|0:1,0:0:0:0:
445,178,67468,5,0,3:2:0:0:
445,178,67540,1,0,3:0:0:0:
445,178,67611,2,0,P|463:234|490:365,1,184.800005639649,2|8,3:2|0:2,0:0:0:0:
383,273,68040,1,0,3:2:0:0:
306,333,68183,6,0,P|255:316|147:295,1,138.600004229736,2|0,3:2|0:0,0:0:0:0:
142,318,68468,1,10,0:2:0:0:
142,318,68611,1,2,0:2:0:0:
47,227,68754,6,0,P|26:153|113:92,1,184.800005639649,6|8,3:1|0:0,0:0:0:0:
200,18,69183,1,0,3:2:0:0:
200,18,69254,1,0,3:0:0:0:
200,18,69325,2,0,P|215:68|223:132,1,92.4000028198243,2|0,3:2|0:0,0:0:0:0:
315,169,69611,2,0,P|361:151|424:141,1,92.4000028198243,10|2,0:2|0:2,0:0:0:0:
512,283,69897,6,0,B|468:310|468:310|415:315|321:274,1,184.800005639649,6|8,3:1|0:2,0:0:0:0:
284,353,70325,1,0,3:2:0:0:
284,353,70397,1,0,3:2:0:0:
284,353,70468,1,2,3:2:0:0:
235,236,70611,1,0,0:0:0:0:
107,300,70754,2,0,P|146:307|220:335,1,92.4000028198243,10|0,0:2|0:0,0:0:0:0:
339,281,71040,6,0,P|323:194|287:89,1,184.800005639649,6|0,3:1|3:2,0:0:0:0:
314,12,71468,1,0,0:2:0:0:
213,71,71611,2,0,P|171:52|108:38,1,92.4000028198243,0|0,3:2|0:2,0:0:0:0:
11,163,71897,2,0,P|75:183|156:128,1,138.600004229736,10|0,0:0|3:0,0:0:0:0:
177,137,72183,6,0,P|194:179|206:233,1,92.4000028198243,2|2,3:2|3:2,0:0:0:0:
172,342,72468,1,8,0:2:0:0:
112,228,72611,1,10,0:2:0:0:
243,288,72754,2,0,P|284:278|354:251,1,92.4000028198243,8|10,0:2|0:2,0:0:0:0:
419,167,73040,1,8,3:3:0:0:
419,167,73183,1,4,3:3:0:0:
478,241,73325,6,0,P|415:261|329:198,1,159.59999573822,6|0,3:1|0:0,0:0:0:0:
279,157,73754,2,0,P|295:96|297:-4,1,159.59999573822,2|0,3:2|0:0,0:0:0:0:
219,46,74183,2,0,P|170:30|121:20,1,79.7999978691102,2|0,3:2|0:0,0:0:0:0:
8,105,74468,6,0,B|51:134|51:134|104:137|171:107,1,159.59999573822,10|0,0:2|0:0,0:0:0:0:
216,187,74897,2,0,P|193:246|185:352,1,159.59999573822,10|0,0:2|0:0,0:0:0:0:
288,383,75325,2,0,P|330:369|376:363,1,79.7999978691102,10|0,0:2|0:0,0:0:0:0:
478,236,75611,6,0,P|402:241|323:178,1,159.59999573822,4|8,3:2|0:2,0:0:0:0:
298,104,76040,2,0,P|313:66|328:15,1,79.7999978691102,2|0,3:2|0:0,0:0:0:0:
394,103,76325,1,10,0:2:0:0:
241,44,76468,2,0,P|202:60|132:78,1,79.7999978691102,8|4,0:3|0:3,0:0:0:0:
59,158,76754,5,6,3:1:0:0:
118,209,76897,1,8,0:3:0:0:
200,194,77040,1,4,3:0:0:0:
304,311,77325,6,0,P|260:319|212:336,1,79.7999978691102,14|8,3:1|0:2,0:0:0:0:
284,230,77611,1,8,3:3:0:0:
284,230,77754,1,4,3:3:0:0:
388,325,77897,6,0,P|452:331|513:235,1,159.59999573822,6|0,3:1|3:2,0:0:0:0:
446,199,78325,1,2,0:2:0:0:
446,199,78468,2,0,P|466:130|479:24,1,159.59999573822,8|0,0:0|3:2,0:0:0:0:
393,13,78897,5,0,3:0:0:0:
393,13,78968,1,0,3:0:0:0:
393,13,79040,2,0,B|358:42|358:42|303:57|230:43,1,159.59999573822,2|0,3:2|3:2,0:0:0:0:
181,112,79468,2,0,P|199:164|218:297,1,159.59999573822,2|0,0:2|0:2,0:0:0:0:
159,354,79897,2,0,P|232:302|292:312,1,119.699996803665,2|0,3:2|0:0,0:0:0:0:
291,319,80183,6,0,P|356:344|460:371,1,159.59999573822,2|8,3:2|0:2,0:0:0:0:
512,198,80611,2,0,P|461:242|356:233,1,159.59999573822,0|0,0:0|3:2,0:0:0:0:
309,150,81040,2,0,P|316:98|342:49,1,92.4000028198243,14|0,0:2|0:0,0:0:0:0:
235,12,81325,5,2,3:1:0:0:
173,70,81468,1,8,0:2:0:0:
98,35,81611,2,0,P|60:56|0:75,1,79.7999978691102,8|8,3:2|3:2,0:0:0:0:
101,190,81897,5,2,3:2:0:0:
101,190,82040,1,8,0:2:0:0:
181,144,82183,2,0,P|216:165|254:179,1,79.7999978691102,8|8,3:2|3:2,0:0:0:0:
338,256,82468,6,0,P|393:207|494:212,1,151.199995385742,6|0,3:2|0:0,0:0:0:0:
508,382,82897,2,0,P|459:358|356:342,1,151.199995385742,2|0,3:2|0:0,0:0:0:0:
260,291,83325,2,0,P|270:326|271:387,1,75.5999976928712,2|0,3:2|0:0,0:0:0:0:
147,282,83611,6,0,P|138:208|204:148,1,151.199995385742,10|2,0:2|0:2,0:0:0:0:
245,53,84040,2,0,B|204:76|204:76|146:81|92:46,1,151.199995385742,10|0,0:2|3:2,0:0:0:0:
22,158,84468,2,0,P|59:145|108:138,1,75.5999976928712,10|0,0:2|0:0,0:0:0:0:
220,283,84754,6,0,P|154:261|43:251,1,151.199995385742,6|0,3:2|0:0,0:0:0:0:
216,148,85183,2,0,P|248:190|364:200,1,151.199995385742,2|0,3:2|0:0,0:0:0:0:
411,294,85611,2,0,P|402:330|387:365,1,75.5999976928712,2|0,3:2|0:0,0:0:0:0:
512,249,85897,6,0,P|509:176|429:121,1,151.199995385742,10|0,0:2|3:2,0:0:0:0:
373,76,86325,1,2,3:2:0:0:
373,76,86397,1,0,3:0:0:0:
373,76,86468,2,0,P|332:93|268:103,1,75.5999976928712,10|0,0:2|0:0,0:0:0:0:
231,183,86754,2,0,P|169:157|100:143,1,113.399996539307,2|0,3:2|0:0,0:0:0:0:
89,152,87040,6,0,P|48:188|66:290,1,151.199995385742,6|10,3:2|0:2,0:0:0:0:
146,315,87468,2,0,P|177:303|238:293,1,75.5999976928712,2|0,3:2|0:0,0:0:0:0:
322,349,87754,1,10,0:2:0:0:
398,301,87897,2,0,P|341:304|289:266,1,113.399996539307,2|0,3:2|0:0,0:0:0:0:
272,239,88183,6,0,P|290:167|331:73,1,151.199995385742,14|2,0:2|3:2,0:0:0:0:
391,42,88611,1,0,0:2:0:0:
304,7,88754,2,0,P|260:26|208:36,1,75.5999976928712,10|0,0:2|0:0,0:0:0:0:
160,108,89040,2,0,P|104:72|39:77,1,113.399996539307,6|0,3:2|0:0,0:0:0:0:
17,72,89325,6,0,P|41:142|43:251,1,151.199995385742,2|0,3:2|0:2,0:0:0:0:
2,307,89754,1,8,0:3:0:0:
194,220,90040,1,0,0:2:0:0:
194,220,90183,1,8,0:3:0:0:
139,380,90468,6,0,P|133:338|107:277,1,84,10|0,0:2|0:0,0:0:0:0:
119,298,90754,1,8,0:2:0:0:
225,354,90897,1,8,0:2:0:0:
225,354,90968,1,8,0:0:0:0:
225,354,91040,1,8,0:2:0:0:
260,267,91183,1,8,0:2:0:0:
331,334,91325,2,0,P|371:343|420:362,1,84,2|0,3:2|0:2,0:0:0:0:
512,180,91611,6,0,P|451:235|359:223,1,168,6|10,3:2|0:2,0:0:0:0:
288,171,92040,1,10,0:2:0:0:
288,171,92111,1,8,0:2:0:0:
288,171,92183,2,0,P|294:122|312:66,1,84,10|4,3:2|3:2,0:0:0:0:
365,1,92468,1,2,3:2:0:0:
258,17,92611,5,8,0:2:0:0:
258,17,92683,1,8,0:2:0:0:
258,17,92754,1,10,0:2:0:0:
171,80,92897,2,0,P|134:63|78:52,1,84,8|2,0:2|3:2,0:0:0:0:
75,228,93183,1,8,0:2:0:0:
0,170,93325,2,0,P|52:181|128:137,1,126,2|8,3:2|0:0,0:0:0:0:
152,164,93611,2,0,P|166:202|176:271,1,84,8|0,3:0|3:2,0:0:0:0:
99,319,93897,6,0,P|192:339|244:365,1,126,6|0,3:2|0:0,0:0:0:0:
293,376,94183,2,0,P|336:326|312:254,1,126,6|0,3:2|0:0,0:0:0:0:
263,212,94468,2,0,P|307:200|353:179,1,84,6|0,3:2|0:0,0:0:0:0:
470,89,94754,6,0,B|429:110|429:110|386:113|328:76,1,126,14|0,3:1|0:0,0:0:0:0:
331,67,95040,2,0,P|266:91|168:111,1,168,0|10,3:2|0:2,0:0:0:0:
71,50,95468,2,0,P|34:82|42:193,1,168,0|0,3:2|3:2,0:0:0:0:
130,261,95897,2,0,P|116:297|107:356,1,84,10|8,0:2|0:2,0:0:0:0:
231,310,96183,6,0,P|298:297|404:260,1,159.59999573822,6|10,3:2|0:2,0:0:0:0:
464,333,96611,1,2,0:2:0:0:
510,251,96754,2,0,P|491:204|485:148,1,79.7999978691102,6|0,3:2|0:0,0:0:0:0:
485,61,97040,2,0,P|455:103|375:109,1,119.699996803665,8|0,0:2|0:0,0:0:0:0:
348,131,97325,6,0,P|298:112|190:93,1,159.59999573822,6|10,3:2|0:2,0:0:0:0:
125,12,97754,1,8,0:3:0:0:
71,90,97897,2,0,P|88:127|98:185,1,79.7999978691102,8|4,3:0|3:0,0:0:0:0:
31,233,98183,1,10,0:2:0:0:
31,233,98325,1,8,0:2:0:0:
127,308,98468,6,0,P|219:280|301:266,1,159.59999573822,6|8,3:2|0:2,0:0:0:0:
365,213,98897,1,0,0:2:0:0:
415,289,99040,2,0,P|399:326|391:378,1,79.7999978691102,2|2,3:2|3:2,0:0:0:0:
512,253,99325,2,0,P|515:185|463:138,1,119.699996803665,10|8,0:2|0:0,0:0:0:0:
448,132,99611,6,0,P|400:154|267:183,1,159.59999573822,6|10,3:2|0:2,0:0:0:0:
203,127,100040,2,0,P|197:49|290:28,1,159.59999573822,2|8,3:2|0:2,0:0:0:0:
149,57,100468,2,0,P|109:47|59:31,1,79.7999978691102,8|4,0:3|0:3,0:0:0:0:
0,202,100754,6,0,P|60:182|129:175,1,119.699996803665,2|0,3:1|0:0,0:0:0:0:
147,202,101040,2,0,P|180:237|156:358,1,168,14|0,0:2|0:2,0:0:0:0:
275,285,101468,1,0,3:2:0:0:
332,353,101611,2,0,P|374:337|426:325,1,84,10|8,0:2|3:2,0:0:0:0:
501,206,101897,6,0,B|460:224|460:224|400:223|341:176,1,168,6|10,3:2|0:2,0:0:0:0:
273,100,102325,2,0,P|278:60|299:6,1,84,6|0,3:2|0:0,0:0:0:0:
371,104,102611,1,0,3:2:0:0:
257,186,102754,2,0,P|204:176|125:150,1,126,10|0,0:2|0:0,0:0:0:0:
99,141,103040,6,0,P|37:175|28:283,1,168,6|8,3:2|0:2,0:0:0:0:
149,364,103468,2,0,P|141:316|116:265,1,84,0|0,3:2|0:2,0:0:0:0:
127,283,103754,1,10,0:2:0:0:
239,353,103897,2,0,P|283:337|338:327,1,84,8|8,0:2|3:2,0:0:0:0:
434,212,104183,6,0,B|389:232|389:232|336:232|267:177,1,168,6|8,3:2|0:2,0:0:0:0:
192,150,104611,1,8,0:2:0:0:
192,150,104683,1,8,0:2:0:0:
192,150,104754,1,2,3:2:0:0:
305,84,104897,1,8,0:3:0:0:
196,0,105040,2,0,P|216:41|232:101,1,84,2|8,3:2|0:2,0:0:0:0:
165,175,105325,6,0,P|103:151|-6:136,1,159.59999573822,6|10,3:2|0:2,0:0:0:0:
71,280,105754,2,0,P|126:231|234:229,1,159.59999573822,0|0,3:2|3:2,0:0:0:0:
275,283,106183,2,0,P|257:323|248:378,1,79.7999978691102,10|0,0:2|3:2,0:0:0:0:
249,357,106397,1,0,3:0:0:0:
249,357,106468,5,4,3:2:0:0:
354,329,106611,2,0,P|396:350|438:359,1,79.7999978691102,0|10,0:0|0:2,0:0:0:0:
498,194,106897,2,0,P|447:241|350:225,1,159.59999573822,2|0,0:2|3:2,0:0:0:0:
299,157,107325,2,0,P|314:117|322:61,1,79.7999978691102,10|0,0:1|0:0,0:0:0:0:
247,13,107611,2,0,B|205:42|205:42|142:55|71:22,1,159.59999573822,6|8,3:2|3:2,0:0:0:0:
16,148,108040,2,0,P|57:131|107:117,1,79.7999978691102,2|0,3:2|0:0,0:0:0:0:
61,34,108325,1,0,3:2:0:0:
181,121,108468,2,0,P|163:165|154:218,1,79.7999978691102,10|0,0:2|0:0,0:0:0:0:
25,308,108754,6,0,B|66:267|135:272|135:272|193:309,1,159.59999573822,6|10,3:2|0:2,0:0:0:0:
240,354,109183,1,10,0:2:0:0:
240,354,109254,1,8,0:2:0:0:
240,354,109325,1,0,3:2:0:0:
311,290,109468,1,0,3:2:0:0:
251,227,109611,2,0,P|269:183|278:130,1,79.7999978691102,10|8,0:1|0:2,0:0:0:0:
227,62,109897,6,0,P|293:106|368:106,1,151.199995385742,6|2,3:2|3:2,0:0:0:0:
439,49,110325,1,2,3:2:0:0:
439,49,110397,1,0,3:0:0:0:
439,49,110468,2,0,P|456:92|462:153,1,75.5999976928712,10|2,0:2|3:2,0:0:0:0:
512,229,110754,2,0,P|477:217|378:196,1,113.399996539307,2|0,3:2|0:0,0:0:0:0:
364,207,111040,6,0,P|318:232|211:256,1,151.199995385742,2|2,3:2|3:2,0:0:0:0:
123,327,111468,2,0,P|78:273|119:185,1,151.199995385742,2|0,0:2|0:0,0:0:0:0:
182,134,111897,2,0,P|164:96|153:57,1,75.5999976928712,0|10,3:2|0:2,0:0:0:0:
237,5,112183,6,0,P|302:37|394:52,1,151.199995385742,2|2,3:2|3:2,0:0:0:0:
457,10,112611,1,0,3:2:0:0:
457,10,112683,1,0,3:0:0:0:
457,10,112754,2,0,P|475:48|486:87,1,75.5999976928712,10|0,0:2|0:0,0:0:0:0:
413,142,113040,1,2,3:2:0:0:
413,142,113183,1,8,0:2:0:0:
448,236,113325,6,0,P|421:198|303:193,1,151.199995385742,2|8,3:2|0:2,0:0:0:0:
261,249,113754,1,0,3:2:0:0:
261,249,113825,1,0,3:0:0:0:
261,249,113897,2,0,P|279:291|283:348,1,75.5999976928712,2|0,3:2|0:0,0:0:0:0:
186,356,114183,2,0,P|168:314|164:257,1,75.5999976928712,10|0,0:2|0:0,0:0:0:0:
142,195,114468,6,0,P|56:176|16:155,1,126,6|0,3:1|0:0,0:0:0:0:
1,137,114754,1,2,3:2:0:0:
91,23,114897,1,10,0:2:0:0:
91,23,115040,2,0,P|105:60|115:124,1,84,2|10,3:2|0:2,0:0:0:0:
158,174,115325,1,2,3:2:0:0:
158,174,115468,1,10,0:2:0:0:
227,104,115611,6,0,P|284:127|348:139,1,126,2|0,3:2|0:0,0:0:0:0:
383,156,115897,2,0,P|369:193|359:257,1,84,2|8,3:2|0:2,0:0:0:0:
390,364,116183,1,2,3:2:0:0:
456,273,116325,1,8,0:2:0:0:
326,303,116468,2,0,P|291:290|216:273,1,84,2|8,3:2|0:2,0:0:0:0:
245,278,116683,1,8,0:2:0:0:
245,278,116754,6,0,P|188:312|111:296,2,112,6|2|2,3:2|3:1|3:1,0:0:0:0:
347,138,117325,6,0,P|405:171|429:245,2,112,2|8|4,3:1|3:0|3:0,0:0:0:0:
168,110,117897,5,4,3:2:0:0:
168,110,118183,1,4,3:2:0:0:
168,110,118468,1,6,3:2:0:0:
88,37,118611,1,8,0:2:0:0:
88,37,118683,1,8,0:2:0:0:
88,37,118754,1,4,0:3:0:0:
195,6,118897,1,8,0:2:0:0:
65,128,119040,6,0,P|94:190|111:315,1,184.800005639649,6|8,3:1|0:2,0:0:0:0:
201,225,119468,1,2,3:2:0:0:
201,225,119540,1,0,3:0:0:0:
201,225,119611,2,0,P|243:243|315:257,1,92.4000028198243,0|0,3:2|0:2,0:0:0:0:
360,359,119897,2,0,P|369:313|391:263,1,92.4000028198243,10|2,0:2|3:2,0:0:0:0:
512,118,120183,6,0,P|455:178|343:169,1,184.800005639649,2|8,3:2|0:2,0:0:0:0:
270,50,120611,2,0,P|315:71|372:84,1,92.4000028198243,2|0,3:2|0:0,0:0:0:0:
375,7,120897,1,0,0:2:0:0:
255,137,121040,2,0,P|272:174|287:233,1,92.4000028198243,10|2,0:2|3:2,0:0:0:0:
201,308,121325,6,0,B|154:283|154:283|69:277|15:327,1,184.800005639649,2|10,3:2|0:2,0:0:0:0:
19,170,121754,1,2,3:2:0:0:
19,170,121825,1,0,3:0:0:0:
19,170,121897,2,0,P|62:186|125:201,1,92.4000028198243,2|2,3:2|0:2,0:0:0:0:
288,18,122183,2,0,P|238:11|159:72,1,138.600004229736,10|0,0:2|3:0,0:0:0:0:
149,91,122468,6,0,P|178:166|192:285,1,184.800005639649,2|8,3:2|0:2,0:0:0:0:
284,177,122897,1,0,3:2:0:0:
284,177,122968,1,0,3:0:0:0:
284,177,123040,1,2,3:2:0:0:
380,234,123183,1,0,3:2:0:0:
396,72,123325,2,0,P|376:109|359:168,1,92.4000028198243,10|0,0:2|3:2,0:0:0:0:
492,279,123611,6,0,P|421:272|349:324,1,138.600004229736,6|0,3:1|0:0,0:0:0:0:
337,331,123897,2,0,P|294:315|223:306,1,92.4000028198243,10|0,0:2|0:0,0:0:0:0:
185,190,124183,2,0,P|116:225|35:234,1,138.600004229736,2|0,3:2|0:0,0:0:0:0:
15,251,124468,2,0,P|-14:180|35:114,1,138.600004229736,10|0,0:2|0:0,0:0:0:0:
38,97,124754,6,0,B|88:131|88:131|157:126|213:87,1,184.800005639649,2|10,3:2|0:2,0:0:0:0:
315,14,125183,1,0,3:2:0:0:
315,14,125254,1,0,3:0:0:0:
315,14,125325,2,0,P|301:58|291:136,1,92.4000028198243,2|0,3:2|0:2,0:0:0:0:
390,171,125611,2,0,P|432:154|496:139,1,92.4000028198243,10|2,0:2|0:2,0:0:0:0:
475,315,125897,6,0,P|392:318|317:255,1,184.800005639649,2|8,3:2|0:2,0:0:0:0:
217,207,126325,1,0,3:2:0:0:
217,207,126397,1,0,3:0:0:0:
217,207,126468,2,0,P|168:227|113:244,1,92.4000028198243,2|0,3:2|0:2,0:0:0:0:
51,305,126754,1,8,0:2:0:0:
19,177,126897,1,2,3:2:0:0:
145,269,127040,6,0,P|128:311|115:372,1,92.4000028198243,2|2,3:2|0:2,0:0:0:0:
117,356,127325,1,10,0:2:0:0:
232,301,127468,2,0,P|294:329|437:355,1,184.800005639649,2|0,3:2|3:2,0:0:0:0:
439,195,127897,1,8,0:2:0:0:
491,309,128040,1,8,0:2:0:0:
359,244,128183,6,0,P|350:160|434:105,1,184.800005639649,6|8,3:1|0:2,0:0:0:0:
318,45,128611,1,0,3:2:0:0:
318,45,128683,1,0,3:0:0:0:
318,45,128754,2,0,P|272:66|199:86,1,92.4000028198243,2|0,3:2|0:2,0:0:0:0:
167,152,129040,1,10,0:2:0:0:
83,65,129183,1,2,3:2:0:0:
28,168,129325,5,2,3:2:0:0:
28,168,129468,2,0,P|45:210|57:279,1,92.4000028198243,2|8,0:2|0:2,0:0:0:0:
0,329,129754,2,0,P|54:338|182:389,1,184.800005639649,2|2,0:2|0:2,0:0:0:0:
258,324,130183,2,0,P|278:283|287:214,1,92.4000028198243,10|0,0:2|3:0,0:0:0:0:
231,133,130468,6,0,P|290:189|354:190,1,138.600004229736,2|0,3:1|0:0,0:0:0:0:
385,182,130754,2,0,P|434:163|497:150,1,92.4000028198243,10|0,0:1|0:2,0:0:0:0:
451,7,131040,2,0,P|371:39|237:61,1,184.800005639649,2|10,3:1|0:1,0:0:0:0:
161,7,131468,5,0,0:2:0:0:
161,7,131540,1,0,3:0:0:0:
161,7,131611,2,0,P|90:29|97:151,1,184.800005639649,2|8,3:2|0:2,0:0:0:0:
157,217,132040,1,0,3:2:0:0:
242,164,132183,2,0,P|289:182|358:196,1,92.4000028198243,2|2,3:2|3:2,0:0:0:0:
435,236,132468,1,10,0:2:0:0:
382,119,132611,1,2,3:2:0:0:
345,278,132754,6,0,P|243:268|186:337,1,184.800005639649,6|8,3:1|0:2,0:0:0:0:
104,365,133183,1,2,3:2:0:0:
104,365,133254,1,0,3:0:0:0:
104,365,133325,2,0,P|96:317|76:270,1,92.4000028198243,2|0,3:2|0:0,0:0:0:0:
5,188,133611,2,0,P|46:218|172:222,1,138.600004229736,10|0,0:2|3:0,0:0:0:0:
170,242,133897,6,0,P|226:217|366:187,1,184.800005639649,6|8,3:1|0:2,0:0:0:0:
453,95,134325,1,0,3:2:0:0:
453,95,134397,1,0,3:0:0:0:
453,95,134468,1,2,3:2:0:0:
308,42,134611,1,0,0:0:0:0:
345,188,134754,2,0,P|352:149|376:93,1,92.4000028198243,10|2,0:2|0:2,0:0:0:0:
474,318,135040,6,0,P|399:285|296:271,1,184.800005639649,6|0,3:1|3:2,0:0:0:0:
236,356,135468,1,0,0:2:0:0:
169,283,135611,2,0,P|178:229|203:175,1,92.4000028198243,0|0,3:2|0:2,0:0:0:0:
253,71,135897,1,10,3:2:0:0:
304,198,136040,1,2,0:2:0:0:
164,121,136183,6,0,P|123:143|20:166,1,138.600004229736,2|0,3:2|0:0,0:0:0:0:
0,184,136468,1,8,3:2:0:0:
115,238,136611,1,10,0:2:0:0:
115,238,136683,1,8,0:0:0:0:
115,238,136754,1,8,3:2:0:0:
9,308,136897,1,10,0:2:0:0:
102,368,137040,2,0,P|148:346|219:327,1,92.4000028198243,8|4,3:0|3:0,0:0:0:0:
187,333,137254,1,0,3:0:0:0:
187,333,137325,6,0,P|232:371|350:365,1,159.59999573822,6|0,3:2|3:2,0:0:0:0:
463,222,137897,2,0,P|442:151|417:48,1,159.59999573822,10|0,0:2|3:2,0:0:0:0:
303,208,138468,2,0,P|219:185|123:178,1,159.59999573822,2|0,3:2|3:2,0:0:0:0:
275,76,139040,1,10,0:2:0:0:
362,276,139325,1,0,3:2:0:0:
56,215,139611,6,0,P|41:131|113:70,1,159.59999573822,2|0,3:1|3:2,0:0:0:0:
208,39,140183,2,0,B|251:52|251:52|304:54|397:13,1,159.59999573822,10|0,0:2|3:2,0:0:0:0:
457,132,140754,2,0,P|435:199|425:317,1,159.59999573822,2|0,3:2|3:2,0:0:0:0:
458,375,141183,1,8,0:2:0:0:
458,375,141254,1,8,0:2:0:0:
458,375,141325,2,0,P|407:357|366:350,1,79.7999978691102,2|8,3:2|0:2,0:0:0:0:
322,288,141611,1,8,0:3:0:0:
412,250,141754,1,4,0:3:0:0:
284,376,141897,6,0,P|238:335|138:339,1,151.199995385742,0|2,3:1|0:2,0:0:0:0:
74,376,142325,1,0,3:2:0:0:
74,376,142397,1,0,3:0:0:0:
74,376,142468,2,0,P|66:326|46:269,1,75.5999976928712,10|2,0:2|0:2,0:0:0:0:
5,222,142754,1,2,0:2:0:0:
5,222,142897,1,2,0:2:0:0:
87,174,143040,2,0,P|131:195|216:219,1,113.399996539307,2|0,3:2|0:2,0:0:0:0:
234,231,143325,2,0,P|245:187|266:142,1,75.5999976928712,2|0,0:2|0:0,0:0:0:0:
343,84,143611,2,0,P|406:140|496:129,1,151.199995385742,10|0,0:2|0:2,0:0:0:0:
506,304,144183,6,0,P|469:310|416:329,1,75.5999976928712,2|2,3:2|0:2,0:0:0:0:
367,369,144468,1,2,0:2:0:0:
367,369,144611,1,2,0:2:0:0:
312,300,144754,2,0,P|327:257|342:202,1,75.5999976928712,10|2,0:2|0:2,0:0:0:0:
382,158,145040,1,2,0:2:0:0:
382,158,145183,1,2,0:2:0:0:
296,147,145325,2,0,P|245:165|179:178,1,113.399996539307,2|0,3:2|0:0,0:0:0:0:
153,201,145611,2,0,P|163:237|176:272,1,75.5999976928712,2|0,0:2|0:2,0:0:0:0:
114,355,145897,2,0,P|57:358|-3:282,1,151.199995385742,10|0,0:2|0:2,0:0:0:0:
6,103,146468,6,0,P|45:120|106:133,1,75.5999976928712,6|2,3:2|0:2,0:0:0:0:
142,196,146754,1,0,0:0:0:0:
142,196,146897,1,2,0:2:0:0:
190,123,147040,2,0,P|179:78|175:36,1,75.5999976928712,10|2,0:2|0:2,0:0:0:0:
252,12,147325,1,2,0:2:0:0:
252,12,147468,1,2,0:2:0:0:
312,80,147611,2,0,P|379:63|454:53,1,113.399996539307,2|0,3:2|0:0,0:0:0:0:
461,67,147897,2,0,P|473:104|477:157,1,75.5999976928712,2|0,0:2|0:2,0:0:0:0:
512,275,148183,2,0,P|475:241|367:243,1,151.199995385742,10|10,0:2|0:2,0:0:0:0:
288,384,148754,6,0,P|288:324|263:218,1,151.199995385742,2|2,3:2|0:2,0:0:0:0:
192,183,149183,1,0,0:0:0:0:
192,183,149325,2,0,P|151:200|104:213,1,75.5999976928712,10|0,0:2|0:0,0:0:0:0:
98,318,149611,2,0,P|139:301|186:288,1,75.5999976928712,2|0,0:2|3:0,0:0:0:0:
28,227,149897,6,0,P|13:152|89:106,1,151.199995385742,2|2,3:2|0:2,0:0:0:0:
150,46,150325,1,0,3:0:0:0:
150,46,150397,1,0,3:0:0:0:
150,46,150468,2,0,P|164:89|169:147,1,75.5999976928712,10|8,0:2|0:2,0:0:0:0:
316,86,150754,1,10,0:2:0:0:
236,47,150897,1,8,0:2:0:0:
255,165,151040,6,0,P|322:137|429:124,1,151.199995385742,6|0,3:2|0:0,0:0:0:0:
472,81,151468,1,2,0:2:0:0:
472,81,151611,2,0,P|489:119|491:189,1,113.399996539307,10|0,0:2|0:0,0:0:0:0:
470,213,151897,2,0,P|430:222|388:238,1,75.5999976928712,2|2,0:2|0:2,0:0:0:0:
311,384,152183,2,0,P|275:315|296:261,1,113.399996539307,2|0,3:2|0:0,0:0:0:0:
272,252,152468,2,0,P|236:264|199:272,1,75.5999976928712,2|0,0:2|0:2,0:0:0:0:
143,358,152754,2,0,P|88:330|-24:314,1,151.199995385742,10|0,0:2|0:2,0:0:0:0:
0,138,153325,6,0,P|57:154|134:103,1,151.199995385742,2|2,3:2|0:2,0:0:0:0:
179,32,153754,1,0,0:0:0:0:
233,98,153897,2,0,P|214:139|199:188,1,75.5999976928712,10|0,0:2|0:0,0:0:0:0:
264,237,154183,2,0,P|317:215|400:198,1,113.399996539307,2|0,0:2|0:0,0:0:0:0:
371,201,154468,6,0,P|441:238|532:261,1,151.199995385742,2|0,3:2|0:2,0:0:0:0:
403,311,154897,1,0,3:0:0:0:
403,311,154968,1,0,3:0:0:0:
403,311,155040,2,0,P|414:344|425:400,1,75.5999976928712,10|0,0:2|0:0,0:0:0:0:
507,333,155325,1,10,0:2:0:0:
507,333,155468,1,8,0:2:0:0:
316,315,155611,6,0,B|282:353|282:353|226:369|159:355,1,168,6|8,3:2|0:2,0:0:0:0:
67,275,156040,1,0,3:2:0:0:
67,275,156111,1,0,3:0:0:0:
67,275,156183,2,0,P|109:263|167:239,1,84,2|0,3:2|0:0,0:0:0:0:
225,154,156468,2,0,P|183:142|125:118,1,84,8|2,0:2|0:2,0:0:0:0:
226,285,156754,6,0,P|262:244|392:258,1,168,2|8,3:2|0:2,0:0:0:0:
440,319,157183,1,0,3:2:0:0:
440,319,157254,1,0,3:0:0:0:
440,319,157325,1,2,3:2:0:0:
499,249,157468,1,0,3:2:0:0:
438,184,157611,2,0,P|454:141|466:79,1,84,8|0,0:2|0:2,0:0:0:0:
393,31,157897,6,0,B|354:59|354:59|290:74|209:41,1,168,2|8,3:2|0:2,0:0:0:0:
166,177,158325,1,0,3:2:0:0:
166,177,158397,1,0,3:0:0:0:
166,177,158468,2,0,P|209:158|271:147,1,84,2|0,0:2|3:2,0:0:0:0:
148,19,158754,2,0,P|99:60|13:61,1,126,10|0,0:2|0:0,0:0:0:0:
5,86,159040,6,0,P|37:152|54:269,1,168,4|10,3:2|0:2,0:0:0:0:
44,348,159468,1,10,0:2:0:0:
126,292,159611,2,0,P|170:310|231:327,1,84,6|10,3:2|0:2,0:0:0:0:
296,384,159897,2,0,P|335:337|330:271,1,126,10|0,0:2|3:0,0:0:0:0:
294,246,160183,6,0,P|311:168|345:85,1,138.600004229736,6|0,3:1|0:0,0:0:0:0:
347,81,160468,1,10,0:2:0:0:
236,134,160611,2,0,P|192:87|66:100,1,184.800005639649,2|2,3:2|3:2,0:0:0:0:
20,224,161040,2,0,P|69:207|127:196,1,92.4000028198243,10|0,0:2|0:0,0:0:0:0:
108,198,161254,1,0,3:0:0:0:
108,198,161325,5,2,3:2:0:0:
204,276,161468,2,0,P|185:319|169:370,1,92.4000028198243,2|10,3:2|0:2,0:0:0:0:
316,284,161754,2,0,B|359:310|359:310|423:312|498:271,1,184.800005639649,2|2,3:2|3:2,0:0:0:0:
512,164,162183,2,0,P|475:157|393:130,1,92.4000028198243,10|0,0:2|0:0,0:0:0:0:
296,43,162468,6,0,P|313:87|327:155,1,92.4000028198243,2|2,3:2|3:2,0:0:0:0:
396,57,162754,1,10,0:2:0:0:
396,57,162897,1,2,3:2:0:0:
243,121,163040,2,0,P|193:105|137:95,1,92.4000028198243,2|2,0:2|3:2,0:0:0:0:
90,0,163325,1,10,0:2:0:0:
212,35,163468,1,2,3:2:0:0:
49,89,163611,6,0,P|84:155|105:279,1,184.800005639649,2|10,3:2|0:2,0:0:0:0:
47,357,164040,2,0,P|94:314|182:312,1,138.600004229736,2|0,3:2|0:0,0:0:0:0:
191,328,164325,1,0,3:2:0:0:
284,369,164468,2,0,P|331:353|404:343,1,92.4000028198243,10|2,0:2|0:2,0:0:0:0:
492,243,164754,6,0,B|447:263|447:263|369:257|330:204,1,184.800005639649,6|8,3:2|0:2,0:0:0:0:
397,68,165183,2,0,P|412:109|421:183,1,92.4000028198243,2|0,3:2|0:0,0:0:0:0:
457,16,165468,1,2,3:2:0:0:
310,78,165611,1,10,0:2:0:0:
310,78,165897,6,0,P|249:52|127:34,1,184.800005639649,2|10,3:2|0:2,0:0:0:0:
34,200,166325,2,0,P|80:151|200:168,1,184.800005639649,2|0,3:2|3:2,0:0:0:0:
242,247,166754,2,0,P|223:293|214:344,1,92.4000028198243,10|0,0:2|0:2,0:0:0:0:
365,384,167040,6,0,P|392:306|398:187,1,184.800005639649,2|8,3:2|0:0,0:0:0:0:
486,105,167468,2,0,P|440:121|377:133,1,92.4000028198243,0|0,3:0|0:0,0:0:0:0:
219,81,167754,1,0,3:0:0:0:
293,7,167897,2,0,P|310:43|320:110,1,92.4000028198243,10|0,0:2|3:0,0:0:0:0:
225,185,168183,6,0,P|153:158|14:143,1,184.800005639649,6|10,3:2|0:2,0:0:0:0:
0,298,168611,2,0,B|39:261|104:265|104:265|130:296|192:315,1,184.800005639649,2|0,3:2|0:2,0:0:0:0:
253,378,169040,2,0,P|258:341|291:271,1,92.4000028198243,10|8,0:2|0:2,0:0:0:0:
351,226,169325,6,0,P|393:261|485:260,1,126,6|0,3:2|0:0,0:0:0:0:
491,262,169611,2,0,P|509:219|512:180,1,84,2|2,3:2|3:2,0:0:0:0:
456,99,169897,1,10,0:2:0:0:
456,99,170040,1,2,0:2:0:0:
376,142,170183,2,0,P|314:119|239:104,1,126,2|8,3:2|0:2,0:0:0:0:
222,89,170468,6,0,P|182:105|114:121,1,84,2|10,3:2|0:2,0:0:0:0:
65,70,170754,1,2,3:2:0:0:
65,70,170897,1,0,0:0:0:0:
32,150,171040,2,0,P|49:193|57:254,1,84,10|2,0:2|0:2,0:0:0:0:
87,352,171325,1,2,3:2:0:0:
7,291,171468,1,10,0:2:0:0:
125,274,171611,6,0,P|186:306|274:329,1,126,2|0,3:2|0:0,0:0:0:0:
274,335,171897,2,0,P|312:320|363:308,1,84,2|2,3:2|0:2,0:0:0:0:
484,217,172183,2,0,P|412:226|336:166,1,168,10|2,0:2|3:2,0:0:0:0:
361,71,172611,1,10,0:2:0:0:
265,124,172754,2,0,P|225:109|175:100,1,84,2|10,3:2|0:2,0:0:0:0:
184,100,172968,1,8,0:2:0:0:
184,100,173040,1,2,3:2:0:0:
112,35,173183,1,0,0:0:0:0:
63,107,173325,2,0,P|80:150|94:211,1,84,10|2,0:2|0:2,0:0:0:0:
29,258,173611,1,2,3:2:0:0:
29,258,173754,1,2,3:2:0:0:
110,322,173897,6,0,P|199:291|296:280,1,184.800005639649,6|2,3:2|3:2,0:0:0:0:
378,353,174325,1,10,0:2:0:0:
378,353,174397,1,0,3:0:0:0:
378,353,174468,1,2,3:2:0:0:
452,285,174611,1,10,0:2:0:0:
377,207,174754,2,0,P|387:162|409:110,1,92.4000028198243,2|10,3:2|0:2,0:0:0:0:
466,29,175040,6,0,P|389:76|279:56,1,184.800005639649,2|2,3:2|3:2,0:0:0:0:
157,20,175468,1,10,0:2:0:0:
157,20,175540,1,0,3:0:0:0:
157,20,175611,1,2,3:2:0:0:
215,165,175754,1,10,0:2:0:0:
123,102,175897,2,0,P|80:120|19:138,1,92.4000028198243,2|10,3:2|0:2,0:0:0:0:
0,247,176183,6,0,B|34:281|34:281|70:305|172:300,1,184.800005639649,6|2,3:2|3:2,0:0:0:0:
261,372,176611,1,10,0:2:0:0:
391,254,176754,1,2,3:2:0:0:
215,165,176897,1,10,0:2:0:0:
283,270,177040,1,2,3:2:0:0:
283,270,177183,1,10,0:2:0:0:
382,173,177325,5,6,3:1:0:0:
382,173,177611,1,6,3:1:0:0:
382,173,177897,1,6,3:1:0:0:
382,173,178468,6,0,P|397:71|298:21,1,184.800005639649,6|10,3:1|0:2,0:0:0:0:
226,123,178897,1,2,3:2:0:0:
226,123,178968,1,0,3:0:0:0:
226,123,179040,2,0,P|173:112|105:84,1,92.4000028198243,0|0,3:2|0:2,0:0:0:0:
87,181,179325,1,10,0:2:0:0:
25,94,179468,1,2,0:2:0:0:
7,273,179611,6,0,P|81:221|197:233,1,184.800005639649,2|10,3:2|0:2,0:0:0:0:
265,287,180040,2,0,P|251:323|243:384,1,92.4000028198243,2|0,0:2|3:2,0:0:0:0:
364,268,180325,1,0,0:2:0:0:
259,191,180468,2,0,P|210:212|144:226,1,92.4000028198243,10|0,0:2|0:0,0:0:0:0:
211,51,180754,6,0,B|247:83|247:83|301:107|398:91,1,184.800005639649,2|10,3:2|0:2,0:0:0:0:
484,47,181183,2,0,P|464:93|452:154,1,92.4000028198243,2|2,0:2|3:2,0:0:0:0:
427,301,181468,1,2,0:2:0:0:
512,256,181611,2,0,P|467:218|374:228,1,138.600004229736,10|0,0:2|3:0,0:0:0:0:
355,237,181897,6,0,P|296:261|169:281,1,184.800005639649,2|8,3:2|0:2,0:0:0:0:
86,343,182325,1,0,3:2:0:0:
86,343,182397,1,0,3:2:0:0:
86,343,182468,1,2,3:2:0:0:
28,253,182611,1,0,3:2:0:0:
113,192,182754,2,0,P|98:153|86:94,1,92.4000028198243,10|0,0:2|0:2,0:0:0:0:
198,16,183040,6,0,P|245:57|335:60,1,138.600004229736,6|0,3:1|0:0,0:0:0:0:
353,61,183325,2,0,P|395:44|452:32,1,92.4000028198243,10|0,0:2|0:2,0:0:0:0:
484,223,183611,2,0,P|418:197|341:190,1,138.600004229736,2|0,3:2|0:0,0:0:0:0:
317,193,183897,2,0,P|333:240|340:298,1,92.4000028198243,10|0,0:2|0:2,0:0:0:0:
250,373,184183,6,0,P|203:326|86:341,1,184.800005639649,2|10,3:2|0:2,0:0:0:0:
12,229,184611,1,0,3:0:0:0:
12,229,184683,1,0,3:0:0:0:
12,229,184754,2,0,P|57:219|114:193,1,92.4000028198243,2|0,3:2|0:2,0:0:0:0:
140,43,185040,2,0,P|160:81|173:141,1,92.4000028198243,10|0,0:2|0:0,0:0:0:0:
237,231,185325,6,0,B|286:217|286:217|348:219|426:299,1,184.800005639649,2|10,3:2|0:2,0:0:0:0:
491,146,185754,1,0,3:2:0:0:
491,146,185825,1,0,3:0:0:0:
491,146,185897,2,0,P|437:162|375:172,1,92.4000028198243,2|0,3:2|0:2,0:0:0:0:
297,99,186183,1,10,0:2:0:0:
397,31,186325,1,2,0:2:0:0:
315,191,186468,6,0,P|261:130|155:147,1,184.800005639649,2|10,3:2|0:0,0:0:0:0:
114,228,186897,1,2,3:2:0:0:
114,228,186968,1,0,3:0:0:0:
114,228,187040,2,0,P|132:271|144:343,1,92.4000028198243,0|0,3:0|0:0,0:0:0:0:
23,384,187325,1,8,0:0:0:0:
36,280,187468,1,8,0:0:0:0:
168,382,187611,6,0,P|244:366|361:324,1,184.800005639649,4|8,3:1|0:2,0:0:0:0:
453,347,188040,2,0,P|489:279|437:195,1,184.800005639649,2|0,3:2|0:2,0:0:0:0:
349,236,188468,1,10,0:2:0:0:
283,165,188611,1,2,0:2:0:0:
346,60,188754,6,0,P|365:102|373:161,1,92.4000028198243,2|2,3:2|0:2,0:0:0:0:
441,67,189040,1,8,0:2:0:0:
279,140,189183,2,0,P|220:118|86:98,1,184.800005639649,2|2,0:2|0:2,0:0:0:0:
41,180,189611,1,10,0:2:0:0:
41,180,189897,6,0,P|61:229|76:357,1,138.600004229736,2|0,3:1|0:0,0:0:0:0:
71,352,190183,2,0,P|125:334|180:326,1,92.4000028198243,10|0,0:1|0:0,0:0:0:0:
255,239,190468,2,0,P|316:293|421:284,1,184.800005639649,2|10,3:1|0:1,0:0:0:0:
492,207,190897,5,0,3:2:0:0:
492,207,190968,1,0,3:0:0:0:
492,207,191040,2,0,P|487:142|454:20,1,184.800005639649,2|8,3:2|0:2,0:0:0:0:
383,125,191468,1,0,3:2:0:0:
310,62,191611,2,0,P|260:81|211:94,1,92.4000028198243,2|0,3:2|0:0,0:0:0:0:
88,145,191897,1,10,0:2:0:0:
149,42,192040,1,2,0:2:0:0:
198,194,192183,6,0,B|243:161|300:165|300:165|336:202|395:211,1,184.800005639649,6|8,3:1|0:0,0:0:0:0:
477,155,192611,1,0,3:2:0:0:
477,155,192683,1,0,3:0:0:0:
477,155,192754,2,0,P|462:204|457:273,1,92.4000028198243,2|0,3:2|0:0,0:0:0:0:
512,356,193040,2,0,P|461:319|365:324,1,138.600004229736,10|0,0:2|0:0,0:0:0:0:
357,331,193325,6,0,P|300:354|163:381,1,184.800005639649,6|8,3:1|0:2,0:0:0:0:
107,316,193754,1,0,3:2:0:0:
107,316,193825,1,0,3:0:0:0:
107,316,193897,1,2,3:2:0:0:
217,257,194040,1,2,3:2:0:0:
115,147,194183,2,0,P|132:197|143:258,1,92.4000028198243,10|0,0:2|3:2,0:0:0:0:
44,32,194468,6,0,P|107:92|214:79,1,184.800005639649,6|8,3:1|0:2,0:0:0:0:
297,34,194897,1,0,0:2:0:0:
297,34,194968,1,0,3:0:0:0:
297,34,195040,2,0,P|341:56|412:74,1,92.4000028198243,0|0,3:2|0:2,0:0:0:0:
505,126,195325,1,10,0:2:0:0:
456,12,195468,1,0,0:2:0:0:
373,150,195611,6,0,P|396:222|413:337,1,184.800005639649,2|8,3:2|0:2,0:0:0:0:
305,377,196040,1,10,0:2:0:0:
305,377,196112,1,8,3:0:0:0:
305,377,196183,1,8,0:2:0:0:
311,248,196325,1,10,0:2:0:0:
417,334,196468,1,8,3:3:0:0:
417,334,196611,1,4,3:3:0:0:
238,311,196754,6,0,P|150:280|85:276,1,126,6|0,3:1|0:0,0:0:0:0:
78,294,197040,2,0,P|66:240|45:187,1,84,8|0,0:2|0:2,0:0:0:0:
0,111,197325,2,0,P|47:156|179:154,1,168,2|10,3:2|0:2,0:0:0:0:
207,93,197754,2,0,P|250:82|306:62,1,84,2|0,0:2|0:0,0:0:0:0:
349,13,198040,1,2,0:2:0:0:
349,13,198183,1,8,0:2:0:0:
413,81,198325,2,0,P|388:142|375:256,1,168,2|0,0:2|0:2,0:0:0:0:
434,303,198754,2,0,P|468:287|518:274,1,84,10|0,0:2|0:0,0:0:0:0:
361,370,199040,6,0,P|293:316|231:322,1,126,2|0,3:2|0:0,0:0:0:0:
225,337,199325,2,0,P|191:353|141:366,1,84,10|2,0:2|0:2,0:0:0:0:
57,314,199611,2,0,P|65:236|93:140,1,168,2|10,3:2|0:2,0:0:0:0:
6,28,200040,2,0,P|40:44|90:57,1,84,2|0,3:2|3:0,0:0:0:0:
180,127,200325,2,0,P|231:101|331:87,1,126,2|0,3:2|0:0,0:0:0:0:
332,61,200611,2,0,P|393:91|390:212,1,168,2|2,3:2|0:2,0:0:0:0:
337,258,201040,2,0,P|353:296|368:366,1,84,10|0,0:2|3:0,0:0:0:0:
261,378,201325,6,0,B|224:347|171:338|171:338|135:360|83:364,1,168,4|10,3:2|0:2,0:0:0:0:
12,237,201754,1,0,0:0:0:0:
12,237,201825,1,0,3:0:0:0:
12,237,201897,2,0,P|55:255|115:269,1,84,2|2,3:2|3:2,0:0:0:0:
223,121,202183,1,10,0:2:0:0:
258,208,202325,6,0,P|174:163|115:179,1,126,2|0,0:2|0:0,0:0:0:0:
120,186,202611,2,0,P|110:120|100:95,1,84,2|8,0:2|0:2,0:0:0:0:
52,0,202897,2,0,P|107:26|235:45,1,168,2|0,0:2|0:2,0:0:0:0:
304,0,203325,2,0,P|314:66|324:91,1,84,10|0,0:2|3:2,0:0:0:0:
364,179,203611,6,0,B|411:148|411:148|471:146|535:196,1,168,2|8,3:2|0:2,0:0:0:0:
483,291,204040,1,0,3:2:0:0:
483,291,204111,1,0,3:0:0:0:
483,291,204183,2,0,P|436:299|376:319,1,84,2|0,3:2|0:0,0:0:0:0:
281,384,204468,2,0,P|257:327|285:252,1,126,8|0,0:2|0:0,0:0:0:0:
309,252,204754,6,0,P|298:203|280:153,1,84,0|2,3:2|0:2,0:0:0:0:
303,70,205040,2,0,P|263:89|202:109,1,84,8|0,0:2|0:0,0:0:0:0:
114,66,205325,1,2,3:2:0:0:
201,6,205468,1,0,3:2:0:0:
168,149,205611,2,0,P|126:136|42:119,1,126,10|0,0:2|3:0,0:0:0:0:
13,134,205897,6,0,P|-10:191|46:299,1,168,6|8,3:1|0:2,0:0:0:0:
117,328,206325,1,0,3:2:0:0:
117,328,206397,1,0,3:0:0:0:
117,328,206468,2,0,P|157:309|223:301,1,84,2|2,3:2|3:2,0:0:0:0:
330,207,206754,1,10,0:2:0:0:
372,285,206897,6,0,P|301:289|245:223,1,126,2|0,0:2|0:0,0:0:0:0:
240,227,207183,2,0,P|258:183|270:127,1,84,2|10,0:2|0:2,0:0:0:0:
150,50,207468,2,0,B|200:77|200:77|255:81|325:35,1,168,2|0,3:2|0:2,0:0:0:0:
412,12,207897,2,0,P|454:33|504:51,1,84,10|0,0:2|0:0,0:0:0:0:
512,159,208183,6,0,P|449:147|367:227,1,168,2|8,3:2|0:2,0:0:0:0:
318,292,208611,1,0,3:2:0:0:
318,292,208683,1,0,3:0:0:0:
318,292,208754,2,0,P|336:337|341:387,1,84,2|0,3:2|0:0,0:0:0:0:
405,292,209040,1,10,0:2:0:0:
257,341,209183,6,0,P|182:313|105:302,1,126,2|0,0:2|0:0,0:0:0:0:
95,315,209468,2,0,P|101:273|118:235,1,84,2|10,0:2|0:2,0:0:0:0:
32,102,209754,2,0,P|79:148|198:145,1,168,2|0,0:2|0:2,0:0:0:0:
240,73,210183,2,0,P|281:91|341:105,1,84,10|2,0:2|3:2,0:0:0:0:
450,31,210468,6,0,P|486:76|468:190,1,168,6|8,3:2|0:2,0:0:0:0:
405,249,210897,1,0,3:2:0:0:
405,249,210968,1,0,3:0:0:0:
405,249,211040,2,0,P|418:291|426:355,1,84,2|2,3:2|3:2,0:0:0:0:
494,265,211325,1,10,0:2:0:0:
327,337,211468,6,0,P|272:316|182:302,1,126,2|0,0:2|0:0,0:0:0:0:
169,324,211754,2,0,P|129:338|74:350,1,84,2|10,0:2|0:2,0:0:0:0:
0,281,212040,1,2,3:2:0:0:
117,184,212183,2,0,P|101:224|94:276,1,84,0|0,3:0|3:2,0:0:0:0:
211,151,212468,1,10,0:2:0:0:
79,98,212611,1,10,0:2:0:0:
172,259,212754,6,0,P|253:234|363:225,1,168,6|0,3:2|0:0,0:0:0:0:
494,87,213897,2,0,P|411:94|345:18,1,168,6|8,3:2|0:2,0:0:0:0:
285,176,214325,1,8,0:2:0:0:
234,46,214468,1,8,0:2:0:0:
359,121,214611,1,8,0:2:0:0:
196,200,214754,1,4,3:0:0:0:
340,287,215040,5,6,3:1:0:0:
