osu file format v14

[General]
AudioFilename: audio.mp3
AudioLeadIn: 0
PreviewTime: 44421
Countdown: 0
SampleSet: Soft
StackLeniency: 0.7
Mode: 0
LetterboxInBreaks: 0
WidescreenStoryboard: 0

[Editor]
DistanceSpacing: 0.9
BeatDivisor: 6
GridSize: 32
TimelineZoom: 1.6

[Metadata]
Title:Yomei Mikka Shoujo
TitleUnicode:余命3日少女
Artist:Mi Bai
ArtistUnicode:米白
Creator:Mordred
Version:Normal
Source:
Tags:プロペリン 万玄斎 神谷志龍 japanese pop
BeatmapID:2490721
BeatmapSetID:1192177

[Difficulty]
HPDrainRate:4
CircleSize:3
OverallDifficulty:4
ApproachRate:6
SliderMultiplier:3
SliderTickRate:3

[Events]
//Background and Video events
0,0,"79939781_p0_master1200.jpg",0,0
Video,-180,"blobsadcloud.mp4"
//Break Periods
2,83974,98082
//Storyboard Layer 0 (Background)
//Storyboard Layer 1 (Fail)
//Storyboard Layer 2 (Pass)
//Storyboard Layer 3 (Foreground)
//Storyboard Layer 4 (Overlay)
//Storyboard Sound Samples

[TimingPoints]
606,947.36842105313,2,2,1,60,1,0
15763,-100,3,2,1,60,0,0
44420,-100,3,2,1,5,0,0
44499,-100,3,2,1,70,0,0
44736,-100,3,2,1,5,0,0
44815,-100,3,2,1,70,0,0
45052,-100,3,2,1,5,0,0
45131,-100,3,2,1,70,0,0
45368,-100,3,2,1,5,0,0
45447,-100,3,2,1,70,0,0
45684,-100,3,2,1,5,0,0
45763,-100,3,2,1,70,0,0
46079,-100,3,2,1,70,0,1
76395,-100,3,2,1,70,0,0
77341,-100,3,2,1,50,0,0
83973,-100,3,2,1,60,0,0
99131,-100,3,2,1,60,0,0
127789,-100,3,2,1,5,0,0
127868,-100,3,2,1,50,0,0
128105,-100,3,2,1,5,0,0
128184,-100,3,2,1,55,0,0
128420,-100,3,2,1,5,0,0
128499,-100,3,2,1,60,0,0
128736,-100,3,2,1,5,0,0
128815,-100,3,2,1,66,0,0
129052,-100,3,2,1,5,0,0
129131,-100,3,2,1,66,0,0
129448,-100,3,2,1,70,0,1
159763,-100,3,2,1,70,0,0
174921,-100,3,2,1,70,0,1
189684,-100,3,2,1,5,0,1
189763,-100,3,2,1,70,0,1
189999,-100,3,2,1,5,0,1
190079,-100,3,2,1,50,0,0
192289,947.36842105313,2,2,1,50,1,0
207446,-125,3,2,1,60,0,0
215974,1028.57142857202,2,2,1,60,1,0
215974,-125,2,2,1,60,0,0
216659,1090.90909090909,2,2,1,50,1,0
217022,857.142857142857,2,2,1,50,1,0
217022,-125,2,2,1,50,0,0
217593,1058.82352941189,2,2,1,50,1,0
217945,947.36842105313,2,2,1,50,1,0
217945,-100,2,2,1,50,0,0
218576,1285.71428571337,2,2,1,50,1,0
219004,1551.7241379297,2,2,1,50,1,0

[Colours]
Combo1 : 250,180,240
Combo2 : 110,190,225
Combo3 : 255,230,130
Combo4 : 150,230,140

[HitObjects]
17,279,15763,5,6,1:1:0:0:
17,279,15921,2,0,L|1:176,1,100,0|0,1:2|1:2,0:0:0:0:
21,133,16395,1,0,1:2:0:0:
117,157,16711,1,10,0:2:0:0:
172,73,17027,1,0,0:2:0:0:
266,105,17342,1,0,0:2:0:0:
354,60,17658,6,0,P|404:62|447:86,1,100,2|0,0:2|0:2,0:0:0:0:
465,139,18132,1,0,1:2:0:0:
465,139,18290,1,0,1:2:0:0:
439,235,18606,2,0,P|459:280|491:318,2,100,10|0|0,0:2|0:2|1:2,0:0:0:0:
343,234,19553,5,2,1:2:0:0:
343,234,19711,2,0,L|243:220,1,100,0|0,1:2|1:0,0:0:0:0:
202,191,20184,1,0,1:0:0:0:
257,106,20500,1,10,0:2:0:0:
193,27,20816,1,0,0:0:0:0:
99,64,21132,1,0,0:0:0:0:
105,166,21448,6,0,L|70:288,1,100,2|0,0:2|0:2,0:0:0:0:
105,310,21921,1,0,1:2:0:0:
105,310,22079,1,0,1:2:0:0:
204,322,22395,2,0,P|235:360|279:384,2,100,8|0|0,0:2|0:2|1:2,0:0:0:0:
238,230,23342,5,2,1:2:0:0:
238,230,23500,2,0,L|336:245,1,100,0|0,1:2|1:2,0:0:0:0:
355,292,23974,1,0,1:2:0:0:
453,307,24290,1,10,0:2:0:0:
504,221,24606,1,0,0:0:0:0:
443,141,24921,1,0,0:0:0:0:
471,44,25237,6,0,P|425:25|376:16,1,100,2|0,0:2|0:2,0:0:0:0:
330,35,25711,1,0,1:2:0:0:
330,35,25869,1,0,1:2:0:0:
271,115,26184,2,0,L|167:129,2,100,8|0|0,0:2|0:2|1:2,0:0:0:0:
361,169,27132,5,2,1:2:0:0:
361,169,27290,2,0,P|381:214|393:263,1,100,0|0,1:2|1:2,0:0:0:0:
380,311,27763,1,0,1:2:0:0:
288,352,28079,2,0,P|240:342|190:338,1,100,10|0,0:2|0:2,0:0:0:0:
97,377,28711,1,0,1:2:0:0:
21,311,29027,5,2,1:2:0:0:
21,311,29184,2,0,L|7:211,1,100,0|0,1:2|1:2,0:0:0:0:
24,164,29658,1,0,1:2:0:0:
92,91,29974,1,8,0:2:0:0:
183,134,30290,1,8,0:3:0:0:
170,233,30606,1,4,0:3:0:0:
265,280,30921,5,6,1:1:0:0:
265,280,31079,2,0,L|367:290,1,100,0|0,1:2|1:0,0:0:0:0:
402,322,31553,1,0,1:0:0:0:
494,284,31869,2,0,L|506:398,2,100,10|0|0,0:2|0:2|0:2,0:0:0:0:
425,211,32816,6,0,L|435:111,1,100,2|0,0:2|0:0,0:0:0:0:
467,72,33290,1,0,1:0:0:0:
467,72,33448,1,0,1:0:0:0:
385,14,33763,1,10,0:2:0:0:
312,82,34079,1,0,0:2:0:0:
227,28,34395,1,0,1:2:0:0:
164,106,34711,5,2,1:2:0:0:
164,106,34869,2,0,L|175:205,1,100,0|0,1:2|1:0,0:0:0:0:
208,242,35342,1,0,1:0:0:0:
293,192,35658,2,0,P|343:197|387:220,1,100,10|0,0:2|0:2,0:0:0:0:
423,314,36290,1,0,0:2:0:0:
346,378,36606,6,0,L|246:364,1,100,2|0,0:2|0:2,0:0:0:0:
202,382,37079,1,0,1:2:0:0:
202,382,37237,1,0,1:2:0:0:
107,348,37553,2,0,L|84:251,1,100,8|0,0:2|0:2,0:0:0:0:
10,182,38184,1,0,1:2:0:0:
40,86,38500,5,2,1:2:0:0:
40,86,38658,2,0,L|147:67,1,100,0|0,1:2|1:2,0:0:0:0:
182,44,39132,1,0,1:2:0:0:
243,122,39448,2,0,L|234:221,1,100,10|0,0:2|0:2,0:0:0:0:
172,300,40079,1,0,1:2:0:0:
245,367,40395,5,2,1:2:0:0:
244,366,40553,2,0,P|294:375|344:372,1,100,0|0,1:2|1:2,0:0:0:0:
388,347,41027,1,0,1:2:0:0:
331,265,41342,1,10,0:2:0:0:
389,183,41658,1,0,0:2:0:0:
343,93,41974,1,0,1:2:0:0:
401,11,42290,1,2,0:2:0:0:
64,320,44184,5,4,1:2:0:0:
25,227,44500,1,2,1:2:0:0:
102,162,44816,1,2,1:2:0:0:
188,216,45132,1,10,0:2:0:0:
164,315,45448,1,10,0:2:0:0:
250,369,45763,2,0,L|309:357,1,50,10|8,0:2|0:2,0:0:0:0:
336,325,46079,6,0,P|408:337|464:291,1,150,6|8,1:1|0:2,0:0:0:0:
461,235,46711,1,2,0:2:0:0:
370,172,47027,2,0,L|270:162,1,100,10|0,0:2|0:2,0:0:0:0:
175,218,47658,1,2,1:2:0:0:
94,144,47974,1,2,1:2:0:0:
94,144,48132,1,0,1:0:0:0:
140,45,48448,1,0,1:2:0:0:
140,45,48606,1,2,1:2:0:0:
249,58,48921,2,0,L|348:48,1,100,10|0,0:2|0:2,0:0:0:0:
448,1,49553,1,2,1:2:0:0:
509,91,49869,6,0,P|493:165|484:239,1,150,6|8,1:1|0:2,0:0:0:0:
503,291,50500,1,2,0:2:0:0:
434,378,50816,2,0,P|335:367|238:345,1,200,10|2,0:2|1:2,0:0:0:0:
183,249,51763,1,2,1:2:0:0:
258,168,52079,1,2,0:2:0:0:
359,215,52395,1,2,1:2:0:0:
434,134,52711,1,14,0:2:0:0:
381,38,53027,1,2,0:2:0:0:
274,59,53342,1,2,1:2:0:0:
169,23,53658,6,0,P|97:31|66:96,1,150,6|8,1:1|0:2,0:0:0:0:
86,148,54290,2,0,L|185:157,1,100,2|8,0:2|0:2,0:0:0:0:
268,230,54921,1,2,0:2:0:0:
364,176,55237,1,2,1:2:0:0:
438,265,55553,1,2,1:2:0:0:
438,265,55711,1,0,1:0:0:0:
375,356,56027,1,0,1:2:0:0:
375,356,56184,2,0,L|274:369,1,100,2|8,1:2|0:2,0:0:0:0:
182,310,56816,1,2,0:2:0:0:
81,355,57132,1,2,1:2:0:0:
10,270,57448,6,0,L|0:170,2,100,6|2|2,1:1|0:2|0:2,0:0:0:0:
81,355,58395,1,10,0:2:0:0:
182,310,58711,1,2,0:2:0:0:
276,369,59027,1,2,1:2:0:0:
385,342,59342,1,2,1:2:0:0:
384,341,59500,2,0,P|432:356|481:348,1,100,0|0,1:2|1:2,0:0:0:0:
511,301,59974,1,2,1:2:0:0:
437,218,60290,2,0,L|428:168,1,50,10|8,0:2|0:2,0:0:0:0:
459,122,60606,2,0,L|450:72,1,50,10|8,0:3|0:3,0:0:0:0:
413,31,60921,2,0,L|363:22,1,50,6|4,0:3|0:3,0:0:0:0:
308,9,61237,6,0,P|324:83|329:158,1,150,6|8,1:1|0:2,0:0:0:0:
287,194,61869,1,2,0:2:0:0:
335,290,62184,2,0,P|315:335|271:357,1,100,10|0,0:2|0:2,0:0:0:0:
173,306,62816,1,2,1:2:0:0:
82,366,63132,1,2,1:2:0:0:
82,366,63290,1,0,1:0:0:0:
24,278,63606,1,0,1:2:0:0:
24,278,63763,1,2,1:2:0:0:
114,215,64079,2,0,P|130:167|132:118,1,100,10|0,0:2|0:2,0:0:0:0:
71,26,64711,1,2,1:2:0:0:
180,13,65027,6,0,L|278:32,1,100,6|2,1:1|0:2,0:0:0:0:
384,5,65658,1,2,0:2:0:0:
427,106,65974,2,0,L|407:204,1,100,10|2,0:2|0:2,0:0:0:0:
313,262,66606,1,2,1:2:0:0:
248,173,66921,2,0,L|149:153,1,100,2|2,1:2|0:2,0:0:0:0:
50,200,67553,1,2,1:2:0:0:
69,308,67869,2,0,L|167:327,1,100,14|2,0:2|0:2,0:0:0:0:
262,382,68500,1,2,1:2:0:0:
357,327,68816,6,0,P|427:348|486:305,1,150,6|8,1:1|0:2,0:0:0:0:
500,252,69448,1,2,0:2:0:0:
428,168,69763,2,0,L|329:185,1,100,10|0,0:2|0:2,0:0:0:0:
265,272,70395,1,2,1:2:0:0:
164,242,70711,1,2,1:2:0:0:
164,242,70869,2,0,L|65:224,1,100,0|0,1:0|1:2,0:0:0:0:
27,184,71342,1,2,1:2:0:0:
60,79,71658,2,0,L|158:61,1,100,10|0,0:2|0:2,0:0:0:0:
234,141,72290,1,2,1:2:0:0:
174,232,72606,6,0,P|161:304|209:359,1,150,6|8,1:1|0:2,0:0:0:0:
263,368,73237,1,2,0:2:0:0:
322,275,73553,1,10,0:2:0:0:
398,354,73869,1,2,0:2:0:0:
497,307,74184,1,2,1:2:0:0:
483,199,74500,1,2,1:2:0:0:
483,199,74658,1,0,1:0:0:0:
376,179,74974,1,0,1:2:0:0:
376,179,75132,1,0,1:2:0:0:
301,98,75448,2,0,L|290:-2,2,100,10|8|4,0:2|0:3|0:3,0:0:0:0:
213,165,76395,5,4,1:1:0:0:
500,326,77342,1,2,0:2:0:0:
286,380,77974,1,0,1:2:0:0:
190,325,78290,1,2,1:2:0:0:
190,325,78448,1,0,1:2:0:0:
256,237,78763,1,0,1:2:0:0:
256,237,78921,1,0,1:2:0:0:
205,139,79237,1,2,0:2:0:0:
21,17,79869,1,0,1:2:0:0:
86,104,80184,5,2,1:2:0:0:
402,9,81132,1,2,1:2:0:0:
327,330,82079,1,2,1:2:0:0:
44,279,99132,6,0,P|30:231|36:181,2,100,6|0|0,1:1|0:0|0:0,0:0:0:0:
110,354,100079,1,10,0:2:0:0:
195,301,100395,2,0,P|243:290|293:286,1,100,0|0,0:0|1:0,0:0:0:0:
377,340,101027,1,2,1:2:0:0:
468,299,101342,1,0,0:0:0:0:
432,205,101658,1,0,0:0:0:0:
476,115,101974,2,0,P|453:70|408:28,1,100,10|0,0:2|0:2,0:0:0:0:
321,58,102606,1,0,1:2:0:0:
235,6,102921,6,0,L|126:30,1,100,2|0,1:2|0:0,0:0:0:0:
82,111,103553,1,0,0:0:0:0:
155,179,103869,2,0,P|203:190|253:194,1,100,10|0,0:2|0:0,0:0:0:0:
339,143,104500,1,0,1:0:0:0:
413,209,104816,2,0,P|462:205|511:196,2,100,2|0|0,1:2|0:2|0:2,0:0:0:0:
362,295,105763,2,0,P|315:313|267:325,1,100,10|0,0:2|0:2,0:0:0:0:
180,274,106395,1,0,1:2:0:0:
94,326,106711,6,0,B|48:279|48:279|79:148,1,200,6|0,1:1|0:2,0:0:0:0:
58,50,107658,1,10,0:2:0:0:
146,0,107974,1,0,0:0:0:0:
221,68,108290,1,0,1:0:0:0:
309,18,108606,2,0,L|418:6,2,100,2|0|0,1:2|0:2|0:2,0:0:0:0:
221,68,109553,2,0,P|204:115|196:164,1,100,10|0,0:2|0:2,0:0:0:0:
248,249,110184,1,0,1:2:0:0:
322,181,110500,6,0,P|370:168|420:166,1,100,2|0,1:2|0:2,0:0:0:0:
502,223,111132,1,0,0:2:0:0:
478,320,111448,2,0,P|429:332|379:334,1,100,10|0,0:2|0:2,0:0:0:0:
294,282,112079,1,0,1:2:0:0:
335,191,112395,2,0,P|384:178|434:173,2,100,2|0|0,1:2|0:2|0:2,0:0:0:0:
251,136,113342,2,0,P|202:123|152:118,2,100,10|0|0,0:2|0:2|0:2,0:0:0:0:
340,90,114290,5,0,0:2:0:0:
27,38,117132,5,8,0:2:0:0:
36,137,117448,1,8,0:3:0:0:
45,236,117763,1,4,0:3:0:0:
129,289,118079,6,0,P|135:338|117:384,2,100,6|0|0,1:1|0:0|0:0,0:0:0:0:
185,206,119027,2,0,L|284:195,1,100,10|0,0:2|0:2,0:0:0:0:
370,246,119658,1,0,1:2:0:0:
466,219,119974,2,0,L|480:115,2,100,2|0|0,1:2|0:2|0:2,0:0:0:0:
504,311,120921,2,0,L|405:328,1,100,10|0,0:2|0:2,0:0:0:0:
320,381,121553,1,0,1:2:0:0:
247,312,121869,6,0,L|271:111,1,200,6|0,1:1|0:2,0:0:0:0:
214,30,122816,2,0,P|165:19|115:21,1,100,10|0,0:2|0:2,0:0:0:0:
39,86,123448,1,0,1:2:0:0:
80,176,123763,2,0,L|278:153,1,200,6|0,1:1|0:0,0:0:0:0:
361,96,124711,2,0,P|373:47|367:-1,2,100,10|0|0,0:2|0:2|1:2,0:0:0:0:
410,183,125658,1,6,1:1:0:0:
343,257,125974,1,0,0:2:0:0:
251,216,126290,1,0,0:2:0:0:
260,114,126606,2,0,P|216:93|166:85,2,100,10|0|8,0:2|0:2|0:3,0:0:0:0:
251,216,127553,5,4,1:1:0:0:
184,290,127869,1,2,1:2:0:0:
234,377,128184,1,2,1:2:0:0:
333,357,128500,1,10,0:2:0:0:
345,257,128816,1,10,0:2:0:0:
444,237,129132,2,0,L|457:180,1,50,10|8,0:2|0:2,0:0:0:0:
497,160,129448,6,0,P|430:133|411:63,1,150,6|8,1:1|0:2,0:0:0:0:
374,22,130079,1,2,0:2:0:0:
301,105,130395,2,0,P|254:123|204:125,1,100,10|0,0:2|0:2,0:0:0:0:
112,64,131027,1,2,1:2:0:0:
35,142,131342,1,2,1:2:0:0:
35,142,131500,1,0,1:0:0:0:
90,243,131816,1,0,1:2:0:0:
90,243,131974,1,2,1:2:0:0:
199,231,132290,2,0,P|216:277|222:327,2,100,10|2|2,0:2|0:2|1:2,0:0:0:0:
216,122,133237,6,0,B|259:92|259:92|349:128,1,150,6|8,1:1|0:2,0:0:0:0:
397,101,133869,1,2,0:2:0:0:
483,168,134184,2,0,P|504:214|512:263,1,100,10|0,0:2|0:2,0:0:0:0:
432,339,134816,1,2,1:2:0:0:
335,287,135132,1,2,1:2:0:0:
355,179,135448,1,2,0:2:0:0:
259,127,135763,1,2,1:2:0:0:
179,202,136079,1,14,0:2:0:0:
226,302,136395,1,2,0:2:0:0:
146,377,136711,1,2,1:2:0:0:
49,325,137027,6,0,L|32:175,1,150,6|8,1:1|0:2,0:0:0:0:
6,127,137658,2,0,L|104:142,1,100,2|8,0:2|0:2,0:0:0:0:
205,97,138290,1,2,0:2:0:0:
282,175,138606,1,2,1:2:0:0:
222,266,138921,1,2,1:2:0:0:
222,266,139079,1,0,1:0:0:0:
285,363,139395,1,0,1:2:0:0:
285,363,139553,2,0,L|384:354,1,100,2|8,1:2|0:2,0:0:0:0:
459,273,140184,1,2,0:2:0:0:
399,180,140500,1,2,1:2:0:0:
428,73,140816,6,0,L|528:59,2,100,6|2|2,1:1|0:2|0:2,0:0:0:0:
333,16,141763,1,10,0:2:0:0:
250,88,142079,1,2,0:2:0:0:
293,190,142395,1,2,1:2:0:0:
404,181,142711,1,2,1:2:0:0:
404,181,142869,1,0,1:0:0:0:
447,283,143184,1,0,1:2:0:0:
447,283,143342,1,2,1:2:0:0:
381,371,143658,2,0,L|331:362,1,50,10|8,0:2|0:2,0:0:0:0:
277,371,143974,2,0,L|227:362,1,50,10|8,0:3|0:3,0:0:0:0:
174,378,144290,2,0,L|124:369,1,50,6|4,0:3|0:3,0:0:0:0:
70,379,144606,6,0,B|95:332|95:332|74:238,1,150,6|8,1:1|0:2,0:0:0:0:
29,204,145237,1,2,0:2:0:0:
67,100,145553,2,0,P|109:75|159:72,1,100,10|0,0:2|0:2,0:0:0:0:
237,149,146184,1,2,1:2:0:0:
190,251,146500,1,2,1:2:0:0:
190,251,146658,1,0,1:0:0:0:
279,324,146974,1,0,1:2:0:0:
279,324,147132,1,2,1:2:0:0:
381,282,147448,2,0,P|396:232|402:170,1,100,10|2,0:2|0:2,0:0:0:0:
484,112,148079,1,2,1:2:0:0:
410,30,148395,6,0,L|310:18,1,100,6|2,1:1|0:2,0:0:0:0:
211,66,149027,1,2,0:2:0:0:
111,19,149342,2,0,L|99:118,1,100,10|2,0:2|0:2,0:0:0:0:
21,196,149974,1,2,1:2:0:0:
56,300,150290,2,0,L|155:311,1,100,2|2,1:2|0:2,0:0:0:0:
258,273,150921,1,2,1:2:0:0:
196,181,151237,2,0,L|207:81,1,100,14|2,0:2|0:2,0:0:0:0:
292,10,151869,1,2,1:2:0:0:
379,75,152184,6,0,L|361:223,1,150,6|8,1:1|0:2,0:0:0:0:
396,266,152816,1,2,0:2:0:0:
333,355,153132,2,0,P|284:368|234:370,1,100,10|0,0:2|0:2,0:0:0:0:
154,295,153763,1,2,1:2:0:0:
56,341,154079,1,2,1:2:0:0:
56,341,154237,1,0,1:0:0:0:
10,246,154553,1,0,1:2:0:0:
10,246,154711,1,2,1:2:0:0:
102,186,155027,2,0,L|87:70,2,100,10|2|2,0:2|0:2|1:2,0:0:0:0:
194,246,155974,6,0,P|265:261|331:227,1,150,6|8,1:1|0:2,0:0:0:0:
341,172,156606,1,2,0:2:0:0:
443,210,156921,1,10,0:2:0:0:
511,125,157237,1,2,0:2:0:0:
452,35,157553,1,2,1:2:0:0:
348,63,157869,1,6,1:1:0:0:
348,63,158027,1,0,1:2:0:0:
244,35,158342,1,0,1:2:0:0:
244,35,158500,1,0,1:2:0:0:
167,114,158816,2,0,L|176:163,1,50,8|0,0:2|1:2,0:0:0:0:
222,194,159132,2,0,L|231:243,1,50,8|0,0:2|1:2,0:0:0:0:
206,292,159448,2,0,L|157:301,1,50,8|0,0:3|0:2,0:0:0:0:
128,348,159763,5,6,1:1:0:0:
99,64,160711,1,6,1:1:0:0:
383,35,161658,1,6,1:1:0:0:
412,319,162606,1,6,1:1:0:0:
304,299,162921,1,4,0:3:0:0:
195,278,163237,1,8,0:3:0:0:
86,257,163553,5,6,1:1:0:0:
480,192,164500,1,6,1:1:0:0:
128,32,165448,2,0,L|136:81,1,50,6|0,1:1|1:2,0:0:0:0:
120,133,165763,2,0,L|128:182,1,50,8|8,0:3|0:3,0:0:0:0:
112,234,166079,2,0,L|120:283,1,50,4|4,0:3|0:3,0:0:0:0:
157,324,166395,1,6,1:1:0:0:
266,337,166711,1,8,0:3:0:0:
375,350,167027,1,4,0:3:0:0:
483,364,167342,5,6,1:1:0:0:
352,64,168290,1,6,1:1:0:0:
221,364,169237,1,6,1:1:0:0:
90,64,170184,1,6,1:1:0:0:
196,93,170500,1,8,0:3:0:0:
302,122,170816,1,4,0:3:0:0:
407,151,171132,6,0,P|423:103|423:53,2,100,6|0|0,1:1|1:0|1:0,0:0:0:0:
369,254,172079,2,0,P|384:301|384:351,2,100,6|0|0,1:1|1:0|1:0,0:0:0:0:
266,228,173027,1,6,1:1:0:0:
266,228,173184,1,10,0:2:0:0:
192,309,173500,1,10,0:3:0:0:
192,309,173657,1,6,0:3:0:0:
92,264,173974,1,6,1:1:0:0:
92,264,174132,1,2,0:2:0:0:
104,155,174448,1,10,0:3:0:0:
104,155,174606,1,6,0:3:0:0:
212,136,174921,6,0,L|317:146,1,100,6|2,1:1|0:2,0:0:0:0:
359,182,175395,1,2,1:2:0:0:
359,182,175553,2,0,L|411:187,1,50,2|2,1:2|0:2,0:0:0:0:
456,215,175869,1,10,0:2:0:0:
509,119,176184,2,0,L|499:69,1,50,2|2,0:2|0:2,0:0:0:0:
461,30,176500,2,0,L|411:20,1,50,2|2,1:2|0:2,0:0:0:0:
368,54,176816,1,2,1:2:0:0:
368,54,176974,1,2,1:2:0:0:
263,20,177290,1,2,1:2:0:0:
263,20,177448,1,2,1:2:0:0:
169,76,177763,1,10,0:2:0:0:
225,170,178079,1,2,0:2:0:0:
169,264,178395,1,2,1:2:0:0:
202,368,178711,5,2,1:2:0:0:
202,368,178869,1,0,1:2:0:0:
92,376,179184,1,2,1:2:0:0:
92,376,179342,2,0,L|43:365,1,50,2|2,1:2|0:2,0:0:0:0:
9,321,179658,2,0,L|-1:272,1,50,10|2,0:2|0:2,0:0:0:0:
35,231,179974,1,2,0:2:0:0:
9,123,180290,1,2,1:2:0:0:
75,35,180606,2,0,L|124:29,1,50,2|0,1:2|1:2,0:0:0:0:
176,11,180921,1,2,0:2:0:0:
284,28,181237,1,2,1:2:0:0:
299,138,181553,1,10,0:2:0:0:
200,187,181869,1,2,1:2:0:0:
217,296,182184,1,2,1:2:0:0:
325,314,182500,6,0,L|424:302,1,100,6|2,1:1|0:2,0:0:0:0:
483,314,182974,1,2,1:2:0:0:
483,314,183132,2,0,L|491:264,1,50,2|2,1:2|0:2,0:0:0:0:
470,213,183448,1,10,0:2:0:0:
507,109,183763,2,0,L|457:99,1,50,2|2,0:2|0:2,0:0:0:0:
403,108,184079,2,0,L|353:98,1,50,2|2,1:2|0:2,0:0:0:0:
305,121,184395,1,2,1:2:0:0:
305,121,184553,1,0,1:2:0:0:
351,226,184869,1,2,1:2:0:0:
351,226,185027,1,0,1:2:0:0:
278,308,185342,1,10,0:2:0:0:
185,248,185658,1,2,0:2:0:0:
90,305,185974,1,2,1:2:0:0:
18,221,186290,5,6,1:1:0:0:
18,221,186448,2,0,L|5:121,1,100,0|0,1:0|1:2,0:0:0:0:
17,68,186921,1,0,1:0:0:0:
111,123,187237,1,10,0:2:0:0:
198,56,187553,1,0,1:2:0:0:
278,131,187869,1,0,1:2:0:0:
370,72,188184,1,6,1:1:0:0:
370,72,188342,2,0,L|468:86,1,100,8|0,0:2|1:2,0:0:0:0:
500,131,188816,1,8,0:2:0:0:
464,235,189132,2,0,L|472:284,1,50,10|8,0:2|0:2,0:0:0:0:
444,331,189448,1,2,1:2:0:0:
338,301,189763,1,2,1:2:0:0:
244,358,190079,5,0,0:2:0:0:
172,275,192289,5,0,0:2:0:0:
138,192,194184,1,0,0:2:0:0:
172,108,196079,1,0,0:2:0:0:
256,74,197973,1,0,0:2:0:0:
339,108,199868,1,0,0:2:0:0:
373,192,201763,1,0,0:2:0:0:
339,275,203658,1,0,0:2:0:0:
255,309,205552,1,0,0:2:0:0:
59,359,207447,6,0,P|21:290|42:215,1,160,2|0,0:0|0:0,0:0:0:0:
123,178,208395,2,0,L|282:171,1,160,2|0,0:0|0:0,0:0:0:0:
349,228,209342,2,0,P|422:250|484:204,1,160,2|0,0:0|0:0,0:0:0:0:
506,119,210289,1,2,0:0:0:0:
363,16,210921,1,0,0:0:0:0:
297,74,211237,1,2,0:0:0:0:
384,256,212184,1,2,0:0:0:0:
183,241,213131,1,2,0:0:0:0:
96,60,214079,1,2,0:0:0:0:
32,288,215026,6,0,P|95:332|170:312,1,160,2|0,0:0|0:0,0:0:0:0:
241,259,215974,2,0,L|399:283,1,160,2|0,0:0|0:0,0:0:0:0:
480,240,217022,2,0,L|504:81,1,160,2|0,0:0|0:0,0:0:0:0:
461,5,217945,1,2,0:0:0:0:
310,111,219004,5,2,0:0:0:0:
