osu file format v14

[General]
AudioFilename: audio.mp3
AudioLeadIn: 0
PreviewTime: 44421
Countdown: 0
SampleSet: Soft
StackLeniency: 0.4
Mode: 0
LetterboxInBreaks: 0
WidescreenStoryboard: 1

[Editor]
DistanceSpacing: 0.5
BeatDivisor: 6
GridSize: 32
TimelineZoom: 1.7

[Metadata]
Title:Yomei Mikka Shoujo
TitleUnicode:余命3日少女
Artist:Mi Bai
ArtistUnicode:米白
Creator:Mordred
Version:Like a Dream
Source:
Tags:プロペリン 万玄斎 神谷志龍 japanese pop
BeatmapID:2484188
BeatmapSetID:1192177

[Difficulty]
HPDrainRate:7
CircleSize:4
OverallDifficulty:8
ApproachRate:8.7
SliderMultiplier:1.8
SliderTickRate:3

[Events]
//Background and Video events
0,0,"79939781_p0_master1200.jpg",0,0
Video,-180,"blobsadcloud.mp4"
//Break Periods
//Storyboard Layer 0 (Background)
//Storyboard Layer 1 (Fail)
//Storyboard Layer 2 (Pass)
//Storyboard Layer 3 (Foreground)
//Storyboard Layer 4 (Overlay)
//Storyboard Sound Samples

[TimingPoints]
606,947.36842105313,2,2,1,60,1,0
15763,-41.6666666666667,3,2,1,60,0,0
44420,-125,3,2,1,5,0,0
44499,-33.3333333333333,3,2,1,70,0,0
44736,-100,3,2,1,5,0,0
44815,-27.7777777777778,3,2,1,70,0,0
45052,-83.3333333333333,3,2,1,5,0,0
45131,-23.8095238095238,3,2,1,70,0,0
45368,-71.4285714285714,3,2,1,5,0,0
45447,-20.8333333333333,3,2,1,70,0,0
45684,-62.5,3,2,1,5,0,0
45763,-62.5,3,2,1,70,0,0
46079,-33.3333333333333,3,2,1,70,0,1
76395,-100,3,2,1,70,0,0
77341,-100,3,2,1,50,0,0
83973,-55.5555555555556,3,2,1,60,0,0
99131,-41.6666666666667,3,2,1,60,0,0
127789,-41.6666666666667,3,2,1,5,0,0
127868,-33.3333333333333,3,2,1,50,0,0
128105,-100,3,2,1,5,0,0
128184,-27.7777777777778,3,2,1,55,0,0
128420,-83.3333333333333,3,2,1,5,0,0
128499,-23.8095238095238,3,2,1,60,0,0
128736,-71.4285714285714,3,2,1,5,0,0
128815,-20.8333333333333,3,2,1,66,0,0
129052,-62.5,3,2,1,5,0,0
129131,-62.5,3,2,1,66,0,0
129448,-33.3333333333333,3,2,1,70,0,1
159763,-33.3333333333333,3,2,1,70,0,0
174921,-27.7777777777778,3,2,1,70,0,1
189684,-27.7777777777778,3,2,1,5,0,1
189763,-27.7777777777778,3,2,1,70,0,1
189999,-27.7777777777778,3,2,1,5,0,1
190079,-83.3333333333333,3,2,1,50,0,0
192289,947.36842105313,2,2,1,50,1,0
207446,-83.3333333333333,3,2,1,60,0,0
215974,1028.57142857202,2,2,1,60,1,0
216659,1090.90909090909,2,2,1,50,1,0
217022,857.142857142857,2,2,1,50,1,0
217022,-125,2,2,1,50,0,0
217593,1058.82352941189,2,2,1,50,1,0
217945,947.36842105313,2,2,1,50,1,0
217945,-166.666666666667,2,2,1,50,0,0
218576,1285.71428571337,2,2,1,50,1,0
219004,1551.7241379297,2,2,1,50,1,0

[Colours]
Combo1 : 250,180,240
Combo2 : 110,190,225
Combo3 : 255,230,130
Combo4 : 150,230,140

[HitObjects]
52,313,15763,6,0,P|44:280|51:235,1,72,6|0,1:1|1:2,0:2:0:0:
24,123,16079,2,0,P|56:132|92:161,1,72,0|0,0:2|1:2,0:2:0:0:
202,193,16395,2,0,P|177:216|134:232,1,72,0|0,1:2|0:2,0:2:0:0:
99,18,16711,1,10,0:2:0:0:
202,193,17027,1,0,0:2:0:0:
303,17,17342,1,0,0:2:0:0:
303,17,17658,6,0,P|338:9|373:8,1,72,2|0,0:2|0:2,0:2:0:0:
512,86,17974,2,0,P|476:77|441:76,1,72,0|0,0:2|1:2,0:2:0:0:
303,155,18290,2,0,P|338:146|373:145,1,72,0|0,1:2|0:2,0:2:0:0:
484,317,18606,2,0,L|464:174,2,144,10|0|0,0:2|0:2|1:2,0:2:0:0:
484,317,19553,6,0,P|449:326|413:331,1,72,2|0,1:2|1:2,0:2:0:0:
319,384,19869,2,0,P|293:358|271:330,1,72,0|0,0:0|1:0,0:0:0:0:
178,274,20184,2,0,P|187:239|200:205,1,72,0|0,1:0|0:0,0:0:0:0:
486,208,20500,2,0,P|499:174|508:140,1,72,10|0,0:2|0:2,0:2:0:0:
416,83,20816,2,0,P|393:55|368:30,1,72
272,81,21132,2,0,P|236:86|202:96,1,72
0,41,21448,6,0,P|68:43|97:104,1,144,2|0,0:2|0:2,0:2:0:0:
64,192,21921,1,0,1:2:0:0:
64,192,22079,1,0,1:2:0:0:
288,256,22395,1,8,0:2:0:0:
70,336,22711,1,0,0:2:0:0:
199,143,23027,1,0,1:2:0:0:
209,375,23342,5,2,1:2:0:0:
209,375,23500,1,0,1:2:0:0:
64,192,23816,1,0,1:2:0:0:
64,192,23974,1,0,1:2:0:0:
288,255,24290,2,0,P|323:251|358:243,1,72,10|0,0:2|0:2,0:2:0:0:
454,214,24606,2,0,P|432:185|407:159,1,72
335,91,24921,2,0,P|320:124|310:158,1,72
209,375,25237,6,0,L|65:358,1,144,2|0,0:2|0:2,0:2:0:0:
0,288,25711,1,0,1:2:0:0:
0,288,25869,1,0,1:2:0:0:
51,83,26184,1,8,0:2:0:0:
127,212,26500,1,0,0:2:0:0:
256,135,26816,1,0,1:2:0:0:
204,340,27132,5,2,1:2:0:0:
204,340,27290,1,0,1:2:0:0:
256,135,27606,1,0,1:2:0:0:
256,135,27763,1,0,1:2:0:0:
466,256,28079,2,0,P|400:282|332:263,2,144,10|0|0,0:2|0:2|1:2,0:2:0:0:
512,44,29027,5,2,1:2:0:0:
512,44,29184,1,0,1:2:0:0:
352,108,29500,1,0,1:2:0:0:
352,108,29658,1,0,1:2:0:0:
96,44,29974,1,8,0:2:0:0:
204,152,30290,1,8,0:3:0:0:
243,0,30606,1,4,0:3:0:0:
480,160,30921,6,0,P|491:194|496:229,1,72,6|0,1:1|1:2,0:2:0:0:
395,349,31237,2,0,P|406:315|411:280,1,72,0|0,0:0|1:0,0:0:0:0:
310,160,31553,2,0,P|321:194|326:229,1,72,0|0,1:0|0:0,0:0:0:0:
225,349,31869,1,10,0:2:0:0:
96,192,32184,1,0,0:2:0:0:
25,383,32500,1,0,0:2:0:0:
210,229,32816,6,0,P|244:219|280:215,1,72,2|0,0:2|0:2,0:2:0:0:
369,317,33132,2,0,P|358:282|354:246,1,72,0|0,0:0|1:0,0:0:0:0:
456,158,33448,2,0,P|421:168|385:172,1,72,0|0,1:0|0:0,0:0:0:0:
280,0,33763,2,0,L|311:140,2,144,10|0|0,0:2|0:2|1:2,0:2:0:0:
280,0,34711,6,0,P|245:10|209:14,1,72,2|0,1:2|1:2,0:2:0:0:
128,96,35027,2,0,P|138:130|142:166,1,72,0|0,0:0|1:0,0:0:0:0:
224,248,35342,2,0,P|258:237|294:233,1,72,0|0,1:0|0:0,0:0:0:0:
499,157,35658,2,0,L|355:140,2,144,10|0|0,0:2|0:2|0:2,0:2:0:0:
512,384,36606,6,0,P|464:332|394:332,1,144,2|0,0:2|0:2,0:2:0:0:
320,384,37079,1,0,1:2:0:0:
320,384,37237,1,0,1:2:0:0:
349,183,37553,1,8,0:2:0:0:
149,154,37869,1,0,0:2:0:0:
119,354,38184,1,0,1:2:0:0:
349,183,38500,5,2,1:2:0:0:
349,183,38658,1,0,1:2:0:0:
133,254,38974,1,0,1:2:0:0:
133,254,39132,1,0,1:2:0:0:
62,38,39448,2,0,L|204:60,2,144,10|0|0,0:2|0:2|1:2,0:2:0:0:
416,0,40395,5,2,1:2:0:0:
416,0,40553,1,0,1:2:0:0:
448,128,40869,1,0,1:2:0:0:
448,128,41027,1,0,1:2:0:0:
480,256,41342,1,10,0:2:0:0:
448,128,41658,1,0,0:2:0:0:
416,0,41974,1,0,1:2:0:0:
512,384,42290,5,2,0:2:0:0:
64,309,43869,1,8,0:3:0:0:
60,291,43948,1,8,0:3:0:0:
56,273,44027,1,4,0:3:0:0:
53,255,44106,1,4,0:3:0:0:
50,237,44184,6,0,P|102:248|155:238,1,108,4|0,1:2|0:2,0:2:0:0:
206,78,44500,6,0,P|187:142|176:209,1,135,2|0,1:2|0:2,0:2:0:0:
192,258,44816,6,0,P|269:279|349:293,1,161.999995056153,2|0,1:2|0:2,0:2:0:0:
495,373,45132,6,0,P|407:374|384:289,1,188.999994232178,10|0,0:2|0:2,0:2:0:0:
512,143,45448,6,0,P|488:241|387:249,1,216,10|0,0:2|0:2,0:2:0:0:
336,197,45763,5,10,0:2:0:0:
192,341,45921,1,8,0:2:0:0:
32,127,46079,6,0,P|115:110|166:178,1,180,6|0,1:1|0:2,0:2:0:0:
127,269,46553,1,8,0:2:0:0:
299,95,46711,2,0,P|313:53|307:9,1,90,2|0,0:2|0:2,0:2:0:0:
86,200,47027,2,0,L|110:378,1,180,10|0,0:2|0:2,0:2:0:0:
110,378,47658,2,0,L|122:289,1,90,2|0,1:2|0:2,0:2:0:0:
256,64,47974,5,2,1:2:0:0:
256,64,48132,2,0,P|300:60|344:49,1,90,0|0,1:0|0:0,0:0:0:0:
512,160,48448,1,0,1:2:0:0:
512,160,48606,2,0,P|467:156|423:145,1,90,2|0,1:2|0:2,0:2:0:0:
231,245,48921,2,0,P|267:323|352:329,2,180,10|0|2,0:2|0:2|1:2,0:2:0:0:
231,246,49869,6,0,L|258:68,1,180,6|0,1:1|0:2,0:2:0:0:
320,0,50342,1,8,0:2:0:0:
160,160,50500,2,0,L|53:176,1,90,2|0,0:2|0:2,0:2:0:0:
231,246,50816,2,0,L|408:218,1,180,10|0,0:2|0:2,0:2:0:0:
107,352,51448,2,0,L|121:264,1,90,2|0,1:2|0:2,0:2:0:0:
352,96,51763,6,0,P|330:134|289:152,1,90,2|0,1:2|1:2,0:2:0:0:
291,323,52079,2,0,P|268:285|273:241,1,90,2|0,0:2|1:2,0:2:0:0:
124,156,52395,2,0,P|169:156|204:182,1,90,2|0,1:2|0:2,0:2:0:0:
447,243,52711,6,0,P|403:248|361:234,1,90,14|0,0:2|0:2,0:2:0:0:
115,332,53027,2,0,P|133:291|166:262,1,90,2|0,0:2|0:2,0:2:0:0:
204,0,53342,2,0,P|231:35|239:79,1,90,2|0,1:2|0:2,0:2:0:0:
16,368,53658,6,0,L|285:353,1,270,6|8,1:1|0:2,0:2:0:0:
512,256,54290,2,0,L|332:266,1,180,2|8,0:2|0:2,0:2:0:0:
332,266,54921,2,0,P|316:225|311:180,1,90,2|0,0:2|0:2,0:2:0:0:
425,24,55237,2,0,P|420:68|403:110,1,90,2|0,1:2|0:2,0:2:0:0:
226,236,55553,5,2,1:2:0:0:
226,236,55711,2,0,L|136:230,1,90,0|0,1:0|0:0,0:0:0:0:
0,112,56027,1,0,1:2:0:0:
0,112,56184,2,0,L|90:118,1,90,2|0,1:2|0:2,0:2:0:0:
425,24,56500,1,8,0:2:0:0:
425,24,56816,2,0,P|448:79|453:112,1,90,2|0,0:2|0:2,0:2:0:0:
485,282,57132,2,0,P|508:227|513:194,1,90,2|0,1:2|0:2,0:2:0:0:
128,32,57448,6,0,P|168:50|212:59,1,90,6|0,1:1|0:2,0:2:0:0:
283,284,57763,2,0,P|278:240|264:197,1,90,2|8,0:2|0:2,0:2:0:0:
424,24,58079,2,0,P|388:49|358:82,1,90,2|0,0:2|0:2,0:2:0:0:
187,256,58395,6,0,P|142:247|102:228,1,90,10|0,0:2|0:2,0:2:0:0:
0,64,58711,2,0,P|45:73|85:92,1,90,2|0,0:2|0:2,0:2:0:0:
186,351,59027,2,0,P|230:342|270:323,1,90,2|0,1:2|0:2,0:2:0:0:
480,32,59342,5,2,1:2:0:0:
480,32,59500,1,0,1:2:0:0:
448,256,59816,1,0,1:2:0:0:
448,256,59974,2,0,L|358:268,1,90,2|0,1:2|0:2,0:2:0:0:
128,96,60290,5,10,0:2:0:0:
167,201,60448,1,8,0:2:0:0:
286,41,60606,5,10,0:3:0:0:
247,146,60763,1,8,0:3:0:0:
366,96,60921,5,6,0:3:0:0:
405,201,61079,1,4,0:3:0:0:
128,96,61237,6,0,P|42:113|0:190,1,180,6|0,1:1|0:2,0:2:0:0:
16,272,61711,1,8,0:2:0:0:
198,145,61869,2,0,P|213:102|210:58,1,90,2|0,0:2|0:2,0:2:0:0:
16,272,62184,2,0,L|195:290,1,180,10|0,0:2|0:2,0:2:0:0:
480,32,62816,2,0,L|489:121,1,90,2|0,1:2|0:2,0:2:0:0:
448,320,63132,5,2,1:2:0:0:
447,320,63290,2,0,P|404:332|365:354,1,90,0|0,1:0|0:0,0:0:0:0:
196,204,63606,1,0,1:2:0:0:
196,204,63763,2,0,P|239:216|278:238,1,90,2|0,1:2|0:2,0:2:0:0:
64,384,64079,2,0,L|48:204,2,180,10|0|2,0:2|0:2|1:2,0:2:0:0:
64,384,65027,6,0,P|107:375|143:348,1,90,6|0,1:1|0:2,0:2:0:0:
185,175,65342,2,0,P|170:217|175:261,1,90,2|8,0:2|0:2,0:2:0:0:
306,384,65658,2,0,P|277:350|235:333,1,90,2|0,0:2|0:2,0:2:0:0:
12,224,65974,6,0,P|55:215|91:188,1,90,10|0,0:2|0:2,0:2:0:0:
256,0,66290,2,0,P|240:42|246:86,1,90,2|0,0:2|0:2,0:2:0:0:
478,227,66606,2,0,P|449:194|408:177,1,90,2|0,1:2|0:2,0:2:0:0:
175,261,66921,6,0,L|187:350,1,90,2|0,1:2|1:2,0:2:0:0:
296,206,67237,2,0,L|283:295,1,90,2|0,0:2|1:2,0:2:0:0:
65,204,67553,2,0,L|77:293,1,90,2|0,1:2|0:2,0:2:0:0:
448,32,67869,6,0,L|435:121,1,90,14|0,0:2|0:2,0:2:0:0:
296,384,68184,2,0,L|283:295,1,90,2|0,0:2|0:2,0:2:0:0:
78,115,68500,2,0,L|65:204,1,90,2|0,1:2|0:2,0:2:0:0:
512,321,68816,6,0,P|456:211|322:225,1,270,6|8,1:1|0:2,0:2:0:0:
213,357,69448,2,0,P|170:370|125:373,1,90,2|0,0:2|0:2,0:2:0:0:
19,306,69763,2,0,L|0:128,1,180,10|0,0:2|0:2,0:2:0:0:
0,127,70395,2,0,P|43:138|88:143,1,90,2|0,1:2|0:2,0:2:0:0:
256,64,70711,5,2,1:2:0:0:
256,64,70869,2,0,L|167:82,1,90,0|0,1:0|0:0,0:0:0:0:
103,243,71184,1,0,1:2:0:0:
103,243,71342,2,0,L|191:224,1,90,2|0,1:2|0:2,0:2:0:0:
440,190,71658,2,0,L|263:154,2,180,10|0|2,0:2|0:2|1:2,0:2:0:0:
48,16,72606,6,0,B|8:59|8:59|42:179,1,180,6|0,1:1|0:2,0:2:0:0:
103,243,73079,1,8,0:2:0:0:
273,55,73237,2,0,P|229:61|187:77,1,90,2|0,0:2|0:2,0:2:0:0:
27,349,73553,2,0,L|14:259,1,90,10|0,0:2|0:2,0:2:0:0:
256,384,73869,2,0,L|256:294,1,90,2|0,0:2|0:2,0:2:0:0:
485,349,74184,2,0,L|497:259,1,90,2|0,1:2|0:2,0:2:0:0:
384,32,74500,5,2,1:2:0:0:
384,32,74658,2,0,P|425:48|470:54,1,90,0|0,1:0|0:0,0:0:0:0:
232,158,74974,1,0,1:2:0:0:
232,158,75132,2,0,P|190:174|145:180,1,90,0|0,1:2|0:2,0:2:0:0:
384,284,75448,1,10,0:2:0:0:
32,132,75763,1,8,0:3:0:0:
384,32,76079,1,4,0:3:0:0:
32,384,76395,5,4,1:1:0:0:
32,384,77342,1,2,0:2:0:0:
32,384,77974,1,0,1:2:0:0:
19,297,78290,1,2,1:2:0:0:
19,297,78448,1,0,1:2:0:0:
6,210,78763,1,0,1:2:0:0:
6,210,78921,1,0,1:2:0:0:
32,384,79237,1,2,0:2:0:0:
64,32,79869,1,0,1:2:0:0:
79,109,80184,5,2,1:2:0:0:
256,128,81132,1,2,1:2:0:0:
433,147,82079,1,2,1:2:0:0:
57,201,83974,6,0,L|48:93,2,107.999996704102,6|0|0,1:1|0:2|0:2,0:2:0:0:
192,256,84921,2,0,L|183:364,2,107.999996704102,2|0|0,0:2|0:2|0:2,0:2:0:0:
327,201,85869,5,10,0:2:0:0:
462,256,86184,1,0,0:2:0:0:
443,112,86500,1,0,0:2:0:0:
211,290,86816,5,10,0:2:0:0:
327,201,87132,1,0,0:2:0:0:
346,345,87448,1,0,1:2:0:0:
307,56,87763,6,0,P|255:46|203:58,2,107.999996704102,2|0|0,1:2|0:2|0:2,0:2:0:0:
400,144,88711,2,0,P|452:133|504:145,2,107.999996704102,2|0|0,0:2|0:2|1:2,0:2:0:0:
111,320,89658,5,10,1:2:0:0:
97,188,89974,1,0,0:2:0:0:
83,56,90290,1,0,0:2:0:0:
233,370,90606,5,10,0:2:0:0:
219,238,90921,1,0,0:2:0:0:
205,106,91237,1,0,1:2:0:0:
463,337,91553,6,0,P|485:289|477:237,2,107.999996704102,2|0|0,1:2|0:2|0:2,0:2:0:0:
325,384,92500,2,0,P|302:335|310:283,2,107.999996704102,2|0|0,0:2|0:2|0:2,0:2:0:0:
480,32,93448,5,10,0:2:0:0:
384,160,93763,1,0,0:2:0:0:
256,64,94079,1,0,0:2:0:0:
495,144,94395,5,10,0:2:0:0:
367,48,94711,1,0,0:2:0:0:
271,176,95027,1,0,1:2:0:0:
0,32,95342,6,0,L|106:48,2,107.999996704102,2|0|0,1:2|0:2|0:2,0:2:0:0:
164,192,96290,2,0,L|271:176,2,107.999996704102,10|0|0,0:2|0:2|1:2,0:2:0:0:
32,352,97237,5,2,1:2:0:0:
32,352,97395,1,0,1:2:0:0:
0,160,97711,1,0,1:2:0:0:
0,160,97869,1,0,1:2:0:0:
224,320,98184,1,8,0:2:0:0:
192,128,98500,1,8,0:3:0:0:
112,240,98816,1,4,0:3:0:0:
370,312,99132,6,0,P|404:304|433:283,1,72,6|0,1:1|0:2,0:2:0:0:
512,238,99448,2,0,P|488:211|455:197,1,72
377,153,99763,2,0,P|365:187|369:222,1,72
243,356,100079,2,0,P|214:377|179:384,1,72,10|0,0:2|0:2,0:2:0:0:
79,313,100395,2,0,P|74:277|86:243,1,72
199,192,100711,2,0,P|231:206|255:232,1,72,0|0,1:0|0:0,0:0:0:0:
512,96,101027,6,0,L|440:107,1,72,2|0,1:2|0:2,0:2:0:0:
294,32,101342,2,0,L|365:43,1,72
419,202,101658,2,0,L|347:190,1,72
192,96,101974,1,10,0:2:0:0:
171,248,102290,1,0,0:2:0:0:
344,117,102606,1,0,1:2:0:0:
475,290,102921,6,0,P|470:325|461:360,1,72,2|0,1:2|0:2,0:2:0:0:
344,285,103237,2,0,P|348:320|348:356,1,72
216,314,103553,2,0,P|229:347|239:381,1,72
488,219,103869,6,0,P|483:255|475:290,1,72,10|0,0:2|0:2,0:2:0:0:
339,213,104184,2,0,P|343:249|344:285,1,72
192,246,104500,2,0,P|206:279|216:314,1,72,0|0,1:0|0:0,0:0:0:0:
480,96,104816,5,2,1:2:0:0:
339,213,105132,1,0,0:2:0:0:
198,96,105448,1,0,0:2:0:0:
480,330,105763,5,10,0:2:0:0:
339,213,106079,1,0,0:2:0:0:
198,330,106395,1,0,1:2:0:0:
0,64,106711,6,0,B|59:13|59:13|185:68,1,216,6|0,1:1|0:2,0:2:0:0:
268,222,107342,2,0,P|304:222|339:213,1,72,0|0,0:2|0:2,0:2:0:0:
480,32,107658,2,0,L|490:103,1,72,10|0,0:2|0:2,0:2:0:0:
432,285,107974,2,0,L|442:213,1,72
276,70,108290,2,0,L|286:141,1,72,0|0,1:0|0:0,0:0:0:0:
119,337,108606,5,2,1:2:0:0:
108,220,108921,1,0,0:2:0:0:
212,270,109237,1,0,0:2:0:0:
12,288,109553,5,10,0:2:0:0:
221,384,109869,1,0,0:2:0:0:
204,153,110184,1,0,1:2:0:0:
413,249,110500,6,0,P|466:242|493:147,2,144,2|0|0,1:2|0:2|0:2,0:2:0:0:
32,32,111448,2,0,L|45:175,1,144,10|0,0:2|0:2,0:2:0:0:
0,352,112079,1,0,1:2:0:0:
192,128,112395,5,2,1:2:0:0:
320,112,112711,1,0,0:2:0:0:
448,96,113027,1,0,0:2:0:0:
142,247,113342,5,10,0:2:0:0:
270,231,113658,1,0,0:2:0:0:
398,215,113974,1,0,0:2:0:0:
64,144,114290,5,0,0:2:0:0:
63,256,117132,5,8,0:2:0:0:
63,256,117290,1,0,0:2:0:0:
47,160,117448,1,8,0:3:0:0:
47,160,117606,1,0,0:2:0:0:
31,64,117763,1,4,0:3:0:0:
31,64,117921,1,0,0:2:0:0:
79,352,118079,6,0,L|169:366,1,72,6|0,1:1|0:2,0:2:0:0:
211,256,118395,2,0,L|282:244,1,72
343,352,118711,2,0,L|414:363,1,72
480,160,119027,2,0,L|502:302,2,144,10|0|0,0:2|0:2|1:2,0:2:0:0:
512,0,119974,5,2,1:2:0:0:
352,96,120290,1,0,0:2:0:0:
188,5,120606,1,0,0:2:0:0:
356,283,120921,5,10,0:2:0:0:
352,96,121237,1,0,0:2:0:0:
512,0,121553,1,0,1:2:0:0:
188,5,121869,6,0,B|138:54|138:54|175:194,1,216,6|0,1:1|0:2,0:2:0:0:
356,283,122500,2,0,L|286:264,1,72,0|0,0:2|0:2,0:2:0:0:
105,370,122816,1,10,0:2:0:0:
277,171,123132,1,0,0:2:0:0:
19,122,123448,1,0,1:2:0:0:
448,0,123763,6,0,B|498:49|498:49|461:189,1,216,6|0,1:1|0:2,0:2:0:0:
285,287,124395,2,0,L|355:268,1,72
499,334,124711,1,10,0:2:0:0:
327,135,125027,1,0,0:2:0:0:
241,384,125342,1,0,1:2:0:0:
10,147,125658,6,0,P|-10:79|23:18,2,144,6|0|0,1:1|0:2|0:2,0:2:0:0:
128,256,126606,1,10,0:2:0:0:
300,241,126921,1,0,0:2:0:0:
473,227,127237,1,8,0:3:0:0:
477,209,127316,1,8,0:3:0:0:
481,191,127395,1,4,0:3:0:0:
486,173,127474,1,4,0:3:0:0:
490,155,127553,6,0,P|437:159|383:151,1,108,4|0,1:1|0:2,0:2:0:0:
363,0,127869,6,0,P|368:67|355:132,1,135,2|0,1:2|0:2,0:2:0:0:
329,290,128184,6,0,P|335:209|319:130,1,161.999995056153,2|0,1:2|0:2,0:2:0:0:
148,161,128500,6,0,P|231:191|289:124,1,188.999994232178,10|0,0:2|0:2,0:2:0:0:
96,64,128816,6,0,L|117:278,1,216,10|0,0:2|0:2,0:2:0:0:
161,339,129132,5,10,0:2:0:0:
32,176,129290,1,8,0:2:0:0:
329,290,129448,6,0,B|385:312|385:312|489:253,1,180,6|0,1:1|0:2,0:2:0:0:
512,160,129921,1,8,0:2:0:0:
266,355,130079,2,0,P|248:313|247:269,1,90,2|0,0:2|0:2,0:2:0:0:
403,41,130395,2,0,L|381:219,1,180,10|0,0:2|0:2,0:2:0:0:
381,219,131027,2,0,L|370:129,1,90,2|0,1:2|0:2,0:2:0:0:
159,32,131342,5,2,1:2:0:0:
159,32,131500,2,0,P|118:48|74:58,1,90,0|0,1:0|0:0,0:0:0:0:
0,256,131816,1,0,1:2:0:0:
0,256,131974,2,0,P|41:239|85:229,1,90,2|0,1:2|0:2,0:2:0:0:
320,352,132290,1,10,0:2:0:0:
48,144,132606,1,2,0:2:0:0:
365,13,132921,1,2,1:2:0:0:
208,384,133237,6,0,L|183:205,1,180,6|0,1:1|0:2,0:2:0:0:
128,128,133711,1,8,0:2:0:0:
288,320,133869,2,0,L|377:332,1,90,2|0,0:2|0:2,0:2:0:0:
512,128,134184,2,0,P|431:103|381:172,1,180,10|0,0:2|0:2,0:2:0:0:
24,345,134816,2,0,L|114:332,1,90,2|0,1:2|0:2,0:2:0:0:
352,96,135132,6,0,P|330:134|289:152,1,90,2|0,1:2|1:2,0:2:0:0:
124,155,135448,2,0,P|168:155|203:181,1,90,2|0,0:2|1:2,0:2:0:0:
290,322,135763,2,0,P|268:285|272:241,1,90,2|0,1:2|0:2,0:2:0:0:
203,0,136079,6,0,P|231:35|238:79,1,90,14|0,0:2|0:2,0:2:0:0:
114,332,136395,2,0,P|132:291|166:261,1,90,2|0,0:2|0:2,0:2:0:0:
447,242,136711,2,0,P|402:247|360:233,1,90,2|0,1:2|0:2,0:2:0:0:
2,36,137027,6,0,P|116:91|203:0,1,270,6|8,1:1|0:2,0:2:0:0:
7,166,137658,2,0,L|22:345,1,180,2|8,0:2|0:2,0:2:0:0:
22,345,138290,2,0,L|111:352,1,90,2|0,0:2|0:2,0:2:0:0:
192,224,138606,2,0,L|281:231,1,90,2|0,1:2|0:2,0:2:0:0:
416,384,138921,5,2,1:2:0:0:
415,383,139079,2,0,P|398:341|394:296,1,90,0|0,1:0|0:0,0:0:0:0:
512,96,139395,1,0,1:2:0:0:
512,96,139553,2,0,P|507:140|491:182,1,90,2|0,1:2|0:2,0:2:0:0:
256,352,139869,1,8,0:2:0:0:
256,352,140184,2,0,P|212:362|168:361,1,90,2|0,0:2|0:2,0:2:0:0:
0,256,140500,2,0,P|44:266|88:265,1,90,2|0,1:2|0:2,0:2:0:0:
320,0,140816,6,0,P|299:39|288:83,1,90,6|0,1:1|0:2,0:2:0:0:
442,246,141132,2,0,P|431:202|409:162,1,90,2|8,0:2|0:2,0:2:0:0:
167,79,141448,2,0,P|177:122|199:162,1,90,2|0,0:2|0:2,0:2:0:0:
512,308,141763,6,0,P|472:329|428:334,1,90,10|0,0:2|0:2,0:2:0:0:
90,306,142079,2,0,P|129:284|173:279,1,90,2|0,0:2|0:2,0:2:0:0:
480,224,142395,2,0,P|490:180|489:135,1,90,2|0,1:2|0:2,0:2:0:0:
352,0,142711,5,2,1:2:0:0:
352,0,142869,2,0,L|263:13,1,90,0|0,1:0|0:0,0:0:0:0:
37,88,143184,1,0,1:2:0:0:
37,88,143342,2,0,L|125:101,1,90,2|0,1:2|0:2,0:2:0:0:
235,232,143658,5,10,0:2:0:0:
274,127,143816,1,8,0:2:0:0:
393,287,143974,5,10,0:3:0:0:
354,182,144132,1,8,0:3:0:0:
473,232,144290,5,6,0:3:0:0:
512,127,144448,1,4,0:3:0:0:
313,341,144606,6,0,L|133:360,1,180,6|0,1:1|0:2,0:2:0:0:
48,320,145079,1,8,0:2:0:0:
339,268,145237,2,0,P|355:226|354:182,1,90,2|0,0:2|0:2,0:2:0:0:
71,192,145553,2,0,L|250:210,1,180,10|0,0:2|0:2,0:2:0:0:
250,210,146184,2,0,L|160:219,1,90,2|0,1:2|0:2,0:2:0:0:
0,96,146500,5,2,1:2:0:0:
0,96,146658,2,0,L|89:86,1,90,0|0,1:0|0:0,0:0:0:0:
288,0,146974,1,0,1:2:0:0:
288,0,147132,2,0,L|377:9,1,90,2|0,1:2|0:2,0:2:0:0:
512,155,147448,1,10,0:2:0:0:
185,50,147763,1,2,0:2:0:0:
260,384,148079,1,2,1:2:0:0:
335,0,148395,6,0,P|339:44|360:83,1,90,6|0,1:1|0:2,0:2:0:0:
511,154,148711,2,0,P|470:135|425:134,1,90,2|8,0:2|0:2,0:2:0:0:
288,229,149027,2,0,P|325:202|347:164,1,90,2|0,0:2|0:2,0:2:0:0:
105,26,149342,6,0,P|106:70|120:113,1,90,10|0,0:2|0:2,0:2:0:0:
37,371,149658,2,0,P|75:345|104:311,1,90,2|0,0:2|0:2,0:2:0:0:
372,259,149974,2,0,P|332:237|288:229,1,90,2|0,1:2|0:2,0:2:0:0:
16,8,150290,6,0,L|105:26,1,90,2|0,1:2|1:2,0:2:0:0:
191,183,150606,2,0,L|103:166,1,90,2|0,0:2|1:2,0:2:0:0:
15,294,150921,2,0,L|103:311,1,90,2|0,1:2|0:2,0:2:0:0:
435,37,151237,6,0,L|346:54,1,90,14|0,0:2|0:2,0:2:0:0:
14,149,151553,2,0,L|102:166,1,90,2|0,0:2|0:2,0:2:0:0:
435,325,151869,2,0,L|346:342,1,90,2|0,1:2|0:2,0:2:0:0:
0,368,152184,6,0,P|74:267|190:314,1,270,6|8,1:1|0:2,0:2:0:0:
304,353,152816,2,0,P|349:351|392:337,1,90,2|0,0:2|0:2,0:2:0:0:
476,263,153132,2,0,L|497:84,2,180,10|0|2,0:2|0:2|1:2,0:2:0:0:
91,384,154079,5,2,1:2:0:0:
91,384,154237,2,0,L|80:294,1,90,0|0,1:0|0:0,0:0:0:0:
0,96,154553,1,0,1:2:0:0:
0,96,154711,2,0,L|10:185,1,90,2|0,1:2|0:2,0:2:0:0:
192,336,155027,1,10,0:2:0:0:
256,3,155342,1,2,0:2:0:0:
512,224,155658,1,2,1:2:0:0:
96,128,155974,6,0,L|274:106,1,180,6|0,1:1|0:2,0:2:0:0:
386,110,156448,1,8,0:2:0:0:
192,336,156606,2,0,L|202:246,1,90,2|0,0:2|0:2,0:2:0:0:
414,27,156921,2,0,P|409:71|386:110,1,90,10|0,0:2|0:2,0:2:0:0:
470,193,157237,2,0,P|435:221|391:232,1,90,2|0,0:2|0:2,0:2:0:0:
392,350,157553,2,0,P|347:345|309:322,1,90,2|0,1:2|0:2,0:2:0:0:
32,32,157869,5,6,1:1:0:0:
32,32,158027,2,0,P|75:43|120:46,1,90,0|0,1:2|0:1,0:2:0:0:
320,192,158342,1,0,1:2:0:0:
319,192,158500,2,0,P|275:203|230:206,1,90,0|0,1:2|0:2,0:2:0:0:
32,351,158816,1,8,0:2:0:0:
32,351,158974,1,0,1:2:0:0:
96,160,159132,1,8,0:2:0:0:
96,160,159290,1,0,1:2:0:0:
230,311,159448,1,8,0:3:0:0:
252,315,159527,1,8,0:3:0:0:
274,319,159606,1,0,0:2:0:0:
296,323,159684,1,4,0:3:0:0:
318,327,159763,5,6,1:1:0:0:
121,254,160711,5,6,1:1:0:0:
194,57,161658,5,6,1:1:0:0:
391,130,162606,5,6,1:1:0:0:
128,352,162921,1,4,0:3:0:0:
256,0,163237,1,8,0:3:0:0:
480,320,163553,5,6,1:1:0:0:
0,224,164500,5,6,1:1:0:0:
512,96,165448,5,6,1:1:0:0:
432,104,165606,1,0,1:2:0:0:
376,159,165763,1,8,0:3:0:0:
366,238,165921,1,8,0:3:0:0:
408,306,166079,1,4,0:3:0:0:
483,333,166237,1,4,0:3:0:0:
376,159,166395,6,0,L|284:145,1,90,6|0,1:1|0:2,0:2:0:0:
224,312,166711,2,0,L|282:239,1,90,8|0,0:3|0:2,0:2:0:0:
167,104,167027,2,0,L|201:191,1,90,4|0,0:3|0:2,0:2:0:0:
512,192,167342,5,6,1:1:0:0:
256,384,168290,5,6,1:1:0:0:
0,192,169237,5,6,1:1:0:0:
256,0,170184,5,6,1:1:0:0:
256,192,170500,1,8,0:3:0:0:
256,384,170816,1,4,0:3:0:0:
128,48,171132,6,0,P|86:64|63:101,1,90,6|0,1:1|0:2,0:2:0:0:
148,208,171448,2,0,P|154:164|133:124,1,90,0|0,1:0|0:0,0:0:0:0:
0,145,171763,2,0,P|34:172|79:174,1,90,0|0,1:0|0:0,0:0:0:0:
384,48,172079,6,0,P|425:64|448:101,1,90,6|0,1:1|0:2,0:2:0:0:
364,208,172395,2,0,P|357:164|378:124,1,90,0|0,1:0|0:0,0:0:0:0:
512,145,172711,2,0,P|477:172|432:174,1,90,0|0,1:0|0:0,0:0:0:0:
96,96,173027,5,6,1:1:0:0:
96,96,173184,2,0,L|83:4,1,90,10|0,0:2|0:2,0:2:0:0:
351,297,173500,5,10,0:3:0:0:
351,297,173658,2,0,L|364:205,1,90,6|0,0:3|0:2,0:2:0:0:
32,384,173974,5,6,1:1:0:0:
32,384,174132,2,0,L|19:292,1,90,2|8,0:2|0:3,0:2:0:0:
128,160,174448,1,10,0:3:0:0:
141,281,174606,1,6,0:3:0:0:
6,173,174763,1,4,0:3:0:0:
166,299,174921,6,0,B|215:320|215:320|273:292,1,107.999996704102,6|0,1:1|1:2,0:2:0:0:
410,140,175237,1,2,0:2:0:0:
426,44,175395,1,2,1:2:0:0:
314,124,175553,1,2,1:2:0:0:
330,220,175711,1,2,0:2:0:0:
298,28,175869,2,0,L|189:10,1,107.999996704102,10|0,0:2|0:2,0:2:0:0:
64,64,176184,1,2,0:2:0:0:
80,160,176342,1,2,0:2:0:0:
0,337,176500,1,2,1:2:0:0:
16,241,176658,1,2,0:2:0:0:
192,384,176816,5,2,1:2:0:0:
192,384,176974,2,0,P|241:382|301:365,1,107.999996704102,2|0,1:2|0:2,0:2:0:0:
512,241,177290,1,2,1:2:0:0:
512,241,177448,2,0,P|463:239|403:222,1,107.999996704102,2|0,1:2|0:2,0:2:0:0:
288,0,177763,1,10,0:2:0:0:
416,352,178079,1,2,0:2:0:0:
47,286,178395,1,2,1:2:0:0:
427,55,178711,6,0,L|448:160,1,107.999996704102,2|0,1:2|1:2,0:2:0:0:
416,352,179027,1,2,0:2:0:0:
432,256,179184,1,2,1:2:0:0:
245,275,179342,1,2,1:2:0:0:
341,291,179500,1,2,0:2:0:0:
154,310,179658,1,10,0:2:0:0:
170,214,179816,1,2,0:2:0:0:
186,118,179974,2,0,L|170:11,1,107.999996704102,2|0,0:2|0:2,0:2:0:0:
0,128,180290,2,0,L|15:234,1,107.999996704102,2|0,1:2|0:2,0:2:0:0:
256,384,180606,6,0,P|308:377|347:341,1,107.999996704102,2|0,1:2|1:2,0:2:0:0:
170,214,180921,2,0,P|149:263|160:315,1,107.999996704102,2|0,0:2|1:2,0:2:0:0:
360,224,181237,2,0,P|327:181|277:165,1,107.999996704102,2|0,1:2|0:2,0:2:0:0:
0,128,181553,2,0,P|32:85|82:69,1,107.999996704102,10|0,0:2|0:2,0:2:0:0:
385,154,181869,2,0,L|277:165,1,107.999996704102,2|0,1:2|0:2,0:2:0:0:
0,320,182184,2,0,L|108:332,1,107.999996704102,2|0,1:2|0:2,0:2:0:0:
477,378,182500,6,0,B|501:329|501:329|481:279,1,107.999996704102,6|0,1:1|1:2,0:2:0:0:
319,309,182816,1,2,0:2:0:0:
415,325,182974,1,2,1:2:0:0:
257,384,183132,1,2,1:2:0:0:
161,368,183290,1,2,0:2:0:0:
381,234,183448,2,0,L|363:110,1,107.999996704102,10|0,0:2|0:2,0:2:0:0:
466,17,183763,1,2,0:2:0:0:
450,113,183921,1,2,0:2:0:0:
282,141,184079,1,2,1:2:0:0:
298,45,184237,1,2,0:2:0:0:
129,73,184395,6,0,P|76:66|30:38,1,107.999996704102,2|0,1:2|1:2,0:2:0:0:
166,271,184711,1,2,0:2:0:0:
166,271,184869,2,0,P|219:264|266:237,1,107.999996704102,2|0,1:2|1:2,0:2:0:0:
0,384,185184,1,2,0:2:0:0:
0,384,185342,1,10,0:2:0:0:
256,64,185658,1,2,0:2:0:0:
512,384,185974,1,2,1:2:0:0:
64,256,186290,5,6,1:1:0:0:
64,256,186448,2,0,P|47:204|47:151,1,107.999996704102,0|0,1:0|0:0,0:0:0:0:
224,0,186763,1,0,1:2:0:0:
224,0,186921,2,0,P|207:51|207:104,1,107.999996704102,0|0,1:0|0:0,0:0:0:0:
320,320,187237,1,10,0:2:0:0:
432,48,187553,1,0,1:2:0:0:
128,288,187869,1,0,1:2:0:0:
0,68,188184,5,6,1:1:0:0:
35,198,188342,2,0,L|24:90,1,107.999996704102,8|0,0:2|0:2,0:2:0:0:
208,16,188658,1,0,1:2:0:0:
173,146,188816,2,0,L|183:38,1,107.999996704102,8|0,0:2|0:2,0:2:0:0:
384,0,189132,1,10,0:2:0:0:
416,160,189290,1,8,0:2:0:0:
447,320,189448,2,0,P|384:365|309:342,1,161.999995056153,2|0,1:2|0:2,0:2:0:0:
258,290,189763,2,0,P|183:267|119:312,1,161.999995056153,2|0,1:2|0:2,0:2:0:0:
102,384,190079,5,0,0:2:0:0:
89,103,192289,5,0,0:2:0:0:
200,12,194184,1,0,0:2:0:0:
344,25,196079,1,0,0:2:0:0:
435,136,197973,1,0,0:2:0:0:
422,280,199868,1,0,0:2:0:0:
311,371,201763,1,0,0:2:0:0:
167,358,203658,1,0,0:2:0:0:
76,247,205552,1,0,0:2:0:0:
75,246,207447,6,0,P|44:183|62:115,1,143.999995605469,2|0,0:0|0:0,0:0:0:0:
126,79,208395,2,0,L|279:69,1,143.999995605469,2|0,0:0|0:0,0:0:0:0:
470,113,209342,2,0,P|406:81|338:99,1,143.999995605469,2|0,0:0|0:0,0:0:0:0:
302,163,210290,2,0,L|292:316,1,143.999995605469,2|0,0:0|0:0,0:0:0:0:
85,213,211237,6,0,P|50:213|17:226,2,71.9999978027344,2|0|0,0:0|0:0|0:0,0:0:0:0:
137,284,212184,2,0,P|118:314|113:350,2,71.9999978027344,2|0|0,0:0|0:0|0:0,0:0:0:0:
223,274,213131,2,0,P|240:305|268:327,2,71.9999978027344,2|0|0,0:0|0:0|0:0,0:0:0:0:
257,194,214079,2,0,P|292:194|325:181,2,71.9999978027344,2|0|0,0:0|0:0|0:0,0:0:0:0:
15,94,215026,6,0,P|76:129|146:123,1,143.999995605469,2|0,0:0|0:0,0:0:0:0:
199,66,215974,2,0,L|350:49,1,120,2|0,0:0|0:0,0:0:0:0:
386,89,217022,2,0,P|366:131|376:177,1,96,2|0,0:0|0:0,0:0:0:0:
419,236,217945,2,0,P|434:267|428:302,1,71.9999978027344,2|0,0:0|0:0,0:0:0:0:
352,384,219004,5,2,0:0:0:0:
