osu file format v14

[General]
AudioFilename: audio.mp3
AudioLeadIn: 0
PreviewTime: 44421
Countdown: 0
SampleSet: Soft
StackLeniency: 0.4
Mode: 0
LetterboxInBreaks: 0
WidescreenStoryboard: 0

[Editor]
DistanceSpacing: 0.5
BeatDivisor: 4
GridSize: 32
TimelineZoom: 1.8

[Metadata]
Title:Yomei Mikka Shoujo
TitleUnicode:余命3日少女
Artist:Mi Bai
ArtistUnicode:米白
Creator:Mordred
Version:Hard
Source:
Tags:プロペリン 万玄斎 神谷志龍 japanese pop
BeatmapID:2493674
BeatmapSetID:1192177

[Difficulty]
HPDrainRate:6
CircleSize:4
OverallDifficulty:7
ApproachRate:7.5
SliderMultiplier:1.6
SliderTickRate:3

[Events]
//Background and Video events
0,0,"79939781_p0_master1200.jpg",0,0
Video,-180,"blobsadcloud.mp4"
//Break Periods
2,83974,98307
//Storyboard Layer 0 (Background)
//Storyboard Layer 1 (Fail)
//Storyboard Layer 2 (Pass)
//Storyboard Layer 3 (Foreground)
//Storyboard Layer 4 (Overlay)
//Storyboard Sound Samples

[TimingPoints]
606,947.36842105313,2,2,1,60,1,0
15763,-41.6666666666667,3,2,1,60,0,0
44420,-125,3,2,1,5,0,0
44499,-38.4615384615385,3,2,1,70,0,0
44736,-100,3,2,1,5,0,0
44815,-31.25,3,2,1,70,0,0
45052,-83.3333333333333,3,2,1,5,0,0
45131,-26.3157894736842,3,2,1,70,0,0
45368,-71.4285714285714,3,2,1,5,0,0
45447,-22.7272727272727,3,2,1,70,0,0
45684,-62.5,3,2,1,5,0,0
45763,-62.5,3,2,1,70,0,0
46079,-33.3333333333333,3,2,1,70,0,1
76395,-100,3,2,1,70,0,0
77341,-100,3,2,1,50,0,0
83973,-55.5555555555556,3,2,1,60,0,0
99131,-41.6666666666667,3,2,1,60,0,0
127789,-41.6666666666667,3,2,1,5,0,0
127868,-38.4615384615385,3,2,1,50,0,0
128105,-100,3,2,1,5,0,0
128184,-31.25,3,2,1,55,0,0
128420,-83.3333333333333,3,2,1,5,0,0
128499,-26.3157894736842,3,2,1,60,0,0
128736,-71.4285714285714,3,2,1,5,0,0
128815,-22.7272727272727,3,2,1,66,0,0
129052,-62.5,3,2,1,5,0,0
129131,-62.5,3,2,1,66,0,0
129448,-33.3333333333333,3,2,1,70,0,1
159763,-33.3333333333333,3,2,1,70,0,0
174921,-27.7777777777778,3,2,1,70,0,1
189684,-27.7777777777778,3,2,1,5,0,1
189763,-27.7777777777778,3,2,1,70,0,1
189999,-27.7777777777778,3,2,1,5,0,1
190079,-83.3333333333333,3,2,1,50,0,0
192289,947.36842105313,2,2,1,50,1,0
207446,-83.3333333333333,3,2,1,60,0,0
215974,1028.57142857202,2,2,1,60,1,0
216659,1090.90909090909,2,2,1,50,1,0
217022,857.142857142857,2,2,1,50,1,0
217022,-125,2,2,1,50,0,0
217593,1058.82352941189,2,2,1,50,1,0
217945,947.36842105313,2,2,1,50,1,0
217945,-166.666666666667,2,2,1,50,0,0
218576,1285.71428571337,2,2,1,50,1,0
219004,1551.7241379297,2,2,1,50,1,0

[Colours]
Combo1 : 250,180,240
Combo2 : 110,190,225
Combo3 : 255,230,130
Combo4 : 150,230,140

[HitObjects]
38,381,15763,6,0,P|25:351|23:319,1,63.9999980468751,6|0,1:1|1:2,0:0:0:0:
62,245,16079,2,0,P|91:232|123:230,1,63.9999980468751,0|0,0:2|1:2,0:0:0:0:
199,265,16395,2,0,P|230:262|260:250,1,63.9999980468751,0|0,1:2|0:2,0:0:0:0:
306,180,16711,1,10,0:2:0:0:
402,315,17027,1,0,0:2:0:0:
471,165,17342,1,0,0:2:0:0:
375,30,17658,6,0,L|247:21,1,127.99999609375,2|0,0:2|0:2,0:0:0:0:
184,75,18132,1,0,1:2:0:0:
184,75,18290,2,0,P|172:104|165:136,1,63.9999980468751,0|0,1:2|0:2,0:0:0:0:
215,203,18606,1,10,0:2:0:0:
54,161,18921,1,0,0:2:0:0:
12,322,19237,1,0,1:2:0:0:
173,364,19553,6,0,L|236:355,1,63.9999980468751,2|0,1:2|1:2,0:0:0:0:
270,278,19869,2,0,L|206:269,1,63.9999980468751,0|0,0:0|1:0,0:0:0:0:
173,192,20184,2,0,L|236:183,1,63.9999980468751,0|0,1:0|0:0,0:0:0:0:
317,204,20500,1,10,0:2:0:0:
401,60,20816,1,0,0:0:0:0:
484,205,21132,1,0,0:0:0:0:
399,348,21448,6,0,P|336:338|272:335,1,127.99999609375,2|0,0:2|0:2,0:0:0:0:
198,373,21921,1,0,1:2:0:0:
198,373,22079,1,0,1:2:0:0:
61,276,22395,1,8,0:2:0:0:
229,274,22711,1,0,0:2:0:0:
95,375,23027,1,0,1:2:0:0:
145,215,23342,5,2,1:2:0:0:
145,215,23500,1,0,1:2:0:0:
198,373,23816,1,0,1:2:0:0:
198,373,23974,1,0,1:2:0:0:
365,372,24290,1,10,0:2:0:0:
416,213,24606,1,0,0:0:0:0:
281,116,24921,1,0,0:0:0:0:
144,215,25237,6,0,P|82:209|50:151,1,127.99999609375,2|0,0:2|0:2,0:0:0:0:
54,74,25711,1,0,1:2:0:0:
54,74,25869,1,0,1:2:0:0:
200,152,26184,1,8,0:2:0:0:
332,52,26500,1,0,0:2:0:0:
484,117,26816,1,0,1:2:0:0:
353,217,27132,5,2,1:2:0:0:
353,217,27290,1,0,1:2:0:0:
200,152,27606,1,0,1:2:0:0:
200,152,27763,1,0,1:2:0:0:
59,241,28079,2,0,P|43:303|37:366,2,127.99999609375,10|0|0,0:2|0:2|1:2,0:0:0:0:
200,152,29027,5,2,1:2:0:0:
200,152,29184,1,0,1:2:0:0:
353,217,29500,1,0,1:2:0:0:
353,217,29658,1,0,1:2:0:0:
484,117,29974,1,8,0:2:0:0:
332,52,30290,1,8,0:3:0:0:
353,217,30606,1,4,0:3:0:0:
374,382,30921,6,0,L|311:370,1,63.9999980468751,6|0,1:1|1:2,0:0:0:0:
227,379,31237,2,0,L|190:326,1,63.9999980468751,0|0,0:0|1:0,0:0:0:0:
125,272,31553,2,0,L|136:209,1,63.9999980468751,0|0,1:0|0:0,0:0:0:0:
206,163,31869,1,10,0:2:0:0:
84,50,32184,1,0,0:2:0:0:
50,212,32500,1,0,0:2:0:0:
172,326,32816,6,0,L|233:341,1,63.9999980468751,2|0,0:2|0:2,0:0:0:0:
306,384,33132,2,0,L|361:351,1,63.9999980468751,0|0,0:0|1:0,0:0:0:0:
443,330,33448,2,0,L|458:268,1,63.9999980468751,0|0,1:0|0:0,0:0:0:0:
509,202,33763,1,10,0:2:0:0:
364,118,34079,1,0,0:2:0:0:
510,35,34395,1,0,1:2:0:0:
412,201,34711,6,0,P|382:211|350:212,1,63.9999980468751,2|0,1:2|1:2,0:0:0:0:
277,170,35027,2,0,P|267:139|266:107,1,63.9999980468751,0|0,0:0|1:0,0:0:0:0:
209,47,35342,2,0,P|178:37|146:36,1,63.9999980468751,0|0,1:0|0:0,0:0:0:0:
74,79,35658,2,0,L|56:205,1,127.99999609375,10|0,0:2|0:2,0:0:0:0:
1,363,36290,1,0,0:2:0:0:
164,331,36606,6,0,L|290:349,1,127.99999609375,2|0,0:2|0:2,0:0:0:0:
371,384,37079,1,0,1:2:0:0:
371,384,37237,1,0,1:2:0:0:
234,292,37553,1,8,0:2:0:0:
276,133,37869,1,0,0:2:0:0:
441,124,38184,1,0,1:2:0:0:
500,279,38500,5,2,1:2:0:0:
500,279,38658,1,0,1:2:0:0:
441,124,38974,1,0,1:2:0:0:
441,124,39132,1,0,1:2:0:0:
304,219,39448,2,0,L|160:202,1,127.99999609375,10|0,0:2|0:2,0:0:0:0:
19,258,40079,1,0,1:2:0:0:
53,95,40395,5,2,1:2:0:0:
53,95,40553,1,0,1:2:0:0:
176,204,40869,1,0,1:2:0:0:
176,204,41027,1,0,1:2:0:0:
322,125,41342,2,0,L|339:-2,2,127.99999609375,10|0|0,0:2|0:2|1:2,0:0:0:0:
439,244,42290,1,2,0:2:0:0:
439,244,43869,1,8,0:3:0:0:
434,269,43948,1,8,0:3:0:0:
429,294,44027,1,4,0:3:0:0:
424,319,44106,1,4,0:3:0:0:
420,344,44184,6,0,L|325:360,1,95.9999970703126,4|0,1:2|0:2,0:0:0:0:
280,383,44500,6,0,P|300:336|291:286,1,103.999995239258,2|0,1:2|0:2,0:0:0:0:
260,249,44816,6,0,P|319:262|363:219,1,128,2|0,1:2|0:2,0:0:0:0:
359,175,45132,6,0,L|207:158,1,151.999995941162,10|0,0:2|0:2,0:0:0:0:
197,123,45448,6,0,L|378:143,1,176.000005371094,10|0,0:2|0:2,0:0:0:0:
416,115,45763,1,10,0:2:0:0:
512,160,45921,1,8,0:2:0:0:
488,267,46079,6,0,L|313:247,1,160.000006103516,6|0,1:1|0:2,0:0:0:0:
265,296,46553,1,8,0:2:0:0:
192,192,46711,2,0,L|112:183,1,80.0000030517579,2|0,0:2|0:2,0:0:0:0:
8,110,47027,2,0,L|25:269,2,160.000006103516,10|0|2,0:2|0:2|1:2,0:0:0:0:
176,16,47974,5,2,1:2:0:0:
176,16,48132,2,0,P|214:27|254:30,1,80.0000030517579,0|0,1:0|0:0,0:0:0:0:
406,95,48448,1,0,1:2:0:0:
406,95,48606,2,0,P|368:106|328:109,1,80.0000030517579,2|0,1:2|0:2,0:0:0:0:
231,188,48921,2,0,L|255:22,2,160.000006103516,10|0|2,0:2|0:2|1:2,0:0:0:0:
37,310,49869,6,0,B|87:283|87:283|183:318,1,160.000006103516,6|0,1:1|0:2,0:0:0:0:
232,380,50342,1,8,0:2:0:0:
352,320,50500,2,0,L|367:237,1,80.0000030517579,2|0,0:2|0:2,0:0:0:0:
460,151,50816,2,0,P|395:194|319:176,1,160.000006103516,10|0,0:2|0:2,0:0:0:0:
194,9,51448,1,2,1:2:0:0:
112,201,51763,6,0,P|119:240|137:275,1,80.0000030517579,2|0,1:2|1:2,0:0:0:0:
166,361,52079,2,0,P|196:335|217:301,1,80.0000030517579,2|0,0:2|1:2,0:0:0:0:
278,234,52395,2,0,P|240:220|200:218,1,80.0000030517579,2|0,1:2|0:2,0:0:0:0:
51,264,52711,6,0,P|32:228|25:189,1,80.0000030517579,14|0,0:2|0:2,0:0:0:0:
163,141,53027,2,0,P|142:175|112:201,1,80.0000030517579,2|0,0:2|0:2,0:0:0:0:
2,106,53342,2,0,P|41:107|79:121,1,80.0000030517579,2|0,1:2|0:2,0:0:0:0:
222,213,53658,6,0,B|277:262|277:262|438:222,1,240.000009155274,6|8,1:1|0:2,0:0:0:0:
512,104,54290,2,0,L|356:142,1,160.000006103516,2|8,0:2|0:2,0:0:0:0:
204,26,54921,2,0,L|281:45,1,80.0000030517579,2|0,0:2|0:2,0:0:0:0:
192,128,55237,2,0,L|114:108,1,80.0000030517579,2|0,1:2|0:2,0:0:0:0:
0,64,55553,5,2,1:2:0:0:
0,64,55711,2,0,P|14:101|19:140,1,80.0000030517579,0|0,1:0|0:0,0:0:0:0:
0,272,56027,1,0,1:2:0:0:
0,271,56185,2,0,P|73:248|138:290,1,160.000006103516,2|8,1:2|0:2,0:0:0:0:
320,384,56816,2,0,P|359:382|398:372,1,80.0000030517579,2|0,0:2|0:2,0:0:0:0:
512,301,57132,2,0,P|472:299|433:289,1,80.0000030517579,2|0,1:2|0:2,0:0:0:0:
320,192,57448,6,0,L|307:112,1,80.0000030517579,6|0,1:1|0:2,0:0:0:0:
294,11,57763,2,0,L|368:40,1,80.0000030517579,2|8,0:2|0:2,0:0:0:0:
463,78,58079,2,0,L|400:128,1,80.0000030517579,2|0,0:2|0:2,0:0:0:0:
320,192,58395,2,0,L|307:271,1,80.0000030517579,10|0,0:2|0:2,0:0:0:0:
221,365,58711,2,0,L|208:285,1,80.0000030517579,2|0,0:2|0:2,0:0:0:0:
122,192,59027,2,0,L|109:271,1,80.0000030517579,2|0,1:2|0:2,0:0:0:0:
23,365,59342,5,2,1:2:0:0:
23,365,59500,2,0,L|10:285,1,80.0000030517579,0|0,1:2|0:0,0:0:0:0:
122,192,59816,1,0,1:2:0:0:
122,192,59974,2,0,L|201:204,1,80.0000030517579,2|0,1:2|0:2,0:0:0:0:
288,288,60290,1,10,0:2:0:0:
288,288,60448,1,8,0:2:0:0:
373,229,60606,1,10,0:3:0:0:
373,229,60764,1,8,0:3:0:0:
470,284,60921,1,6,0:3:0:0:
470,284,61079,1,4,0:3:0:0:
486,175,61237,6,0,P|461:102|387:78,1,160.000006103516,6|0,1:1|0:2,0:0:0:0:
317,116,61711,1,8,0:2:0:0:
224,32,61869,2,0,L|132:22,1,80.0000030517579,2|0,0:2|0:2,0:0:0:0:
30,134,62184,2,0,L|189:116,2,160.000006103516,10|0|2,0:2|0:2|1:2,0:0:0:0:
0,352,63132,5,2,1:2:0:0:
0,352,63290,2,0,P|37:364|77:367,1,80.0000030517579,0|0,1:0|0:0,0:0:0:0:
192,288,63606,1,0,1:2:0:0:
192,287,63763,2,0,P|230:277|270:278,1,80.0000030517579,2|0,1:2|0:2,0:0:0:0:
385,384,64079,2,0,L|369:224,2,160.000006103516,10|0|2,0:2|0:2|1:2,0:0:0:0:
512,160,65027,6,0,L|504:80,1,80.0000030517579,6|0,1:1|0:2,0:0:0:0:
449,0,65342,2,0,L|369:7,1,80.0000030517579,2|8,0:2|0:2,0:0:0:0:
289,63,65658,2,0,L|296:142,1,80.0000030517579,2|0,0:2|0:2,0:0:0:0:
439,294,65974,6,0,L|431:214,1,80.0000030517579,10|0,0:2|0:2,0:0:0:0:
376,135,66290,2,0,L|296:142,1,80.0000030517579,2|0,0:2|0:2,0:0:0:0:
216,197,66605,2,0,L|223:276,1,80.0000030517579,2|0,1:2|0:2,0:0:0:0:
142,331,66921,2,0,L|63:339,1,80.0000030517579,2|0,1:2|1:2,0:0:0:0:
7,258,67237,2,0,L|0:179,1,80.0000030517579,2|0,0:2|1:2,0:0:0:0:
80,123,67553,2,0,L|159:115,1,80.0000030517579,2|0,1:2|0:2,0:0:0:0:
302,267,67869,6,0,L|222:274,1,80.0000030517579,14|0,0:2|0:2,0:0:0:0:
167,194,68184,2,0,L|159:114,1,80.0000030517579,2|0,0:2|0:2,0:0:0:0:
239,58,68501,2,0,L|318:50,1,80.0000030517579,2|0,1:2|0:2,0:0:0:0:
489,100,68816,6,0,P|529:207|456:295,1,240.000009155274,6|8,1:1|0:2,0:0:0:0:
333,305,69448,2,0,L|254:297,1,80.0000030517579,2|0,0:2|0:2,0:0:0:0:
161,384,69763,2,0,L|145:224,1,160.000006103516,10|0,0:2|0:2,0:0:0:0:
0,32,70395,2,0,L|79:40,1,80.0000030517579,2|0,1:2|0:2,0:0:0:0:
224,0,70711,5,2,1:2:0:0:
223,0,70869,2,0,P|206:36|197:75,1,80.0000030517579,0|0,1:0|0:0,0:0:0:0:
269,175,71184,1,0,1:2:0:0:
270,175,71342,2,0,P|286:138|295:99,1,80.0000030517579,2|0,1:2|0:2,0:0:0:0:
162,198,71658,2,0,L|178:358,2,160.000006103516,10|0|2,0:2|0:2|1:2,0:0:0:0:
323,15,72606,6,0,P|400:8|455:62,1,160.000006103516,6|0,1:1|0:2,0:0:0:0:
456,142,73079,1,8,0:2:0:0:
330,108,73237,2,0,L|251:121,1,80.0000030517579,2|0,0:2|0:2,0:0:0:0:
127,73,73553,2,0,P|116:111|120:150,1,80.0000030517579,10|0,0:2|0:2,0:0:0:0:
39,201,73869,2,0,P|66:229|102:245,1,80.0000030517579,2|0,0:2|0:2,0:0:0:0:
105,341,74184,2,0,P|143:331|175:308,1,80.0000030517579,2|0,1:2|0:2,0:0:0:0:
320,288,74500,5,2,1:2:0:0:
320,288,74658,2,0,L|397:306,1,80.0000030517579,0|0,1:0|0:0,0:0:0:0:
495,188,74974,1,0,1:2:0:0:
495,188,75132,2,0,L|417:206,1,80.0000030517579,0|0,1:2|0:2,0:0:0:0:
288,160,75448,1,10,0:2:0:0:
479,64,75763,1,8,0:3:0:0:
466,277,76079,1,4,0:3:0:0:
355,56,76395,5,4,1:1:0:0:
355,56,77342,1,2,0:2:0:0:
355,56,77974,1,0,1:2:0:0:
249,71,78290,1,2,1:2:0:0:
249,71,78448,1,0,1:2:0:0:
143,86,78763,1,0,1:2:0:0:
143,86,78921,1,0,1:2:0:0:
370,162,79237,1,2,0:2:0:0:
370,162,79869,1,0,1:2:0:0:
305,248,80184,5,2,1:2:0:0:
199,263,81132,1,2,1:2:0:0:
93,278,82079,1,2,1:2:0:0:
70,321,99132,6,0,P|62:291|58:259,1,63.9999980468751,6|0,1:1|0:2,0:0:0:0:
95,169,99448,2,0,P|125:161|157:157,1,63.9999980468751,0|0,0:0|0:0,0:0:0:0:
247,194,99763,2,0,P|255:224|259:256,1,63.9999980468751,0|0,0:0|0:0,0:0:0:0:
323,328,100079,2,0,P|353:336|385:340,1,63.9999980468751,10|0,0:2|0:2,0:0:0:0:
472,296,100395,2,0,P|480:266|484:234,1,63.9999980468751,0|0,0:0|0:0,0:0:0:0:
413,167,100711,2,0,P|405:137|401:105,1,63.9999980468751,0|0,1:0|0:0,0:0:0:0:
512,11,101027,6,0,P|482:19|450:23,1,63.9999980468751,2|0,1:2|0:2,0:0:0:0:
355,1,101342,2,0,P|323:4|292:13,1,63.9999980468751,0|0,0:0|0:0,0:0:0:0:
244,97,101658,2,0,P|247:128|256:159,1,63.9999980468751,0|0,0:0|0:0,0:0:0:0:
326,226,101974,1,10,0:2:0:0:
146,157,102290,1,0,0:2:0:0:
10,293,102606,1,0,1:2:0:0:
190,362,102921,6,0,L|179:298,1,63.9999980468751,2|0,1:2|0:2,0:0:0:0:
88,266,103237,2,0,L|77:202,1,63.9999980468751,0|0,0:0|0:0,0:0:0:0:
112,112,103553,2,0,L|175:101,1,63.9999980468751,0|0,0:0|0:0,0:0:0:0:
260,146,103869,2,0,L|323:135,1,63.9999980468751,10|0,0:2|0:2,0:0:0:0:
370,52,104184,2,0,L|433:41,1,63.9999980468751,0|0,0:0|0:0,0:0:0:0:
496,114,104500,2,0,L|506:177,1,63.9999980468751,0|0,1:0|0:0,0:0:0:0:
472,267,104816,5,2,1:2:0:0:
309,164,105132,1,0,0:2:0:0:
302,357,105448,1,0,0:2:0:0:
420,168,105763,5,10,0:2:0:0:
249,258,106079,1,0,0:2:0:0:
413,360,106395,1,0,1:2:0:0:
308,163,106711,6,0,P|251:151|168:143,1,127.99999609375,6|0,1:1|0:0,0:0:0:0:
18,242,107342,1,0,0:2:0:0:
67,56,107658,2,0,P|77:86|82:117,1,63.9999980468751,10|0,0:2|0:2,0:0:0:0:
119,207,107974,2,0,P|108:237|103:268,1,63.9999980468751,0|0,0:0|0:0,0:0:0:0:
139,358,108290,2,0,P|169:368|200:373,1,63.9999980468751,0|0,1:0|0:0,0:0:0:0:
282,321,108606,5,2,1:2:0:0:
302,194,108921,1,0,0:2:0:0:
322,67,109237,1,0,0:2:0:0:
402,275,109553,5,10,0:2:0:0:
422,148,109868,1,0,0:2:0:0:
442,21,110184,1,0,1:2:0:0:
302,194,110500,6,0,P|241:212|181:195,1,127.99999609375,2|0,1:2|0:2,0:0:0:0:
91,54,111132,1,0,0:2:0:0:
6,197,111448,2,0,P|58:161|117:135,1,127.99999609375,10|0,0:2|0:2,0:0:0:0:
281,165,112079,1,0,1:2:0:0:
397,46,112395,5,2,1:2:0:0:
442,205,112711,1,0,0:2:0:0:
487,364,113027,1,0,0:2:0:0:
326,324,113342,5,10,0:2:0:0:
281,165,113658,1,0,0:2:0:0:
236,6,113974,1,0,0:2:0:0:
121,125,114290,5,0,0:2:0:0:
67,331,117132,5,8,0:2:0:0:
67,331,117290,1,0,0:2:0:0:
51,235,117448,1,8,0:3:0:0:
51,235,117606,1,0,0:2:0:0:
35,139,117763,1,4,0:3:0:0:
35,139,117921,1,0,0:2:0:0:
88,55,118079,6,0,P|117:42|148:39,1,63.9999980468751,6|0,1:1|0:2,0:0:0:0:
220,103,118395,2,0,P|249:116|280:119,1,63.9999980468751,0|0,0:0|0:0,0:0:0:0:
352,55,118711,2,0,P|381:42|412:39,1,63.9999980468751,0|0,0:0|0:0,0:0:0:0:
512,164,119027,2,0,L|494:37,2,127.99999609375,10|0|0,0:2|0:2|1:2,0:0:0:0:
439,341,119974,5,2,1:2:0:0:
256,281,120290,1,0,0:2:0:0:
400,153,120606,1,0,0:2:0:0:
330,363,120921,5,10,0:2:0:0:
290,175,121237,1,0,0:2:0:0:
473,235,121553,1,0,1:2:0:0:
256,281,121869,6,0,P|161:262|66:251,1,191.999994140625,6|0,1:1|0:2,0:0:0:0:
10,329,122500,2,0,P|41:332|73:337,1,63.9999980468751,0|0,0:2|0:2,0:0:0:0:
158,383,122816,2,0,P|221:376|284:367,1,127.99999609375,10|0,0:2|0:2,0:0:0:0:
346,184,123448,1,0,1:2:0:0:
455,341,123763,6,0,B|488:363|488:363|506:189,1,191.999994140625,6|0,1:1|0:2,0:0:0:0:
436,142,124395,2,0,L|423:79,1,63.9999980468751,0|0,0:0|0:0,0:0:0:0:
487,6,124711,1,10,0:2:0:0:
315,91,125027,1,0,0:2:0:0:
302,282,125342,1,0,1:2:0:0:
129,366,125658,6,0,P|69:345|6:337,2,127.99999609375,6|0|0,1:1|0:2|0:2,0:0:0:0:
302,282,126606,2,0,P|362:260|425:252,2,127.99999609375,10|0|8,0:2|0:2|0:3,0:0:0:0:
279,270,127316,1,8,0:3:0:0:
256,258,127395,1,4,0:3:0:0:
233,246,127474,1,4,0:3:0:0:
210,234,127553,6,0,L|198:138,1,95.9999970703126,4|0,1:1|0:2,0:0:0:0:
218,97,127869,6,0,P|165:123|106:117,1,103.999995239258,2|0,1:2|0:2,0:0:0:0:
78,90,128184,6,0,L|95:232,1,128,2|0,1:2|0:2,0:0:0:0:
66,262,128500,6,0,P|144:239|213:282,1,151.999995941162,10|0,0:2|0:2,0:0:0:0:
226,313,128816,6,0,P|320:339|403:287,1,176.000005371094,10|0,0:2|0:2,0:0:0:0:
389,266,129132,1,10,0:2:0:0:
487,196,129290,1,8,0:2:0:0:
448,85,129448,6,0,B|393:112|393:112|296:85,1,160.000006103516,6|0,1:1|0:2,0:0:0:0:
252,19,129921,1,8,0:2:0:0:
128,0,130079,2,0,L|49:16,1,80.0000030517579,2|0,0:2|0:2,0:0:0:0:
0,157,130395,2,0,L|29:-1,2,160.000006103516,10|0|2,0:2|0:2|1:2,0:0:0:0:
32,351,131342,5,2,1:2:0:0:
32,351,131500,2,0,P|69:365|108:369,1,80.0000030517579,0|0,1:0|0:0,0:0:0:0:
251,278,131816,1,0,1:2:0:0:
251,278,131974,2,0,P|214:292|175:296,1,80.0000030517579,2|0,1:2|0:2,0:0:0:0:
80,240,132290,1,10,0:2:0:0:
224,384,132606,1,2,0:2:0:0:
277,188,132921,2,0,L|355:172,1,80.0000030517579,2|0,1:2|0:0,0:0:0:0:
446,243,133237,6,0,P|407:175|431:100,1,160.000006103516,6|0,1:1|0:2,0:0:0:0:
498,60,133711,1,8,0:2:0:0:
388,2,133869,2,0,L|310:18,1,80.0000030517579,2|0,0:2|0:2,0:0:0:0:
256,96,134184,1,10,0:2:0:0:
446,243,134500,1,0,0:2:0:0:
224,335,134816,1,2,1:2:0:0:
33,187,135132,6,0,P|19:151|20:111,1,80.0000030517579,2|0,1:2|1:2,0:0:0:0:
10,29,135448,2,0,P|49:34|83:55,1,80.0000030517579,2|0,0:2|1:2,0:0:0:0:
159,87,135763,2,0,P|134:118|99:136,1,80.0000030517579,2|0,1:2|0:2,0:0:0:0:
0,272,136079,6,0,L|14:350,1,80.0000030517579,14|0,0:2|0:2,0:0:0:0:
144,384,136395,2,0,L|158:305,1,80.0000030517579,2|0,0:2|0:2,0:0:0:0:
288,272,136711,2,0,L|302:350,1,80.0000030517579,2|0,1:2|0:2,0:0:0:0:
448,384,137027,6,0,L|497:116,1,240.000009155274,6|8,1:1|0:2,0:0:0:0:
415,27,137658,2,0,L|385:184,1,160.000006103516,2|8,0:2|0:2,0:0:0:0:
303,351,138290,2,0,L|224:365,1,80.0000030517579,2|0,0:2|0:2,0:0:0:0:
128,288,138606,2,0,L|206:273,1,80.0000030517579,2|0,1:2|0:2,0:0:0:0:
292,197,138921,5,2,1:2:0:0:
292,196,139079,2,0,P|304:158|309:118,1,80.0000030517579,0|0,1:0|0:0,0:0:0:0:
353,0,139395,1,0,1:2:0:0:
353,0,139553,2,0,P|283:37|203:12,1,160.000006103516,2|8,1:2|0:2,0:0:0:0:
0,0,140184,2,0,P|14:37|24:75,1,80.0000030517579,2|0,0:2|0:2,0:0:0:0:
0,176,140500,2,0,P|9:214|24:251,1,80.0000030517579,2|0,1:2|0:2,0:0:0:0:
128,352,140816,6,0,L|207:344,1,80.0000030517579,6|0,1:1|0:2,0:0:0:0:
272,252,141132,2,0,L|192:244,1,80.0000030517579,2|8,0:2|0:2,0:0:0:0:
128,152,141448,2,0,L|207:144,1,80.0000030517579,2|0,0:2|0:2,0:0:0:0:
314,104,141763,2,0,L|348:27,1,80.0000030517579,10|0,0:2|0:2,0:0:0:0:
462,18,142079,2,0,L|511:85,1,80.0000030517579,2|0,0:2|0:2,0:0:0:0:
462,189,142395,2,0,L|378:198,1,80.0000030517579,2|0,1:2|0:2,0:0:0:0:
288,288,142711,5,2,1:2:0:0:
287,287,142869,2,0,P|280:247|266:209,1,80.0000030517579,0|0,1:0|0:0,0:0:0:0:
176,128,143184,1,0,1:2:0:0:
175,129,143342,2,0,P|168:168|154:206,1,80.0000030517579,2|0,1:2|0:2,0:0:0:0:
64,285,143658,1,10,0:2:0:0:
64,285,143816,1,8,0:2:0:0:
180,330,143974,1,10,0:3:0:0:
180,330,144132,1,8,0:3:0:0:
296,375,144290,1,6,0:3:0:0:
296,375,144448,1,4,0:3:0:0:
404,317,144606,6,0,P|436:249|391:187,1,160.000006103516,6|0,1:1|0:2,0:0:0:0:
314,172,145079,1,8,0:2:0:0:
223,250,145237,2,0,P|183:248|145:236,1,80.0000030517579,2|0,0:2|0:2,0:0:0:0:
86,149,145553,1,10,0:2:0:0:
180,357,145869,1,0,0:2:0:0:
314,172,146184,2,0,L|328:83,1,80.0000030517579,2|0,1:2|0:2,0:0:0:0:
448,0,146500,5,2,1:2:0:0:
448,0,146658,2,0,P|451:39|464:77,1,80.0000030517579,0|0,1:0|0:0,0:0:0:0:
512,188,146974,1,0,1:2:0:0:
512,188,147132,2,0,P|508:227|495:265,1,80.0000030517579,2|0,1:2|0:2,0:0:0:0:
423,351,147448,1,10,0:2:0:0:
303,162,147763,1,2,0:2:0:0:
145,321,148079,1,2,1:2:0:0:
0,160,148395,6,0,L|8:80,1,80.0000030517579,6|0,1:1|0:2,0:0:0:0:
63,0,148711,2,0,L|143:7,1,80.0000030517579,2|8,0:2|0:2,0:0:0:0:
223,63,149026,2,0,L|216:142,1,80.0000030517579,2|0,0:2|0:2,0:0:0:0:
73,294,149342,6,0,L|81:214,1,80.0000030517579,10|0,0:2|0:2,0:0:0:0:
136,135,149658,2,0,L|216:142,1,80.0000030517579,2|0,0:2|0:2,0:0:0:0:
296,197,149974,2,0,L|289:276,1,80.0000030517579,2|0,1:2|0:2,0:0:0:0:
370,331,150290,2,0,L|449:339,1,80.0000030517579,2|0,1:2|1:2,0:0:0:0:
505,258,150606,2,0,L|512:179,1,80.0000030517579
432,123,150921,2,0,L|353:115,1,80.0000030517579,2|0,1:2|0:2,0:0:0:0:
210,267,151237,6,0,L|290:274,1,80.0000030517579,14|0,0:2|0:2,0:0:0:0:
345,194,151553,2,0,L|353:114,1,80.0000030517579,2|0,0:2|0:2,0:0:0:0:
273,58,151869,2,0,L|194:50,1,80.0000030517579,2|0,1:2|0:2,0:0:0:0:
21,86,152184,6,0,B|59:147|59:147|236:168,1,240.000009155274,6|8,1:1|0:2,0:0:0:0:
353,114,152816,2,0,P|392:106|432:106,1,80.0000030517579,2|0,0:2|0:2,0:0:0:0:
512,192,153132,2,0,L|528:351,2,160.000006103516,10|0|2,0:2|0:2|1:2,0:0:0:0:
354,22,154079,5,2,1:2:0:0:
354,22,154237,2,0,P|315:32|275:36,1,80.0000030517579,0|0,1:0|0:0,0:0:0:0:
139,98,154553,1,0,1:2:0:0:
139,98,154711,2,0,P|177:108|217:112,1,80.0000030517579,2|0,1:2|0:2,0:0:0:0:
314,231,155027,2,0,L|300:71,2,160.000006103516,10|2|2,0:2|0:2|1:2,0:0:0:0:
128,384,155974,6,0,B|74:328|74:328|114:170,1,240.000009155274,6|8,1:1|0:2,0:0:0:0:
92,49,156606,2,0,P|129:62|169:64,1,80.0000030517579,2|0,0:2|0:2,0:0:0:0:
304,16,156921,2,0,P|315:54|311:93,1,80.0000030517579,10|0,0:2|0:2,0:0:0:0:
392,144,157237,2,0,P|365:172|329:188,1,80.0000030517579,2|0,0:2|0:2,0:0:0:0:
326,284,157553,2,0,P|288:274|256:251,1,80.0000030517579,2|0,1:2|0:2,0:0:0:0:
101,326,157869,5,6,1:1:0:0:
101,326,158027,2,0,L|180:336,1,80.0000030517579,0|0,1:2|0:1,0:0:0:0:
320,384,158342,1,0,1:2:0:0:
320,384,158500,2,0,L|399:373,1,80.0000030517579,0|0,1:2|0:2,0:0:0:0:
480,288,158816,1,8,0:2:0:0:
480,288,158974,1,0,1:2:0:0:
416,192,159132,1,8,0:2:0:0:
416,192,159290,1,0,1:2:0:0:
480,96,159448,2,0,L|483:52,3,40.000001525879,8|8|0|4,0:3|0:3|0:2|0:3,0:0:0:0:
452,19,159763,5,6,1:1:0:0:
192,0,160711,1,6,1:1:0:0:
173,260,161658,1,6,1:1:0:0:
433,279,162606,1,6,1:1:0:0:
313,140,162921,1,4,0:3:0:0:
173,260,163237,1,8,0:3:0:0:
53,121,163553,5,6,1:1:0:0:
96,384,164500,1,6,1:1:0:0:
359,341,165448,1,6,1:1:0:0:
368,310,165606,1,0,1:2:0:0:
378,279,165763,2,0,L|364:200,1,80.0000030517579,8|8,0:3|0:3,0:0:0:0:
258,128,166079,2,0,L|271:206,1,80.0000030517579,4|4,0:3|0:3,0:0:0:0:
228,291,166395,1,6,1:1:0:0:
0,128,166711,1,8,0:3:0:0:
255,13,167027,1,4,0:3:0:0:
67,275,167342,5,6,1:1:0:0:
339,380,168290,1,6,1:1:0:0:
444,108,169237,1,6,1:1:0:0:
172,3,170184,1,6,1:1:0:0:
256,192,170500,1,8,0:3:0:0:
445,108,170816,1,4,0:3:0:0:
511,303,171132,6,0,P|485:332|447:343,1,80.0000030517579,6|0,1:1|0:2,0:0:0:0:
378,384,171448,2,0,P|366:346|375:307,1,80.0000030517579,0|0,1:0|0:0,0:0:0:0:
374,227,171763,2,0,P|412:235|441:262,1,80.0000030517579,0|0,1:0|0:0,0:0:0:0:
278,317,172079,6,0,P|239:308|210:281,1,80.0000030517579,6|0,1:1|0:2,0:0:0:0:
274,159,172395,2,0,P|285:196|276:235,1,80.0000030517579,0|0,1:0|0:0,0:0:0:0:
140,241,172712,2,0,P|166:211|204:200,1,80.0000030517579,0|0,1:0|0:0,0:0:0:0:
363,154,173027,5,6,1:1:0:0:
363,154,173184,2,0,L|382:64,1,80.0000030517579,10|0,0:2|0:2,0:0:0:0:
266,0,173500,1,10,0:3:0:0:
266,0,173658,2,0,L|285:90,1,80.0000030517579,6|0,0:3|0:2,0:0:0:0:
169,154,173975,1,6,1:1:0:0:
169,154,174132,2,0,L|188:64,1,80.0000030517579,2|8,0:2|0:3,0:0:0:0:
72,0,174449,1,10,0:3:0:0:
72,0,174606,2,0,L|91:90,1,80.0000030517579,6|4,0:3|0:3,0:0:0:0:
17,176,174921,6,0,B|4:223|4:223|30:266,1,95.9999970703126,6|0,1:1|1:2,0:0:0:0:
113,317,175237,1,2,0:2:0:0:
113,317,175395,1,2,1:2:0:0:
209,279,175553,1,2,1:2:0:0:
209,279,175711,1,2,0:2:0:0:
279,348,175869,2,0,P|370:357|432:288,1,191.999994140625,10|2,0:2|0:2,0:0:0:0:
395,203,176342,1,2,0:2:0:0:
459,139,176500,1,2,1:2:0:0:
459,139,176658,1,2,0:2:0:0:
434,43,176816,6,0,L|338:33,1,95.9999970703126,2|2,1:2|1:2,0:0:0:0:
226,139,177132,1,0,0:2:0:0:
226,139,177290,2,0,L|321:129,1,95.9999970703126,2|2,1:2|1:2,0:0:0:0:
459,139,177606,1,0,0:2:0:0:
459,139,177763,1,10,0:2:0:0:
224,32,178079,1,2,0:2:0:0:
249,290,178395,1,2,1:2:0:0:
14,183,178711,6,0,B|1:135|1:135|22:94,1,95.9999970703126,2|0,1:2|1:2,0:0:0:0:
105,42,179027,1,2,0:2:0:0:
105,42,179184,1,2,1:2:0:0:
187,91,179342,1,2,1:2:0:0:
187,91,179500,1,2,0:2:0:0:
264,34,179658,1,10,0:2:0:0:
264,34,179816,1,2,0:2:0:0:
336,96,179974,2,0,P|382:108|430:108,1,95.9999970703126,2|0,0:2|0:2,0:0:0:0:
512,204,180290,2,0,P|464:204|417:216,1,95.9999970703126,2|0,1:2|0:2,0:0:0:0:
323,320,180606,6,0,L|228:302,1,95.9999970703126,2|0,1:2|1:2,0:0:0:0:
147,384,180921,2,0,L|115:292,1,95.9999970703126,2|0,0:2|1:2,0:0:0:0:
3,263,181237,2,0,L|66:189,1,95.9999970703126,2|0,1:2|0:2,0:0:0:0:
35,77,181553,2,0,L|129:95,1,95.9999970703126,10|0,0:2|0:2,0:0:0:0:
267,165,181869,2,0,L|172:183,1,95.9999970703126,2|0,1:2|0:2,0:0:0:0:
115,293,182184,2,0,L|210:311,1,95.9999970703126,2|0,1:2|0:2,0:0:0:0:
336,368,182500,6,0,B|384:381|384:381|425:360,1,95.9999970703126,6|0,1:1|1:2,0:0:0:0:
489,287,182816,1,2,0:2:0:0:
489,287,182974,1,2,1:2:0:0:
440,203,183132,1,2,1:2:0:0:
440,203,183290,1,2,0:2:0:0:
491,121,183448,2,0,P|485:73|456:36,1,95.9999970703126,10|0,0:2|0:2,0:0:0:0:
363,12,183763,1,2,0:2:0:0:
363,12,183921,1,2,0:2:0:0:
281,63,184079,1,2,1:2:0:0:
281,63,184237,1,2,0:2:0:0:
195,15,184395,6,0,P|148:20|105:41,1,95.9999970703126,2|0,1:2|1:2,0:0:0:0:
5,120,184711,1,2,0:2:0:0:
5,120,184869,2,0,P|52:124|95:145,1,95.9999970703126,2|0,1:2|1:2,0:0:0:0:
149,230,185184,1,2,0:2:0:0:
149,230,185342,1,10,0:2:0:0:
320,22,185658,1,2,0:2:0:0:
414,274,185974,1,2,1:2:0:0:
149,230,186290,5,6,1:1:0:0:
149,230,186448,2,0,L|42:211,1,95.9999970703126,0|0,1:0|0:0,0:0:0:0:
11,90,186763,1,0,1:2:0:0:
11,90,186921,2,0,L|118:109,1,95.9999970703126,0|0,1:0|0:0,0:0:0:0:
210,56,187237,1,10,0:2:0:0:
260,320,187553,1,0,1:2:0:0:
464,145,187869,1,0,1:2:0:0:
158,202,188184,5,6,1:1:0:0:
158,202,188342,2,0,L|64:187,1,95.9999970703126,8|0,0:2|0:2,0:0:0:0:
4,310,188658,1,0,1:2:0:0:
4,310,188816,2,0,L|98:295,1,95.9999970703126,8|0,0:2|0:2,0:0:0:0:
189,350,189132,1,10,0:2:0:0:
286,309,189290,1,8,0:2:0:0:
380,355,189448,2,0,P|439:367|500:272,1,143.999995605469,2|0,1:2|0:2,0:0:0:0:
498,262,189763,2,0,L|479:95,1,143.999995605469,2|0,1:2|0:2,0:0:0:0:
470,91,190079,5,0,0:2:0:0:
89,103,192289,5,0,0:2:0:0:
200,12,194184,1,0,0:2:0:0:
344,25,196079,1,0,0:2:0:0:
435,136,197973,1,0,0:2:0:0:
422,280,199868,1,0,0:2:0:0:
311,371,201763,1,0,0:2:0:0:
167,358,203658,1,0,0:2:0:0:
76,247,205552,1,0,0:2:0:0:
76,247,207446,6,0,P|51:189|74:132,1,127.99999609375,2|0,0:0|0:0,0:0:0:0:
161,78,208394,2,0,L|306:67,1,127.99999609375,2|0,0:0|0:0,0:0:0:0:
461,146,209341,2,0,L|333:155,1,127.99999609375,2|0,0:0|0:0,0:0:0:0:
258,213,210289,2,0,P|234:270|259:327,1,127.99999609375,2|0,0:0|0:0,0:0:0:0:
362,384,211236,6,0,L|368:320,2,63.9999980468751,2|0|0,0:0|0:0|0:0,0:0:0:0:
480,320,212183,2,0,L|473:256,2,63.9999980468751,2|0|0,0:0|0:0|0:0,0:0:0:0:
362,256,213131,2,0,L|368:192,2,63.9999980468751,2|0|0,0:0|0:0|0:0,0:0:0:0:
480,192,214078,2,0,L|473:128,2,63.9999980468751,2|0|0,0:0|0:0|0:0,0:0:0:0:
368,112,215025,6,0,L|241:95,1,127.99999609375,2|0,0:0|0:0,0:0:0:0:
158,144,215974,2,0,P|141:194|149:246,1,106.666666666667,2|0,0:0|0:0,0:0:0:0:
207,310,217022,2,0,L|292:316,1,85.3333333333333,2|0,0:0|0:0,0:0:0:0:
356,370,217945,2,0,L|419:374,1,63.9999980468751,2|0,0:0|0:0,0:0:0:0:
512,256,219004,5,2,0:0:0:0:
