osu file format v14

[General]
AudioFilename: audio.ogg
AudioLeadIn: 0
PreviewTime: 186
Countdown: 0
SampleSet: Drum
StackLeniency: 0.2
Mode: 0
LetterboxInBreaks: 0
WidescreenStoryboard: 1

[Editor]
DistanceSpacing: 1
BeatDivisor: 4
GridSize: 16
TimelineZoom: 2.999999

[Metadata]
Title:Age of Excuse V
TitleUnicode:Age of Excuse V
Artist:Mgla
ArtistUnicode:Mgła
Creator:Makeli
Version:Worthless Flesh
Source:
Tags:black metal english m. darkside poland fog misanthropy nihilism mkl maakkeli
BeatmapID:3339771
BeatmapSetID:1636461

[Difficulty]
HPDrainRate:5
CircleSize:4.4
OverallDifficulty:9
ApproachRate:9
SliderMultiplier:1.6
SliderTickRate:1

[Events]
//Background and Video events
0,0,"mgla.jpg",0,0
//Break Periods
//Storyboard Layer 0 (Background)
//Storyboard Layer 1 (Fail)
//Storyboard Layer 2 (Pass)
//Storyboard Layer 3 (Foreground)
//Storyboard Layer 4 (Overlay)
//Storyboard Sound Samples

[TimingPoints]
280,375,4,3,2,60,1,0
280,-166.666666666667,4,3,2,60,0,0
373,-166.666666666667,4,3,1,60,0,0
1405,365.853658536585,4,3,1,60,1,0
1405,-166.666666666667,4,3,1,60,0,0
2136,387.096774193548,4,3,1,60,1,0
2136,-166.666666666667,4,3,1,60,0,0
2523,372.670807453416,4,3,1,60,1,0
2523,-166.666666666667,4,3,1,60,0,0
4013,377.358490566038,4,3,1,60,1,0
4013,-166.666666666667,4,3,1,60,0,0
4767,377.358490566038,4,3,2,60,1,0
4767,-166.666666666667,4,3,2,60,0,0
5144,-166.666666666667,4,3,1,60,0,0
5521,-166.666666666667,4,3,2,60,0,0
5710,-166.666666666667,4,3,1,60,0,0
7031,370.37037037037,4,3,1,60,1,0
7031,-166.666666666667,4,3,1,60,0,0
8142,384.615384615385,4,3,1,60,1,0
8142,-166.666666666667,4,3,1,60,0,0
8526,377.358490566038,4,3,1,60,1,0
8526,-166.666666666667,4,3,1,60,0,0
9280,375,4,3,1,60,1,0
9280,-166.666666666667,4,3,1,60,0,0
10780,-166.666666666667,4,3,2,60,0,0
10968,-166.666666666667,4,3,10,60,0,0
11155,-166.666666666667,4,3,3,60,0,0
11342,-166.666666666667,4,3,2,60,0,0
11718,-166.666666666667,4,3,10,60,0,0
11905,-166.666666666667,4,3,1,60,0,0
13592,368.098159509202,4,3,1,60,1,0
13592,-166.666666666667,4,3,1,60,0,0
14144,392.156862745098,4,3,1,60,1,0
14144,-166.666666666667,4,3,1,60,0,0
14536,372.670807453416,4,3,1,60,1,0
14536,-166.666666666667,4,3,1,60,0,0
16772,368.098159509202,4,3,2,60,1,0
16772,-166.666666666667,4,3,2,60,0,0
17140,-166.666666666667,4,3,1,60,0,0
17508,-166.666666666667,4,3,3,60,0,0
17692,-166.666666666667,4,3,1,60,0,0
18265,384.615384615385,4,3,1,60,1,0
18265,-166.666666666667,4,3,1,60,0,0
19034,375,4,3,1,60,1,0
19034,-166.666666666667,4,3,1,60,0,0
19784,375,4,3,1,60,1,0
19784,-166.666666666667,4,3,1,60,0,0
21284,-166.666666666667,4,3,2,60,0,0
21471,-166.666666666667,4,3,10,60,0,0
21659,-166.666666666667,4,3,11,60,0,0
21846,-166.666666666667,4,3,2,60,0,0
22034,-166.666666666667,4,3,1,60,0,0
22221,-166.666666666667,4,3,2,60,0,0
22409,-166.666666666667,4,3,3,60,0,0
22596,-166.666666666667,4,3,1,60,0,0
22971,-166.666666666667,4,3,10,60,0,0
23159,-166.666666666667,4,3,11,60,0,0
23346,-166.666666666667,4,3,2,60,0,0
23721,-166.666666666667,4,3,10,60,0,0
23909,-166.666666666667,4,3,11,60,0,0
24096,-166.666666666667,4,3,1,60,0,0
25596,372.670807453416,4,3,1,60,1,0
25596,-166.666666666667,4,3,1,60,0,0
26524,375,4,3,1,60,1,0
26524,-166.666666666667,4,3,1,60,0,0
27274,375,4,3,1,60,1,0
27274,-166.666666666667,4,3,1,60,0,0
28024,368.098159509202,4,3,1,60,1,0
28024,-166.666666666667,4,3,1,60,0,0
29128,379.746835443038,4,3,1,60,1,0
29128,-166.666666666667,4,3,1,60,0,0
29507,-166.666666666667,4,3,3,60,0,0
29697,-166.666666666667,4,3,2,60,0,0
29887,-166.666666666667,4,3,1,60,0,0
30267,375,4,3,1,60,1,0
30267,-166.666666666667,4,3,1,60,0,0
34954,-166.666666666667,4,3,10,60,0,0
35142,-166.666666666667,4,3,3,60,0,0
35704,-166.666666666667,4,3,11,60,0,0
35892,-166.666666666667,4,3,3,60,0,0
36267,-166.666666666667,4,3,1,60,0,0
37017,379.746835443038,4,3,1,60,1,0
37017,-166.666666666667,4,3,1,60,0,0
37586,359.281437125748,4,3,1,60,1,0
37586,-166.666666666667,4,3,1,60,0,0
38124,392.156862745098,4,3,1,60,1,0
38124,-166.666666666667,4,3,1,60,0,0
38516,379.746835443038,4,3,1,60,1,0
38516,-166.666666666667,4,3,1,60,0,0
39275,373.831775700935,4,3,1,60,1,0
39275,-166.666666666667,4,3,1,60,0,0
40583,-166.666666666667,4,3,10,60,0,0
40770,372.670807453416,4,3,1,60,1,0
40770,-166.666666666667,4,3,1,60,0,0
40956,-166.666666666667,4,3,10,60,0,0
41142,-166.666666666667,4,3,2,60,0,0
41329,-166.666666666667,4,3,1,60,0,0
41888,-166.666666666667,4,3,3,60,0,0
42260,377.358490566038,4,3,3,60,1,0
42260,-166.666666666667,4,3,1,60,0,0
44528,352.941176470588,4,3,1,60,1,0
44528,-166.666666666667,4,3,1,60,0,0
45271,372.670807453416,4,3,1,60,1,0
45271,-166.666666666667,4,3,1,60,0,0
45830,-166.666666666667,4,3,3,60,0,0
46017,-166.666666666667,4,3,1,60,0,0
47321,-166.666666666667,4,3,2,60,0,0
47694,-166.666666666667,4,3,10,60,0,0
48066,394.736842105263,4,3,11,60,1,0
48066,-166.666666666667,4,3,11,60,0,0
48263,379.746835443038,4,3,11,60,1,0
48263,-166.666666666667,4,3,1,60,0,0
51285,365.853658536585,4,3,1,60,1,0
51285,-166.666666666667,4,3,1,60,0,0
52016,380.952380952381,4,3,1,60,1,0
52016,-166.666666666667,4,3,1,60,0,0
53160,379.746835443038,4,3,1,60,1,0
53160,-166.666666666667,4,3,1,60,0,0
53539,-166.666666666667,4,3,3,60,0,0
53729,-166.666666666667,4,3,1,60,0,0
54285,375,4,3,3,60,1,0
54285,-166.666666666667,4,3,3,60,0,0
58785,370.37037037037,4,3,3,60,1,0
58972,-166.666666666667,4,3,10,60,0,0
59155,-166.666666666667,4,3,3,60,0,0
59710,-166.666666666667,4,3,11,60,0,0
59896,-166.666666666667,4,3,1,60,0,0
60266,379.746835443038,4,3,3,60,1,0
60266,-166.666666666667,4,3,3,60,0,0
61025,-166.666666666667,4,3,1,60,0,0
61784,375,4,3,1,60,1,0
61784,-166.666666666667,4,3,1,60,0,0
64597,-166.666666666667,4,3,11,60,0,0
64784,365.853658536585,4,3,1,60,1,0
64784,-166.666666666667,4,3,1,60,0,0
65149,-166.666666666667,4,3,2,60,0,0
65332,-166.666666666667,4,3,1,60,0,0
65515,-166.666666666667,4,3,1,60,0,0
66247,382.165605095541,4,3,1,60,1,0
66247,-166.666666666667,4,3,1,60,0,0
67775,392.156862745098,4,3,1,60,1,0
67775,-166.666666666667,4,3,1,60,0,0
68559,338.983050847458,4,3,1,60,1,0
68559,-166.666666666667,4,3,1,60,0,0
69287,372.670807453416,4,3,1,60,1,0
69846,359.281437125748,4,3,2,60,1,0
69846,-166.666666666667,4,3,2,60,0,0
70025,-166.666666666667,4,3,1,60,0,0
70744,387.096774193548,4,3,1,60,1,0
71324,-166.666666666667,4,3,2,60,0,0
71518,377.358490566038,4,3,2,60,1,0
71706,-166.666666666667,4,3,10,60,0,0
71895,-166.666666666667,4,3,11,60,0,0
72272,372.670807453416,4,3,10,60,1,0
72272,-333.333333333334,4,3,10,60,0,0
72831,-333.333333333334,4,3,1,60,0,0
73055,375,4,3,2,60,1,0
73055,-333.333333333334,4,3,2,60,0,0
74555,348.837209302326,4,3,2,60,1,0
75078,375,4,3,2,60,1,0
75265,370.37037037037,4,3,10,60,1,0
75266,-333.333333333334,4,3,10,60,0,0
75828,-333.333333333334,4,3,2,60,0,0
76016,384.615384615385,4,3,2,60,1,0
76016,-333.333333333334,4,3,2,60,0,0
77554,366.97247706422,4,3,2,60,1,0
78287,368.098159509202,4,3,10,60,1,0
78287,-333.333333333334,4,3,10,60,0,0
78839,-333.333333333334,4,3,1,60,0,0
79202,379.746835443038,4,3,1,60,1,0
79202,-333.333333333334,4,3,1,60,0,0
79777,375,4,3,1,60,1,0
79777,-333.333333333334,4,3,1,60,0,0
82402,363.636363636364,4,3,1,60,1,0
82402,-333.333333333334,4,3,1,60,0,0
83129,392.156862745098,4,3,1,60,1,0
83129,-333.333333333334,4,3,1,60,0,0
83522,375,4,3,3,60,1,0
83522,-333.333333333334,4,3,3,60,0,0
84272,372.670807453416,4,3,1,60,1,0
84272,-166.666666666667,4,3,1,60,0,0
85017,-333.333333333334,4,3,1,60,0,0
86321,400,4,3,1,60,1,0
86321,-166.666666666667,4,3,1,60,0,0
86522,357.142857142857,4,3,1,60,1,0
86522,-166.666666666667,4,3,1,60,0,0
87236,397.350993377483,4,3,10,60,1,0
87236,-333.333333333334,4,3,10,60,0,0
87633,365.853658536585,4,3,10,60,1,0
87815,-100,4,3,2,60,0,0
88036,368.098159509202,4,3,1,60,1,0
88036,-333.333333333334,4,3,1,60,0,0
89324,-166.666666666667,4,3,1,60,0,0
90244,394.736842105263,4,3,1,60,1,0
90244,-166.666666666667,4,3,1,60,0,0
90638,389.61038961039,4,3,1,60,1,0
91027,361.44578313253,4,3,1,60,1,0
91207,368.098159509202,4,3,2,60,1,0
91207,-166.666666666667,4,3,2,60,0,0
91759,379.746835443038,4,3,1,60,1,0
91759,-166.666666666667,4,3,1,60,0,0
93277,375,4,3,1,60,1,0
93277,-166.666666666667,4,3,1,60,0,0
94402,-142.857142857143,4,3,1,60,0,0
95339,382.165605095541,4,3,1,60,1,0
95530,-166.666666666667,4,3,2,60,0,0
95912,370.37037037037,4,3,2,60,1,0
96282,375,4,3,1,60,1,0
96282,-125,4,3,1,60,0,0
96657,-125,4,3,3,60,0,0
96844,-125,4,3,1,60,0,0
99282,372.670807453416,4,3,10,60,1,0
99282,-125,4,3,10,60,0,0
99468,-125,4,3,1,60,0,0
99841,-125,4,3,2,60,0,0
100027,-125,4,3,1,60,0,0
101518,377.358490566038,4,3,1,60,1,0
101518,-125,4,3,1,60,0,0
102272,375,4,3,10,60,1,0
102272,-125,4,3,10,60,0,0
102459,-125,4,3,1,60,0,0
102834,-125,4,3,2,60,0,0
103022,-125,4,3,1,60,0,0
107897,-125,4,3,2,60,0,0
108272,372.670807453416,4,3,1,60,1,0
108272,-125,4,3,1,60,0,0
108831,-125,4,3,2,60,0,0
109017,-125,4,3,1,60,0,0
109762,379.746835443038,4,3,1,60,1,0
109762,-125,4,3,1,60,0,0
111280,372.670807453416,4,3,10,60,1,0
111280,-125,4,3,10,60,0,0
111466,-125,4,3,1,60,0,0
111839,-125,4,3,2,60,0,0
112025,-125,4,3,1,60,0,0
112770,377.358490566038,4,3,1,60,1,0
112770,-125,4,3,1,60,0,0
114279,375,4,3,2,60,1,0
114279,-125,4,3,2,60,0,0
114466,-125,4,3,1,60,0,0
114841,-125,4,3,2,60,0,0
115029,-125,4,3,1,60,0,0
115216,-125,4,3,2,60,0,0
115404,-200,4,3,1,60,0,0
115779,372.670807453416,4,3,3,60,1,0
115779,-125,4,3,3,60,0,0
117269,375,4,3,3,60,1,0
117269,-125,4,3,1,60,0,0
117644,-125,4,3,2,60,0,0
119519,-125,4,3,3,60,0,0
120831,-125,4,3,2,60,0,0
121019,-125,4,3,1,60,0,0
123831,-125,4,3,2,60,0,0
124019,-125,4,3,1,60,0,0
126831,-125,4,3,2,60,0,0
127019,-125,4,3,1,60,0,0
129269,377.358490566038,4,3,1,60,1,0
129269,-125,4,3,3,60,0,0
130401,372.670807453416,4,3,3,60,1,0
130773,375,4,3,2,60,1,0
130773,-125,4,3,2,60,0,0
130960,-125,4,3,3,60,0,0
131054,-125,4,3,2,60,0,0
132179,-125,4,3,3,60,0,0
132273,-125,4,3,1,60,0,0
132835,-125,4,3,2,60,0,0
133023,-125,4,3,1,60,0,0
135273,377.358490566038,4,3,1,60,1,0
135273,-125,4,3,1,60,0,0
135839,-125,4,3,2,60,0,0
136027,-125,4,3,1,60,0,0
136782,375,4,3,1,60,1,0
136782,-125,4,3,1,60,0,0
138282,370.37037037037,4,3,1,60,1,0
138282,-125,4,3,1,60,0,0
138652,375,4,3,2,60,1,0
138652,-125,4,3,2,60,0,0
139027,-125,4,3,1,60,0,0
139214,-125,4,3,2,60,0,0
139402,-125,4,3,1,60,0,0
139777,375,4,3,2,60,1,0
139777,-166.666666666667,4,3,2,60,0,0
141275,-166.666666666667,4,3,1,60,0,0
142402,370.37037037037,4,3,1,60,1,0
144253,377.358490566038,4,3,1,60,1,0
144253,-125,4,3,1,60,0,1
145196,-125,4,3,2,60,0,1
145385,-125,4,3,1,60,0,1
145762,-125,4,3,1,60,0,1
147650,-125,4,3,3,60,0,1
148026,-125,4,3,2,60,0,1
148215,-125,4,3,1,60,0,1
150102,-125,4,3,10,60,0,1
150196,-125,4,3,3,60,0,1
151800,372.670807453416,4,3,3,60,1,1
151800,-125,4,3,3,60,0,1
153290,-125,4,3,1,60,0,1
153663,-125,4,3,3,60,0,1
153849,-125,4,3,2,60,0,1
154222,-125,4,3,1,60,0,1
154595,-125,4,3,2,60,0,1
154781,375,4,3,1,60,1,1
154781,-125,4,3,1,60,0,1
154968,-125,4,3,2,60,0,1
155156,-125,4,3,1,60,0,1
155343,-125,4,3,2,60,0,1
155531,-125,4,3,3,60,0,0
156281,-125,4,3,1,60,0,1
160031,-125,4,3,2,60,0,1
160218,-125,4,3,3,60,0,1
160406,-125,4,3,2,60,0,1
160781,377.358490566038,4,3,1,60,1,1
160781,-125,4,3,1,60,0,1
162290,-125,4,3,3,60,0,1
163045,372.670807453416,4,3,3,60,1,1
164535,375,4,3,3,60,1,1
165285,-125,4,3,1,60,0,1
165660,-125,4,3,2,60,0,1
166035,368.098159509202,4,3,2,60,1,1
166035,-125,4,3,2,60,0,1
166219,-125,4,3,3,60,0,1
166771,372.670807453416,4,3,2,60,1,1
166771,-125,4,3,2,60,0,1
166957,-125,4,3,3,60,0,1
168261,379.746835443038,4,3,1,60,1,1
168261,-125,4,3,1,60,0,1
171298,375,4,3,1,60,1,0
171298,-125,4,3,1,60,0,0
174298,-125,4,3,3,60,0,0
174485,-125,4,3,2,60,0,0
174860,-125,4,3,3,60,0,0
175048,-125,4,3,2,60,0,0
175423,-125,4,3,3,60,0,0
175610,-125,4,3,2,60,0,0
175798,-125,4,3,3,60,0,0
175985,-125,4,3,2,60,0,0
176360,-125,4,3,3,60,0,0
176548,-125,4,3,2,60,0,0
176923,-125,4,3,3,60,0,0
177110,-125,4,3,2,60,0,0
177298,-125,4,3,1,60,0,0
177485,-125,4,3,2,60,0,0
177860,-125,4,3,3,60,0,0
178048,-125,4,3,2,60,0,0
178423,-125,4,3,3,60,0,0
178610,-125,4,3,2,60,0,0
180298,-125,4,3,1,60,0,0
185923,379.746835443038,4,3,3,60,1,0
185923,-125,4,3,3,60,0,0
186302,372.670807453416,4,3,1,60,1,0
186302,-125,4,3,1,60,0,0
186488,-125,4,3,2,60,0,0
186861,-125,4,3,3,60,0,0
187047,-125,4,3,2,60,0,0
187420,-125,4,3,3,60,0,0
187606,-125,4,3,2,60,0,0
187792,-125,4,3,3,60,0,0
187979,-125,4,3,2,60,0,0
188351,-125,4,3,3,60,0,0
188538,-125,4,3,2,60,0,0
188910,-125,4,3,3,60,0,0
189097,-125,4,3,2,60,0,0
189283,377.358490566038,4,3,2,60,1,0
189283,-125,4,3,2,60,0,0
190792,375,4,3,2,60,1,0
190792,-125,4,3,2,60,0,0
192292,379.746835443038,4,3,1,60,1,0
192292,-125,4,3,1,60,0,0
192861,-125,4,3,2,60,0,0
193051,371.517027863777,4,3,1,60,1,0
193051,-125,4,3,1,60,0,0
195837,-125,4,3,2,60,0,0
196023,375,4,3,1,60,1,0
196023,-125,4,3,1,60,0,0
197523,377.358490566038,4,3,1,60,1,0
197523,-125,4,3,1,60,0,0
198843,-125,4,3,2,60,0,0
199032,375,4,3,1,60,1,0
199032,-125,4,3,1,60,0,0
201657,-125,4,3,3,60,0,0
202782,370.37037037037,4,3,3,60,1,0
202967,-125,4,3,2,60,0,0
203337,-125,4,3,3,60,0,0
203522,-125,4,3,2,60,0,0
204078,-125,4,3,3,60,0,0
204263,375,4,3,1,60,1,0
204263,-125,4,3,1,60,0,0
204825,-125,4,3,2,60,0,0
205013,-125,4,3,1,60,0,0
207263,377.358490566038,4,3,1,60,1,0
207263,-125,4,3,1,60,0,0
207829,-125,4,3,2,60,0,0
208017,-125,4,3,1,60,0,0
210659,-125,4,3,2,60,0,0
211036,-125,4,3,1,60,0,0
211225,-125,4,3,2,60,0,0
211413,-125,4,3,1,60,0,0
211791,370.37037037037,4,3,1,60,1,0
211791,-166.666666666667,4,3,1,60,0,0
213272,375,4,3,1,60,1,0
214569,398.671096345515,4,3,1,60,1,0
215725,359.281437125748,4,3,1,60,1,0
216084,-166.666666666667,4,3,10,60,0,0
216263,382.165605095541,4,3,11,60,1,0
216263,-166.666666666667,4,3,11,60,0,0
216454,-125,4,3,1,60,0,0
216836,-125,4,3,2,60,0,0
217027,375,4,3,3,60,1,0
217027,-125,4,3,3,60,0,0
217402,-125,4,3,1,60,0,0
217777,376.175548589342,4,3,1,60,1,0
217777,-125,4,3,1,60,0,0
219282,375,4,3,10,60,1,0
219282,-125,4,3,10,60,0,0
219469,-125,4,3,1,60,0,0
219844,-125,4,3,2,60,0,0
220032,-125,4,3,1,60,0,0
221907,-125,4,3,3,60,0,0
222282,-125,4,3,10,60,0,0
222469,-125,4,3,1,60,0,0
223032,-125,4,3,2,60,0,0
223219,-125,4,3,1,60,0,0
223782,377.358490566038,4,3,1,60,1,0
223782,-125,4,3,1,60,0,0
224159,363.636363636364,4,3,1,60,1,0
224159,-125,4,3,1,60,0,0
224904,387.096774193548,4,3,1,60,1,0
224904,-125,4,3,1,60,0,0
225291,375,4,3,1,60,1,0
225291,-125,4,3,1,60,0,0
226791,368.098159509202,4,3,1,60,1,0
226791,-125,4,3,1,60,0,0
227895,352.941176470588,4,3,2,60,1,0
227895,-125,4,3,2,60,0,0
228247,413.793103448276,4,3,2,60,1,0
228247,-125,4,3,1,60,0,0
228660,375,4,3,1,60,1,0
228847,-125,4,3,2,60,0,0
229035,-125,4,3,1,60,0,0
229785,375,4,3,1,60,1,0
229785,-125,4,3,1,60,0,0
231285,368.098159509202,4,3,10,60,1,0
231285,-125,4,3,10,60,0,0
231469,-125,4,3,1,60,0,0
231837,-125,4,3,2,60,0,0
232021,-125,4,3,1,60,0,0
232396,379.746835443038,4,3,1,60,1,0
232396,-125,4,3,1,60,0,0
233155,372.670807453416,4,3,1,60,1,0
233155,-125,4,3,1,60,0,0
233900,-125,4,3,3,60,0,0
234273,-125,4,3,10,60,0,0
234459,-125,4,3,1,60,0,0
235018,-125,4,3,2,60,0,0
235204,-125,4,3,1,60,0,0
235391,375,4,3,1,60,1,0
235391,-125,4,3,1,60,0,0
237290,375,4,3,1,60,1,0
237290,-125,4,3,1,60,0,0
239540,363.636363636364,4,3,1,60,1,0
240267,372.670807453416,4,3,1,60,1,1
240267,-125,4,3,1,60,0,1
241012,379.746835443038,4,3,1,60,1,1
241012,-125,4,3,1,60,0,1
241201,-125,4,3,2,60,0,1
241391,-125,4,3,1,60,0,1
242151,-125,4,3,1,60,0,1
243100,-125,4,3,10,60,0,1
243195,-125,4,3,1,60,0,1
243670,-125,4,3,3,60,0,1
243860,-125,4,3,2,60,0,1
244049,372.670807453416,4,3,2,60,1,1
244049,-125,4,3,2,60,0,1
244794,-125,4,3,1,60,0,1
246285,-125,4,3,3,60,0,1
246471,-125,4,3,1,60,0,1
247030,375,4,3,1,60,1,1
247030,-125,4,3,1,60,0,1
247780,375,4,3,1,60,1,1
247780,-125,4,3,1,60,0,1
249655,-125,4,3,3,60,0,1
249842,-125,4,3,2,60,0,1
250780,-125,4,3,3,60,0,1
250967,-125,4,3,1,60,0,1
251342,-125,4,3,2,60,0,1
251530,-125,4,3,2,60,0,0
251905,-125,4,3,3,60,0,0
252280,-125,4,3,1,60,0,1
253030,379.746835443038,4,3,1,60,1,1
253789,375,4,3,1,60,1,1
253789,-125,4,3,1,60,0,1
255101,-125,4,3,10,60,0,1
255195,-125,4,3,1,60,0,1
255664,-125,4,3,3,60,0,1
255851,-125,4,3,2,60,0,1
256789,-125,4,3,1,60,0,1
258101,-125,4,3,10,60,0,1
258195,-125,4,3,1,60,0,1
260914,-125,4,3,3,60,0,1
261289,368.098159509202,4,3,1,60,1,1
261289,-125,4,3,1,60,0,1
261657,-125,4,3,3,60,0,1
261841,-125,4,3,2,60,0,1
262209,-125,4,3,1,60,0,1
262577,-125,4,3,2,60,0,1
262761,-125,4,3,3,60,0,1
262945,-125,4,3,1,60,0,1
263313,-125,4,3,2,60,0,1
263497,387.096774193548,4,3,2,60,1,1
263497,-125,4,3,3,60,0,1
264270,377.358490566038,4,3,1,60,1,0
264270,-125,4,3,1,60,0,0
268798,372.670807453416,4,3,1,60,1,0
270288,375,4,3,1,60,1,0
270475,-125,4,3,2,60,0,0
270850,-125,4,3,3,60,0,0
271038,-125,4,3,2,60,0,0
271413,-125,4,3,3,60,0,0
271600,-125,4,3,2,60,0,0
271788,-125,4,3,3,60,0,0
271975,-125,4,3,2,60,0,0
272350,-125,4,3,3,60,0,0
272538,-125,4,3,2,60,0,0
272913,-125,4,3,3,60,0,0
273100,-125,4,3,2,60,0,0
273288,-125,4,3,1,60,0,0
273475,-125,4,3,2,60,0,0
273850,-125,4,3,3,60,0,0
274038,-125,4,3,2,60,0,0
276288,-125,4,3,1,60,0,0
280788,372.670807453416,4,3,1,60,1,0
280788,-125,4,3,1,60,0,0
282465,-125,4,3,2,60,0,0
282837,-125,4,3,3,60,0,0
283024,-125,4,3,2,60,0,0
283396,-125,4,3,3,60,0,0
283583,-125,4,3,2,60,0,0
283769,382.165605095541,4,3,3,60,1,0
283769,-125,4,3,3,60,0,0
283960,-125,4,3,2,60,0,0
284342,-125,4,3,3,60,0,0
284533,-125,4,3,2,60,0,0
284915,-125,4,3,3,60,0,0
285106,-125,4,3,2,60,0,0
285297,-125,4,3,3,60,0,0
285488,-125,4,3,2,60,0,0
286061,368.098159509202,4,3,2,60,1,0
286061,-125,4,3,2,60,0,0
287533,379.746835443038,4,3,2,60,1,0
287533,-125,4,3,2,60,0,0
288292,375,4,3,1,60,1,1
288292,-125,4,3,1,60,0,1
288667,-125,4,3,3,60,0,1
294292,-125,4,3,2,60,0,1
296533,377.358490566038,4,3,2,60,1,1
296533,-125,4,3,2,60,0,1
297287,377.358490566038,4,3,1,60,1,1
297287,-125,4,3,1,60,0,1
297382,-125,4,3,2,60,0,1
298797,-125,4,3,1,60,0,1
299174,-125,4,3,2,60,0,1
299551,-125,4,3,3,60,0,0
299740,-125,4,3,2,60,0,0
299929,-125,4,3,3,60,0,0
300117,-125,4,3,2,60,0,0
300306,372.670807453416,4,3,1,60,1,1
300306,-125,4,3,1,60,0,1
300678,-125,4,3,3,60,0,1
304778,375,4,3,3,60,1,1
306278,-125,4,3,1,60,0,1
306840,-125,4,3,2,60,0,1
307778,-125,4,3,1,60,0,1
307871,-125,4,3,2,60,0,1
308528,382.165605095541,4,3,2,60,1,1
308528,-125,4,3,2,60,0,1
309292,-125,4,3,1,60,0,1
309578,-125,4,3,2,60,0,1
310056,370.37037037037,4,3,2,60,1,1
310056,-125,4,3,2,60,0,1
310796,-125,4,3,1,60,0,1
310889,-125,4,3,10,60,0,1
311352,-125,4,3,1,60,0,1
311537,-125,4,3,11,60,0,0
311722,-125,4,3,1,60,0,0
311907,357.142857142857,4,3,11,60,1,0
311907,-125,4,3,11,60,0,0
312264,379.746835443038,4,3,1,60,1,1
312264,-166.666666666667,4,3,1,60,0,1
312358,-166.666666666667,4,3,1,60,0,0
313023,371.517027863777,4,3,1,60,1,0
313023,-166.666666666667,4,3,1,60,0,0
313767,377.358490566038,4,3,1,60,1,0
313767,-166.666666666667,4,3,1,60,0,0
317540,-166.666666666667,4,3,3,60,0,0
317729,-166.666666666667,4,3,1,60,0,0
317917,-166.666666666667,4,3,3,60,0,0
318295,372.670807453416,4,3,1,60,1,0
318295,-166.666666666667,4,3,1,60,0,0
319040,363.636363636364,4,3,1,60,1,0
319040,-166.666666666667,4,3,1,60,0,0
320130,400,4,3,1,60,1,0
320130,-166.666666666667,4,3,1,60,0,0
320530,372.670807453416,4,3,1,60,1,0
320530,-166.666666666667,4,3,1,60,0,0
321276,375,4,3,1,60,1,0
321276,-166.666666666667,4,3,1,60,0,0
322587,-166.666666666667,4,3,10,60,0,0
322775,-166.666666666667,4,3,3,60,0,0
322963,-166.666666666667,4,3,2,60,0,0
323150,-166.666666666667,4,3,1,60,0,0
323526,-166.666666666667,4,3,3,60,0,0
323901,-166.666666666667,4,3,1,60,0,0
324281,375,4,3,1,60,1,0
324281,-166.666666666667,4,3,1,60,0,0
327468,-166.666666666667,4,3,10,60,0,0
327656,-166.666666666667,4,3,11,60,0,0
327843,-166.666666666667,4,3,1,60,0,0
328968,-166.666666666667,4,3,10,60,0,0
329156,-166.666666666667,4,3,11,60,0,0
329343,-166.666666666667,4,3,1,60,0,0
331406,370.37037037037,4,3,1,60,1,0
331406,-166.666666666667,4,3,1,60,0,0
332146,384.615384615385,4,3,1,60,1,0
332146,-166.666666666667,4,3,1,60,0,0
332530,375,4,3,1,60,1,0
332530,-166.666666666667,4,3,1,60,0,0
333843,-166.666666666667,4,3,3,60,0,0
334030,-166.666666666667,4,3,1,60,0,0
334781,365.853658536585,4,3,1,60,1,0
334781,-166.666666666667,4,3,1,60,0,0
335329,-166.666666666667,4,3,2,60,0,0
335512,-166.666666666667,4,3,1,60,0,0
335695,-166.666666666667,4,3,10,60,0,0
335878,-166.666666666667,4,3,1,60,0,0
335970,-166.666666666667,4,3,11,60,0,0
336244,389.61038961039,4,3,1,60,1,0
336244,-166.666666666667,4,3,1,60,0,0
337023,375,4,3,1,60,1,0
337023,-166.666666666667,4,3,1,60,0,0
337774,375,4,3,1,60,1,0
337774,-166.666666666667,4,3,1,60,0,0
341524,-166.666666666667,4,3,3,60,0,0
341711,-166.666666666667,4,3,1,60,0,0
341899,-166.666666666667,4,3,3,60,0,0
342284,375,4,3,1,60,1,0
342284,-166.666666666667,4,3,1,60,0,0
343409,368.098159509202,4,3,1,60,1,0
343409,-166.666666666667,4,3,1,60,0,0
344145,389.61038961039,4,3,1,60,1,0
344145,-166.666666666667,4,3,1,60,0,0
344534,375,4,3,1,60,1,0
344534,-166.666666666667,4,3,1,60,0,0
346596,-166.666666666667,4,3,10,60,0,0
346784,-166.666666666667,4,3,3,60,0,0
346971,-166.666666666667,4,3,2,60,0,0
347159,-166.666666666667,4,3,1,60,0,0
347534,-166.666666666667,4,3,3,60,0,0
347721,-166.666666666667,4,3,1,60,0,0
347909,-166.666666666667,4,3,3,60,0,0
348284,-166.666666666667,4,3,1,60,0,0
349034,370.37037037037,4,3,1,60,1,0
349034,-166.666666666667,4,3,1,60,0,0
349404,365.853658536585,4,3,1,60,1,0
349404,-166.666666666667,4,3,1,60,0,0
350501,379.746835443038,4,3,1,60,1,0
350501,-166.666666666667,4,3,1,60,0,0
351261,379.746835443038,4,3,10,60,1,0
351450,-166.666666666667,4,3,10,60,0,0
351640,-166.666666666667,4,3,11,60,0,0
351830,-166.666666666667,4,3,1,60,0,0
352969,-166.666666666667,4,3,10,60,0,0
353159,-166.666666666667,4,3,11,60,0,0
353349,-166.666666666667,4,3,3,60,0,0
353539,-166.666666666667,4,3,1,60,0,0
354298,368.098159509202,4,3,1,60,1,0
354298,-166.666666666667,4,3,1,60,0,0
355770,375,4,3,1,60,1,0
355770,-166.666666666667,4,3,1,60,0,0
357275,375,4,3,1,60,1,0
357275,-166.666666666667,4,3,1,60,0,0
357837,-166.666666666667,4,3,3,60,0,0
358024,-166.666666666667,4,3,1,60,0,0
359337,-166.666666666667,4,3,3,60,0,0
359712,-166.666666666667,4,3,10,60,0,0
359900,-166.666666666667,4,3,11,60,0,0
360650,-333.333333333334,4,3,1,60,0,0
364040,375,4,3,1,60,1,0
364040,-333.333333333334,4,3,1,60,0,0
365540,-333.333333333333,4,3,1,60,0,0
366852,-333.333333333334,4,3,3,60,0,0
367040,368.098159509202,4,3,1,60,1,0
367040,-333.333333333334,4,3,1,60,0,0
367224,-333.333333333334,4,3,2,60,0,0
367592,-333.333333333334,4,3,1,60,0,0
368512,376.175548589342,4,3,1,60,1,0
368512,-333.333333333334,4,3,1,60,0,0
369264,376.175548589342,4,3,1,60,1,0
369264,-333.333333333334,4,3,1,60,0,0
371521,-333.333333333334,4,3,3,60,0,0
372273,-166.666666666667,4,3,11,60,0,0
372367,-166.666666666667,4,3,1,60,0,0
373025,-333.333333333334,4,3,1,60,0,0
377540,375,4,3,1,60,1,0
377540,-333.333333333333,4,3,1,60,0,0
378290,375,4,3,1,60,1,0
378290,-333.333333333333,4,3,1,60,0,0
378852,-333.333333333334,4,3,3,60,0,0
379790,-333.333333333334,4,3,1,60,0,0
381270,375,4,3,1,60,1,0
381270,-333.333333333334,4,3,1,60,0,0
383520,368.098159509202,4,3,3,60,1,0
383520,-333.333333333334,4,3,3,60,0,0
384256,-166.666666666667,4,3,3,60,0,0
385017,377.358490566038,4,3,1,60,1,0
385017,-333.333333333334,4,3,1,60,0,0
386526,375,4,3,1,60,1,0
386526,-333.333333333334,4,3,1,60,0,0
387276,375,4,3,1,60,1,0
387276,-333.333333333334,4,3,1,60,0,0
390838,-333.333333333334,4,3,3,60,0,0
391026,-333.333333333334,4,3,2,60,0,0
393276,-333.333333333334,4,3,1,60,0,0
395526,-333.333333333334,4,3,3,60,0,0
396276,-166.666666666667,4,3,1,60,0,0
397031,379.746835443038,4,3,1,60,1,0
397031,-333.333333333334,4,3,1,60,0,0
398549,372.670807453416,4,3,1,60,1,0
398549,-333.333333333334,4,3,1,60,0,0
400039,375,4,3,1,60,1,0
400039,-333.333333333334,4,3,1,60,0,0
400789,375,4,3,1,60,1,0
400789,-333.333333333334,4,3,1,60,0,0
402851,-333.333333333334,4,3,3,60,0,0
403039,-333.333333333334,4,3,3,60,0,0
403601,-333.333333333334,4,3,1,60,0,0
406039,372.670807453416,4,3,1,60,1,0
406039,-333.333333333334,4,3,1,60,0,0
406784,372.670807453416,4,3,1,60,1,0
406784,-333.333333333334,4,3,1,60,0,0
412746,-333.333333333334,4,3,1,50,0,0
413492,-333.333333333334,4,3,1,45,0,0
414237,-333.333333333334,4,3,1,40,0,0
414982,-333.333333333334,4,3,1,35,0,0
415728,-333.333333333334,4,3,1,30,0,0
416473,-333.333333333334,4,3,1,25,0,0
417218,-333.333333333334,4,3,1,20,0,0
417964,-333.333333333334,4,3,1,15,0,0
418709,-333.333333333334,4,3,1,10,0,0
419827,-333.333333333334,4,3,1,5,0,0

[Colours]
Combo1 : 184,203,210
Combo2 : 128,199,208
Combo3 : 175,183,172
Combo4 : 80,112,153

[HitObjects]
380,156,280,6,0,B|316:147|316:147|304:152|304:152|221:139,1,143.999995605469,2|0,0:0|2:0,0:0:0:0:
195,83,1030,2,0,P|155:88|85:99,1,95.9999970703126,8|0,2:3|2:0,0:0:0:0:
58,248,1587,5,0,0:0:0:0:
78,173,1770,1,0,0:0:0:0:
4,193,1953,1,0,0:0:0:0:
132,228,2136,2,0,L|187:219,1,47.9999985351563,0|0,0:0|2:0,0:0:0:0:
239,276,2523,2,0,P|217:205|246:131,1,143.999995605469,8|0,2:3|2:0,0:0:0:0:
395,12,3268,6,0,P|387:84|379:162,1,143.999995605469,0|0,0:0|2:0,0:0:0:0:
329,207,4013,2,0,P|335:263|340:306,1,95.9999970703126,8|0,2:3|0:0,0:0:0:0:
169,309,4579,5,0,0:0:0:0:
239,276,4767,1,2,0:0:0:0:
233,352,4956,1,2,0:0:0:0:
177,232,5145,2,0,L|186:173,1,47.9999985351563,2|0,0:0|2:0,0:0:0:0:
214,24,5522,5,12,2:3:0:0:
131,62,5711,1,0,0:0:0:0:
281,98,5899,2,0,L|343:88,1,47.9999985351563,2|0,0:0|2:0,0:0:0:0:
459,275,6277,6,0,P|433:218|490:147,1,143.999995605469,4|0,0:0|2:0,0:0:0:0:
411,191,7031,2,0,P|369:183|295:171,1,95.9999970703126,8|0,2:3|2:0,0:0:0:0:
194,73,7586,5,0,0:0:0:0:
254,121,7771,1,0,0:0:0:0:
266,45,7956,1,0,0:0:0:0:
184,149,8142,2,0,L|126:140,1,47.9999985351563,0|0,0:0|2:0,0:0:0:0:
87,75,8526,2,0,P|99:144|110:220,1,143.999995605469,8|0,2:3|2:0,0:0:0:0:
424,337,9280,6,0,B|361:328|361:328|348:334|348:334|280:323,1,143.999995605469,0|0,0:0|2:0,0:0:0:0:
212,364,10030,2,0,P|202:311|193:265,1,95.9999970703126,8|0,2:3|2:0,0:0:0:0:
124,227,10592,1,0,0:0:0:0:
311,134,10780,5,2,0:0:0:0:
286,217,10967,1,0,0:0:0:0:
456,164,11155,2,0,L|440:100,1,47.9999985351563,4|0,0:0|2:0,0:0:0:0:
275,226,11530,5,10,2:3:0:0:
320,126,11717,1,0,0:0:0:0:
175,144,11905,2,0,L|221:155,1,47.9999985351563,4|0,0:0|2:0,0:0:0:0:
44,2,12280,6,0,P|97:45|92:115,1,143.999995605469,4|0,0:0|2:0,0:0:0:0:
24,138,13030,2,0,P|17:179|7:239,1,95.9999970703126,8|0,2:3|2:0,0:0:0:0:
105,322,13592,5,0,0:0:0:0:
81,249,13776,1,0,0:0:0:0:
30,307,13960,1,0,0:0:0:0:
155,264,14144,2,0,L|204:275,1,47.9999985351563,0|0,0:0|2:0,0:0:0:0:
260,217,14536,2,0,P|233:279|289:337,1,143.999995605469,8|0,2:3|2:0,0:0:0:0:
450,288,15281,6,0,P|388:280|302:269,1,143.999995605469,0|0,0:0|2:0,0:0:0:0:
260,217,16026,2,0,P|254:169|248:121,1,95.9999970703126,8|0,2:3|2:0,0:0:0:0:
353,40,16585,5,0,0:0:0:0:
323,111,16772,1,2,0:0:0:0:
276,50,16956,1,2,0:0:0:0:
399,101,17140,2,0,L|391:158,1,47.9999985351563,2|0,0:0|2:0,0:0:0:0:
348,290,17508,5,12,2:3:0:0:
437,258,17692,1,0,0:0:0:0:
260,217,17876,2,0,L|193:231,1,47.9999985351563,2|0,0:0|2:0,0:0:0:0:
57,60,18265,6,0,B|113:68|113:68|122:79|122:79|201:91,1,143.999995605469,4|0,0:0|2:0,0:0:0:0:
255,51,19034,2,0,P|264:93|277:150,1,95.9999970703126,8|0,2:3|2:0,0:0:0:0:
179,236,19596,5,0,0:0:0:0:
253,218,19784,1,0,0:0:0:0:
201,161,19971,1,0,0:0:0:0:
231,292,20159,2,0,L|216:349,1,47.9999985351563,0|0,0:0|2:0,0:0:0:0:
57,319,20534,2,0,P|115:311|160:306,1,95.9999970703126,8|0,2:3|2:0,0:0:0:0:
179,236,21096,1,0,0:0:0:0:
306,312,21284,5,2,0:0:0:0:
316,183,21471,1,0,0:0:0:0:
422,257,21659,1,0,0:0:0:0:
348,250,21846,1,4,0:0:0:0:
499,140,22034,5,0,0:0:0:0:
408,171,22221,1,2,0:0:0:0:
447,46,22409,2,0,L|508:57,1,47.9999985351563
271,47,22784,6,0,L|260:-14,2,47.9999985351563,4|0|0,0:0|0:0|0:0,0:0:0:0:
345,66,23346,1,4,0:0:0:0:
165,106,23534,5,8,2:3:0:0:
171,33,23721,1,0,0:0:0:0:
222,152,23909,1,0,0:0:0:0:
93,136,24096,1,0,0:0:0:0:
343,205,24284,6,0,B|282:215|282:215|270:225|270:225|199:237,1,143.999995605469,4|0,0:0|2:0,0:0:0:0:
141,192,25034,2,0,P|134:243|125:302,1,95.9999970703126,8|0,2:3|2:0,0:0:0:0:
223,382,25596,5,0,0:0:0:0:
201,307,25782,1,0,0:0:0:0:
147,362,25968,1,0,0:0:0:0:
276,325,26155,2,0,L|344:342,1,47.9999985351563,0|0,0:0|2:0,0:0:0:0:
384,383,26524,2,0,P|368:342|441:280,1,143.999995605469,8|0,2:3|2:0,0:0:0:0:
512,198,27274,6,0,P|445:185|367:171,1,143.999995605469,0|0,0:0|2:0,0:0:0:0:
306,214,28024,2,0,P|299:168|291:114,1,95.9999970703126,8|0,2:3|2:0,0:0:0:0:
164,86,28576,5,0,0:0:0:0:
218,140,28760,1,0,0:0:0:0:
237,65,28944,1,0,0:0:0:0:
145,160,29128,2,0,L|156:216,1,47.9999985351563,0|0,0:0|2:0,0:0:0:0:
255,295,29507,5,12,2:3:0:0:
115,337,29697,1,4,0:0:0:0:
274,292,29887,2,0,L|330:303,1,47.9999985351563,4|0,0:0|2:0,0:0:0:0:
493,361,30267,6,0,B|482:303|482:303|471:294|471:294|458:217,1,143.999995605469,4|0,0:0|2:0,0:0:0:0:
386,199,31017,2,0,P|394:151|402:97,1,95.9999970703126,8|0,2:3|2:0,0:0:0:0:
296,24,31579,5,0,0:0:0:0:
325,94,31767,1,0,0:0:0:0:
371,33,31954,1,0,0:0:0:0:
249,85,32142,2,0,L|194:71,1,47.9999985351563,0|0,0:0|2:0,0:0:0:0:
160,7,32517,2,0,P|171:76|105:122,1,143.999995605469,8|0,2:3|2:0,0:0:0:0:
6,303,33267,6,0,B|67:294|67:294|80:300|80:300|158:288,1,143.999995605469,0|0,0:0|2:0,0:0:0:0:
220,266,34017,2,0,P|215:313|207:377,1,95.9999970703126,8|0,2:3|2:0,0:0:0:0:
283,384,34579,1,0,0:0:0:0:
446,240,34767,5,0,0:0:0:0:
351,209,34954,1,0,0:0:0:0:
445,343,35142,2,0,L|507:331,1,47.9999985351563,4|0,0:0|2:0,0:0:0:0:
333,204,35517,5,8,2:3:0:0:
460,244,35704,1,0,0:0:0:0:
281,276,35892,2,0,L|219:264,1,47.9999985351563,4|0,0:0|2:0,0:0:0:0:
24,264,36267,6,0,P|61:232|51:137,1,143.999995605469,4|0,0:0|2:0,0:0:0:0:
106,195,37017,2,0,P|156:188|216:180,1,95.9999970703126,8|0,2:3|2:0,0:0:0:0:
284,77,37586,5,0,0:0:0:0:
272,153,37765,1,0,0:0:0:0:
212,106,37945,1,0,0:0:0:0:
344,126,38124,2,0,L|405:113,1,47.9999985351563,0|0,0:0|2:0,0:0:0:0:
434,58,38517,2,0,B|424:116|424:116|432:128|432:128|418:214,1,143.999995605469,8|0,2:3|2:0,0:0:0:0:
292,360,39275,6,0,P|330:322|426:337,1,143.999995605469,0|0,0:0|2:0,0:0:0:0:
351,294,40022,2,0,P|343:250|331:190,1,95.9999970703126,8|0,2:3|2:0,0:0:0:0:
244,258,40583,1,0,0:0:0:0:
252,262,40676,1,0,0:0:0:0:
260,266,40770,5,2,0:0:0:0:
176,187,40956,1,0,0:0:0:0:
66,302,41142,2,0,L|10:292,1,47.9999985351563,2|0,0:0|2:0,0:0:0:0:
1,198,41515,5,8,2:3:0:0:
146,263,41701,1,4,0:0:0:0:
82,156,41888,2,0,L|88:215,1,47.9999985351563,4|0,0:0|2:0,0:0:0:0:
261,79,42260,6,0,P|240:54|127:57,1,143.999995605469,4|0,0:0|2:0,0:0:0:0:
65,61,43014,2,0,P|74:109|82:161,1,95.9999970703126,8|0,2:3|2:0,0:0:0:0:
210,188,43580,5,0,0:0:0:0:
136,210,43769,1,0,0:0:0:0:
155,135,43958,1,0,0:0:0:0:
192,263,44146,2,0,L|180:325,1,47.9999985351563,0|0,0:0|2:0,0:0:0:0:
233,361,44528,2,0,P|286:352|335:344,1,95.9999970703126,8|0,2:3|2:0,0:0:0:0:
394,372,45057,1,0,0:0:0:0:
441,188,45271,6,0,L|454:244,1,47.9999985351563,4|0,0:0|2:0,0:0:0:0:
330,224,45644,1,2,2:3:0:0:
336,222,45737,1,2,2:3:0:0:
342,220,45830,1,2,0:0:0:0:
273,65,46017,5,8,2:3:0:0:
229,129,46203,1,0,2:0:0:0:
229,129,46389,1,2,0:0:0:0:
361,101,46576,1,0,0:0:0:0:
181,47,46762,6,0,L|134:57,1,47.9999985351563,4|0,0:0|2:0,0:0:0:0:
0,80,47135,1,2,2:3:0:0:
16,84,47228,1,2,2:3:0:0:
32,88,47321,1,4,0:0:0:0:
222,144,47507,5,8,2:3:0:0:
154,181,47694,2,0,L|142:116,1,47.9999985351563,0|0,0:0|2:0,0:0:0:0:
134,57,48066,1,0,0:0:0:0:
68,211,48263,6,0,B|129:219|129:219|137:230|137:230|212:240,1,143.999995605469,4|0,0:0|2:0,0:0:0:0:
239,302,49022,2,0,P|278:295|352:284,1,95.9999970703126,8|0,2:3|2:0,0:0:0:0:
449,355,49592,5,0,0:0:0:0:
410,288,49781,1,0,0:0:0:0:
372,354,49971,1,0,0:0:0:0:
486,287,50161,2,0,L|477:235,1,47.9999985351563,0|0,0:0|2:0,0:0:0:0:
508,174,50541,2,0,P|450:163|362:146,1,143.999995605469,8|0,2:3|2:0,0:0:0:0:
254,51,51285,6,0,B|267:110|267:110|258:125|258:125|276:206,1,143.999995605469,0|0,0:0|2:0,0:0:0:0:
285,260,52016,2,0,P|241:253|181:245,1,95.9999970703126,8|0,2:3|2:0,0:0:0:0:
99,344,52587,5,0,0:0:0:0:
117,269,52777,1,0,0:0:0:0:
172,321,52968,1,0,0:0:0:0:
43,290,53160,2,0,L|34:229,1,47.9999985351563,0|0,0:0|2:0,0:0:0:0:
141,133,53539,5,12,2:3:0:0:
5,87,53729,1,4,0:0:0:0:
158,139,53919,2,0,L|212:126,1,47.9999985351563,4|0,0:0|2:0,0:0:0:0:
463,61,54285,6,0,P|393:73|338:18,1,143.999995605469,4|0,0:0|2:0,0:0:0:0:
386,90,55035,2,0,P|375:135|362:189,1,95.9999970703126,8|0,2:3|2:0,0:0:0:0:
308,305,55597,5,0,0:0:0:0:
300,228,55785,1,0,0:0:0:0:
370,260,55972,1,0,0:0:0:0:
238,274,56160,2,0,L|177:258,1,47.9999985351563,0|0,0:0|2:0,0:0:0:0:
150,196,56535,2,0,P|157:267|163:339,1,143.999995605469,8|0,2:3|2:0,0:0:0:0:
37,129,57285,6,0,B|102:122|102:122|112:113|112:113|194:104,1,143.999995605469,0|0,0:0|2:0,0:0:0:0:
242,65,58035,2,0,P|292:73|340:81,1,95.9999970703126,8|0,2:3|2:0,0:0:0:0:
404,44,58597,1,0,0:0:0:0:
442,192,58785,5,0,0:0:0:0:
487,100,58970,1,0,0:0:0:0:
512,271,59155,2,0,L|503:331,1,47.9999985351563,4|0,0:0|2:0,0:0:0:0:
494,85,59525,5,8,2:3:0:0:
436,206,59710,1,0,0:0:0:0:
319,155,59896,2,0,L|376:148,1,47.9999985351563,4|0,0:0|2:0,0:0:0:0:
263,352,60266,6,0,P|219:302|241:221,1,143.999995605469,4|0,0:0|2:0,0:0:0:0:
188,294,61025,2,0,P|135:287|74:278,1,95.9999970703126,8|0,2:3|2:0,0:0:0:0:
35,161,61595,5,0,0:0:0:0:
98,204,61784,1,0,0:0:0:0:
29,238,61971,1,0,0:0:0:0:
104,127,62159,2,0,L|93:67,1,47.9999985351563,0|0,0:0|2:0,0:0:0:0:
30,39,62534,2,0,P|71:59|143:1,1,143.999995605469,8|0,2:3|2:0,0:0:0:0:
336,67,63285,6,0,B|325:130|325:130|314:137|314:137|301:219,1,143.999995605469,0|0,0:0|2:0,0:0:0:0:
341,270,64035,2,0,P|297:274|233:280,1,95.9999970703126,8|0,2:3|2:0,0:0:0:0:
63,295,64597,1,0,0:0:0:0:
85,302,64691,1,0,0:0:0:0:
107,309,64785,5,2,0:0:0:0:
164,241,64966,1,0,0:0:0:0:
262,362,65149,2,0,L|331:357,1,47.9999985351563,2|0,0:0|2:0,0:0:0:0:
169,223,65515,5,8,2:3:0:0:
146,384,65698,1,4,0:0:0:0:
174,204,65881,2,0,L|161:149,1,47.9999985351563,4|0,0:0|2:0,0:0:0:0:
0,35,66247,6,0,P|21:66|126:61,1,143.999995605469,4|0,0:0|2:0,0:0:0:0:
160,9,67011,2,0,P|212:17|266:23,1,95.9999970703126,8|0,2:3|2:0,0:0:0:0:
345,122,67584,5,0,0:0:0:0:
271,98,67775,1,0,0:0:0:0:
328,47,67971,1,0,0:0:0:0:
288,173,68167,2,0,L|301:233,1,47.9999985351563,0|0,0:0|2:0,0:0:0:0:
319,293,68559,2,0,P|270:285|194:354,1,143.999995605469,8|0,2:3|0:0,0:0:0:0:
131,157,69287,5,4,0:0:0:0:
82,216,69474,1,0,2:0:0:0:
223,183,69659,1,2,2:3:0:0:
221,173,69752,1,2,2:3:0:0:
219,163,69846,1,2,2:3:0:0:
3,151,70025,6,0,L|62:139,1,47.9999985351563,8|0,2:3|2:0,0:0:0:0:
73,73,70384,1,2,2:3:0:0:
145,173,70564,1,0,0:0:0:0:
216,12,70744,5,4,0:0:0:0:
255,77,70937,1,2,2:3:0:0:
244,79,71034,1,2,2:3:0:0:
234,81,71131,1,2,2:3:0:0:
224,83,71227,1,2,2:3:0:0:
213,85,71324,1,4,0:0:0:0:
333,167,71518,5,8,2:3:0:0:
262,187,71705,1,0,0:0:0:0:
355,97,71895,1,0,0:0:0:0:
386,223,72084,1,0,0:0:0:0:
244,79,72272,5,0,0:0:0:0:
244,79,72644,1,0,0:0:0:0:
181,124,72831,1,0,0:0:0:0:
87,47,73055,2,0,P|95:87|104:144,2,95.9999970703126,12|0|0,2:3|2:0|2:0,0:0:0:0:
173,214,75078,5,0,0:0:0:0:
172,217,75140,1,0,0:0:0:0:
171,220,75203,1,0,0:0:0:0:
170,223,75266,1,0,0:0:0:0:
170,223,75635,1,0,0:0:0:0:
242,197,75820,1,0,0:0:0:0:
325,290,76016,2,0,P|277:279|231:270,2,95.9999970703126,12|0|0,2:3|2:0|2:0,0:0:0:0:
417,157,78104,5,0,0:0:0:0:
417,153,78165,1,0,0:0:0:0:
418,150,78226,1,0,0:0:0:0:
419,147,78287,1,0,0:0:0:0:
419,147,78655,1,0,0:0:0:0:
479,100,78839,1,0,0:0:0:0:
280,74,79023,1,8,2:3:0:0:
355,38,79202,2,0,L|361:86,1,47.9999985351563,4|0,0:0|2:0,0:0:0:0:
256,221,79777,6,0,P|253:255|249:293,1,71.9999978027344,4|0,0:0|2:0,0:0:0:0:
344,341,80527,2,0,P|309:349|278:374,1,71.9999978027344,8|0,2:3|2:0,0:0:0:0:
11,343,81277,6,0,L|37:348,1,23.9999992675781,4|0,0:0|2:0,0:0:0:0:
84,295,81652,2,0,L|110:290,1,23.9999992675781,0|0,2:0|2:0,0:0:0:0:
192,381,82027,6,0,P|188:368|186:356,1,23.9999992675781,8|0,2:3|2:0,0:0:0:0:
226,297,82402,2,0,L|255:292,1,23.9999992675781,0|0,2:0|2:0,0:0:0:0:
389,350,82765,5,0,0:0:0:0:
344,293,82947,1,0,0:0:0:0:
378,229,83129,2,0,L|411:222,1,23.9999992675781,0|0,0:0|2:0,0:0:0:0:
269,203,83522,5,12,2:3:0:0:
226,297,83709,1,4,0:0:0:0:
167,191,83897,1,4,0:0:0:0:
326,295,84084,1,4,0:0:0:0:
79,249,84272,6,0,P|113:257|153:271,1,71.9999978027344,0|0,0:0|2:0,0:0:0:0:
211,311,84644,1,0,0:0:0:0:
211,311,84831,1,0,0:0:0:0:
256,93,85017,6,0,B|272:149|272:149|265:166|265:166|285:232,1,143.999995605469,12|0,2:3|2:0,0:0:0:0:
358,250,86321,1,0,0:0:0:0:
191,143,86522,2,0,P|148:152|96:165,1,95.9999970703126,8|0,2:3|2:0,0:0:0:0:
76,321,87057,5,0,0:0:0:0:
75,318,87117,1,0,0:0:0:0:
74,315,87176,1,0,0:0:0:0:
73,312,87236,1,0,0:0:0:0:
73,312,87633,1,0,0:0:0:0:
138,271,87815,1,0,0:0:0:0:
254,368,88036,6,0,B|262:310|262:310|276:295|276:295|286:221,1,143.999995605469,12|0,2:3|2:0,0:0:0:0:
222,185,89324,1,0,0:0:0:0:
332,350,89508,2,0,P|389:340|439:328,1,95.9999970703126,8|0,2:3|2:0,0:0:0:0:
465,166,90060,5,0,0:0:0:0:
466,169,90121,1,0,0:0:0:0:
467,172,90183,1,0,0:0:0:0:
468,175,90244,1,0,0:0:0:0:
468,175,90638,1,0,0:0:0:0:
403,216,90832,1,0,0:0:0:0:
332,57,91027,1,8,2:3:0:0:
289,146,91207,2,0,P|341:140|394:135,1,95.9999970703126,4|0,0:0|2:0,0:0:0:0:
239,240,91759,6,0,P|258:208|205:118,1,143.999995605469,4|0,0:0|2:3,0:0:0:0:
43,203,92518,2,0,P|115:195|187:189,1,143.999995605469,8|0,2:3|2:0,0:0:0:0:
420,228,93277,5,4,0:0:0:0:
352,123,93464,1,0,0:0:0:0:
490,143,93652,2,0,L|435:153,1,47.9999985351563,4|0,0:0|0:0,0:0:0:0:
186,189,94027,5,12,2:3:0:0:
335,132,94214,1,0,0:0:0:0:
252,46,94402,2,0,L|244:106,1,55.9999982910157,4|0,0:0|0:0,0:0:0:0:
319,292,94777,5,4,0:0:0:0:
177,208,94964,1,0,0:0:0:0:
216,360,95152,2,0,L|229:293,1,55.9999982910157,4|0,0:0|0:0,0:0:0:0:
43,185,95530,5,12,2:3:0:0:
154,139,95721,1,0,0:0:0:0:
149,122,95816,1,0,0:0:0:0:
177,111,95912,5,8,2:3:0:0:
136,104,96004,1,8,2:3:0:0:
95,97,96097,1,8,2:3:0:0:
54,90,96189,1,8,2:3:0:0:
0,82,96282,5,4,0:0:0:0:
0,82,96469,1,0,0:0:0:0:
109,263,96657,1,12,2:3:0:0:
31,201,96844,1,0,0:0:0:0:
227,237,97032,2,0,L|213:312,1,64,4|0,0:0|2:0,0:0:0:0:
24,348,97407,2,0,B|81:338|81:338|95:345|95:345|158:335,1,128,10|2,2:3|2:3,0:0:0:0:
216,374,97969,1,0,0:0:0:0:
227,237,98157,2,0,L|213:312,1,64,10|0,2:3|2:0,0:0:0:0:
216,374,98532,1,2,0:0:0:0:
216,374,98719,1,0,0:0:0:0:
227,237,98907,1,10,2:3:0:0:
355,296,99094,5,0,0:0:0:0:
342,298,99157,1,0,0:0:0:0:
329,300,99219,1,0,0:0:0:0:
316,303,99282,6,0,P|354:309|379:315,1,64
463,120,99654,1,12,2:3:0:0:
509,212,99841,1,4,0:0:0:0:
310,148,100027,2,0,L|326:76,1,64,4|0,0:0|2:0,0:0:0:0:
504,43,100400,2,0,P|476:74|392:60,1,128,10|2,2:3|2:3,0:0:0:0:
341,10,100959,1,0,0:0:0:0:
310,148,101145,2,0,L|326:76,1,64,10|0,2:3|2:0,0:0:0:0:
341,10,101518,1,2,0:0:0:0:
341,10,101706,1,0,0:0:0:0:
310,148,101895,1,10,2:3:0:0:
160,72,102084,5,0,0:0:0:0:
172,69,102146,1,0,0:0:0:0:
184,66,102209,1,0,0:0:0:0:
196,63,102272,2,0,P|186:98|175:137,1,64
30,226,102647,5,12,2:3:0:0:
215,200,102834,1,4,0:0:0:0:
113,169,103022,2,0,P|120:203|128:245,1,64,4|0,0:0|2:0,0:0:0:0:
319,288,103397,2,0,B|260:280|260:280|246:286|246:286|172:276,1,128,10|2,2:3|2:3,0:0:0:0:
116,312,103959,1,0,0:0:0:0:
113,169,104147,2,0,P|120:203|128:245,1,64,10|0,2:3|2:0,0:0:0:0:
116,312,104522,1,2,0:0:0:0:
116,312,104709,1,0,0:0:0:0:
113,169,104897,2,0,P|120:203|128:245,1,64,10|0,2:3|2:0,0:0:0:0:
305,178,105272,5,4,0:0:0:0:
204,193,105459,1,0,0:0:0:0:
299,90,105647,5,12,2:3:0:0:
216,276,105834,1,0,0:0:0:0:
195,172,106022,5,4,0:0:0:0:
313,199,106209,1,0,0:0:0:0:
213,94,106397,5,12,2:3:0:0:
302,276,106584,1,0,0:0:0:0:
305,178,106772,5,4,0:0:0:0:
204,193,106959,1,0,0:0:0:0:
299,90,107147,5,12,2:3:0:0:
216,276,107334,1,0,0:0:0:0:
195,172,107522,5,4,0:0:0:0:
313,199,107709,1,0,0:0:0:0:
144,240,107897,5,12,2:3:0:0:
368,140,108084,1,0,0:0:0:0:
103,141,108272,5,4,0:0:0:0:
103,141,108458,1,0,0:0:0:0:
150,339,108644,1,12,2:3:0:0:
236,247,108831,1,4,0:0:0:0:
57,226,109017,2,0,L|72:313,1,64,4|0,2:3|2:0,0:0:0:0:
263,366,109390,2,0,P|226:335|130:353,1,128,10|2,2:3|2:3,0:0:0:0:
72,369,109950,1,0,0:0:0:0:
57,226,110141,2,0,L|72:313,1,64,10|0,2:3|2:0,0:0:0:0:
72,369,110521,1,2,0:0:0:0:
72,369,110711,1,0,0:0:0:0:
57,226,110901,1,10,2:3:0:0:
236,247,111091,5,0,0:0:0:0:
234,259,111154,1,0,0:0:0:0:
232,271,111217,1,0,0:0:0:0:
230,283,111280,6,0,P|225:237|220:202,1,64
404,138,111652,1,12,2:3:0:0:
294,103,111839,1,4,0:0:0:0:
373,258,112025,2,0,L|443:246,1,64,4|0,0:0|2:0,0:0:0:0:
488,53,112398,2,0,B|479:109|479:109|485:122|485:122|470:194,1,128,10|2,2:3|2:3,0:0:0:0:
512,248,112957,1,0,0:0:0:0:
373,258,113147,2,0,L|443:246,1,64,10|0,2:3|2:0,0:0:0:0:
512,248,113524,1,2,0:0:0:0:
512,248,113713,1,0,0:0:0:0:
373,258,113902,1,10,2:3:0:0:
439,361,114090,5,0,0:0:0:0:
443,348,114153,1,0,0:0:0:0:
447,335,114216,1,0,0:0:0:0:
451,322,114279,6,0,P|462:374|468:407,1,64
268,315,114654,1,12,2:3:0:0:
361,271,114841,1,0,0:0:0:0:
166,207,115029,5,4,0:0:0:0:
96,381,115216,1,0,0:0:0:0:
247,314,115404,2,0,L|171:304,1,60,12|0,2:3|2:0,0:0:0:0:
122,269,115779,5,4,0:0:0:0:
116,266,115872,1,0,0:0:0:0:
110,263,115965,1,0,0:0:0:0:
104,261,116058,1,0,0:0:0:0:
98,259,116151,1,12,2:3:0:0:
92,258,116244,1,0,0:0:0:0:
85,257,116338,1,0,0:0:0:0:
79,257,116431,1,0,0:0:0:0:
72,257,116524,1,4,0:0:0:0:
66,258,116617,1,0,0:0:0:0:
60,259,116710,1,0,0:0:0:0:
54,260,116803,1,0,0:0:0:0:
48,262,116897,1,12,2:3:0:0:
42,265,116990,1,0,0:0:0:0:
36,268,117083,1,0,0:0:0:0:
31,271,117176,1,0,0:0:0:0:
25,275,117269,5,4,0:0:0:0:
35,282,117362,1,0,0:0:0:0:
47,281,117456,1,0,0:0:0:0:
58,275,117550,1,0,0:0:0:0:
65,264,117644,1,12,2:3:0:0:
65,251,117737,1,0,0:0:0:0:
59,239,117831,1,0,0:0:0:0:
49,230,117925,1,0,0:0:0:0:
40,220,118019,1,4,0:0:0:0:
37,207,118112,1,0,0:0:0:0:
43,196,118206,1,0,0:0:0:0:
54,189,118300,1,0,0:0:0:0:
66,187,118394,1,12,2:3:0:0:
78,189,118487,1,0,0:0:0:0:
86,198,118581,1,0,0:0:0:0:
89,210,118675,1,0,0:0:0:0:
86,222,118769,5,4,0:0:0:0:
89,216,118862,1,0,0:0:0:0:
92,210,118956,1,0,0:0:0:0:
95,204,119050,1,0,0:0:0:0:
99,199,119144,5,12,2:3:0:0:
118,199,119237,1,0,0:0:0:0:
133,187,119331,1,0,0:0:0:0:
143,170,119425,1,0,0:0:0:0:
161,117,119519,5,4,0:0:0:0:
181,141,119612,1,8,2:3:0:0:
209,156,119706,1,8,2:3:0:0:
240,159,119800,1,8,2:3:0:0:
269,146,119894,1,8,2:3:0:0:
296,129,119987,1,8,2:3:0:0:
328,128,120081,1,8,2:3:0:0:
358,138,120175,1,8,2:3:0:0:
380,160,120269,5,4,0:0:0:0:
384,148,120362,1,0,0:0:0:0:
388,136,120456,1,0,0:0:0:0:
393,124,120550,1,0,0:0:0:0:
415,57,120644,6,0,L|372:45,1,32,12|0,2:3|0:0,0:0:0:0:
465,142,120831,2,0,L|453:185,1,32,4|0,2:3|0:0,0:0:0:0:
411,239,121019,5,4,0:0:0:0:
394,228,121112,1,0,0:0:0:0:
374,228,121206,1,0,0:0:0:0:
358,238,121300,1,0,0:0:0:0:
352,256,121394,1,10,2:3:0:0:
358,274,121487,1,0,0:0:0:0:
372,286,121581,1,0,0:0:0:0:
385,299,121675,1,0,0:0:0:0:
391,317,121769,1,2,0:0:0:0:
388,336,121862,1,0,0:0:0:0:
375,350,121956,1,0,0:0:0:0:
357,356,122050,1,0,0:0:0:0:
338,352,122144,1,10,2:3:0:0:
319,348,122237,1,0,0:0:0:0:
300,353,122331,1,0,0:0:0:0:
287,367,122425,1,0,0:0:0:0:
273,380,122519,1,2,0:0:0:0:
254,383,122612,1,0,0:0:0:0:
234,380,122706,1,0,0:0:0:0:
220,366,122800,1,0,0:0:0:0:
216,347,122894,1,10,2:3:0:0:
222,328,122987,1,0,0:0:0:0:
236,315,123081,1,0,0:0:0:0:
254,309,123175,1,0,0:0:0:0:
272,312,123269,5,2,0:0:0:0:
270,305,123362,1,0,0:0:0:0:
268,298,123456,1,0,0:0:0:0:
266,291,123550,1,0,0:0:0:0:
238,226,123644,6,0,L|289:214,1,32,12|0,2:3|0:0,0:0:0:0:
167,238,123831,2,0,L|179:289,1,32,4|0,0:0|0:0,0:0:0:0:
125,322,124019,5,4,0:0:0:0:
114,314,124112,1,0,0:0:0:0:
101,312,124206,1,0,0:0:0:0:
89,316,124300,1,0,0:0:0:0:
80,325,124394,1,10,2:3:0:0:
72,335,124487,1,0,0:0:0:0:
61,342,124581,1,0,0:0:0:0:
48,345,124675,1,0,0:0:0:0:
35,344,124769,1,2,0:0:0:0:
24,336,124862,1,0,0:0:0:0:
18,324,124956,1,0,0:0:0:0:
18,311,125050,1,0,0:0:0:0:
24,300,125144,1,10,2:3:0:0:
34,292,125237,1,0,0:0:0:0:
45,287,125331,1,0,0:0:0:0:
55,279,125425,1,0,0:0:0:0:
60,267,125519,1,2,0:0:0:0:
58,254,125612,1,0,0:0:0:0:
51,242,125706,1,0,0:0:0:0:
40,234,125800,1,0,0:0:0:0:
30,225,125894,1,10,2:3:0:0:
25,212,125987,1,0,0:0:0:0:
26,199,126081,1,0,0:0:0:0:
34,189,126175,1,0,0:0:0:0:
45,183,126269,5,4,0:0:0:0:
44,176,126362,1,0,0:0:0:0:
43,169,126456,1,0,0:0:0:0:
42,162,126550,1,0,0:0:0:0:
47,92,126644,6,0,L|-2:99,1,32,12|0,2:3|0:0,0:0:0:0:
117,137,126831,2,0,L|124:186,1,32,4|0,0:0|0:0,0:0:0:0:
118,59,127019,5,4,0:0:0:0:
123,55,127112,1,0,0:0:0:0:
129,53,127206,1,0,0:0:0:0:
135,53,127300,1,0,0:0:0:0:
140,56,127394,1,10,2:3:0:0:
145,60,127487,1,0,0:0:0:0:
150,64,127581,1,0,0:0:0:0:
155,66,127675,1,0,0:0:0:0:
161,66,127769,1,2,0:0:0:0:
167,64,127862,1,0,0:0:0:0:
172,61,127956,1,0,0:0:0:0:
176,56,128050,1,0,0:0:0:0:
178,50,128144,1,10,2:3:0:0:
181,44,128237,1,0,0:0:0:0:
186,40,128331,1,0,0:0:0:0:
192,38,128425,1,0,0:0:0:0:
198,39,128519,1,2,0:0:0:0:
203,42,128612,1,0,0:0:0:0:
207,46,128706,1,0,0:0:0:0:
209,51,128800,1,0,0:0:0:0:
209,57,128894,1,10,2:3:0:0:
207,63,128987,1,0,0:0:0:0:
204,68,129081,1,0,0:0:0:0:
199,72,129175,1,0,0:0:0:0:
193,75,129269,5,4,0:0:0:0:
207,63,129363,1,0,0:0:0:0:
226,63,129457,1,0,0:0:0:0:
243,71,129552,1,0,0:0:0:0:
254,86,129646,1,12,2:3:0:0:
255,104,129740,1,0,0:0:0:0:
245,120,129835,1,0,0:0:0:0:
236,137,129929,1,0,0:0:0:0:
237,156,130023,1,4,0:0:0:0:
249,170,130118,1,0,0:0:0:0:
266,177,130212,1,0,0:0:0:0:
285,177,130306,1,0,0:0:0:0:
302,169,130401,1,12,2:3:0:0:
313,153,130495,1,0,0:0:0:0:
313,133,130587,1,0,0:0:0:0:
301,117,130680,1,0,0:0:0:0:
282,110,130773,5,2,0:0:0:0:
312,100,130866,1,2,0:0:0:0:
342,91,130960,2,0,L|346:52,1,32,2|2,0:0|0:0,0:0:0:0:
463,130,131148,5,10,2:3:0:0:
483,154,131241,1,2,0:0:0:0:
485,186,131335,1,2,0:0:0:0:
463,209,131430,1,2,0:0:0:0:
440,231,131523,5,2,0:0:0:0:
440,231,131616,2,0,L|396:223,1,32,2|2,0:0|0:0,0:0:0:0:
354,286,131804,5,2,0:0:0:0:
354,286,131897,2,0,L|310:294,1,32,10|2,2:3|0:0,0:0:0:0:
248,267,132085,5,2,0:0:0:0:
216,274,132179,1,2,0:0:0:0:
184,281,132273,5,4,0:0:0:0:
191,270,132366,1,0,0:0:0:0:
190,257,132460,1,0,0:0:0:0:
182,246,132554,1,0,0:0:0:0:
170,239,132648,1,12,2:3:0:0:
157,237,132741,1,0,0:0:0:0:
144,239,132835,1,4,0:0:0:0:
133,246,132929,1,0,0:0:0:0:
126,256,133023,5,4,0:0:0:0:
144,249,133116,1,0,0:0:0:0:
153,232,133210,1,0,0:0:0:0:
150,212,133304,1,0,0:0:0:0:
137,197,133398,1,10,2:3:0:0:
119,189,133491,1,0,0:0:0:0:
101,180,133585,1,0,0:0:0:0:
92,162,133679,1,0,0:0:0:0:
98,143,133773,1,2,0:0:0:0:
113,131,133866,1,0,0:0:0:0:
131,127,133960,1,0,0:0:0:0:
148,134,134054,1,0,0:0:0:0:
162,146,134148,1,10,2:3:0:0:
176,158,134241,1,0,0:0:0:0:
194,160,134335,1,0,0:0:0:0:
213,156,134429,1,0,0:0:0:0:
228,144,134523,1,2,0:0:0:0:
236,126,134616,1,0,0:0:0:0:
235,106,134710,1,0,0:0:0:0:
228,87,134804,1,0,0:0:0:0:
225,67,134898,1,10,2:3:0:0:
232,49,134991,1,0,0:0:0:0:
248,39,135085,1,0,0:0:0:0:
267,37,135179,1,0,0:0:0:0:
284,44,135273,5,4,0:0:0:0:
290,42,135367,1,0,0:0:0:0:
296,40,135461,1,0,0:0:0:0:
302,38,135556,1,0,0:0:0:0:
368,13,135650,6,0,L|379:58,1,32,12|0,2:3|0:0,0:0:0:0:
462,88,135839,2,0,L|451:133,1,32,4|0,0:0|0:0,0:0:0:0:
489,205,136027,5,4,0:0:0:0:
477,198,136122,1,0,0:0:0:0:
464,197,136216,1,0,0:0:0:0:
452,203,136310,1,0,0:0:0:0:
444,213,136405,1,10,2:3:0:0:
437,223,136499,1,0,0:0:0:0:
425,229,136593,1,0,0:0:0:0:
412,230,136688,1,0,0:0:0:0:
399,225,136782,1,2,0:0:0:0:
389,216,136875,1,0,0:0:0:0:
384,204,136969,1,0,0:0:0:0:
373,196,137063,1,0,0:0:0:0:
360,194,137157,1,10,2:3:0:0:
348,198,137250,1,0,0:0:0:0:
340,208,137344,1,0,0:0:0:0:
337,220,137438,1,0,0:0:0:0:
339,232,137532,1,2,0:0:0:0:
346,242,137625,1,0,0:0:0:0:
357,247,137719,1,0,0:0:0:0:
368,253,137813,1,0,0:0:0:0:
377,261,137907,1,10,2:3:0:0:
381,272,138000,1,0,0:0:0:0:
380,284,138094,1,0,0:0:0:0:
374,295,138188,1,0,0:0:0:0:
365,304,138282,5,4,0:0:0:0:
333,310,138374,1,0,0:0:0:0:
301,316,138467,1,0,0:0:0:0:
269,322,138559,1,0,0:0:0:0:
237,329,138652,5,12,2:3:0:0:
242,332,138745,1,0,0:0:0:0:
247,335,138839,1,0,0:0:0:0:
251,338,138933,1,0,0:0:0:0:
174,362,139027,6,0,L|163:310,1,32,4|0,0:0|0:0,0:0:0:0:
153,225,139214,2,0,L|146:256,1,32,4|0,0:0|0:0,0:0:0:0:
0,291,139402,5,12,2:3:0:0:
25,296,139495,1,0,0:0:0:0:
49,301,139589,1,0,0:0:0:0:
73,307,139683,1,0,0:0:0:0:
97,313,139777,5,4,0:0:0:0:
97,313,139964,1,0,0:0:0:0:
146,256,140152,2,0,P|176:252|208:247,1,47.9999985351563,8|0,2:3|0:0,0:0:0:0:
344,376,140527,5,0,0:0:0:0:
344,376,140714,1,0,0:0:0:0:
277,338,140902,2,0,P|269:308|264:281,1,47.9999985351563,8|0,2:3|0:0,0:0:0:0:
340,183,141277,5,4,0:0:0:0:
267,209,141464,1,0,0:0:0:0:
323,101,141652,5,10,2:3:0:0:
404,236,141839,1,0,0:0:0:0:
428,147,142027,5,2,0:0:0:0:
355,173,142214,1,0,0:0:0:0:
411,65,142402,5,10,2:3:0:0:
492,200,142587,1,0,0:0:0:0:
494,190,142648,1,0,0:0:0:0:
496,180,142710,1,0,0:0:0:0:
498,170,142772,5,12,2:3:0:0:
424,48,142958,1,0,0:0:0:0:
343,257,143142,5,12,2:3:0:0:
417,135,143327,1,0,0:0:0:0:
505,344,143513,5,12,2:3:0:0:
431,222,143698,1,8,2:3:0:0:
425,250,143790,1,8,2:3:0:0:
419,277,143883,1,8,2:3:0:0:
413,305,143976,1,8,2:3:0:0:
407,333,144068,1,8,2:3:0:0:
401,361,144161,1,8,2:3:0:0:
328,368,144253,5,4,0:0:0:0:
319,358,144347,1,0,0:0:0:0:
306,355,144441,1,0,0:0:0:0:
294,360,144536,1,0,0:0:0:0:
264,346,144630,5,10,2:3:0:0:
255,356,144724,1,0,0:0:0:0:
242,359,144819,1,0,0:0:0:0:
230,354,144913,1,0,0:0:0:0:
204,335,145007,6,0,L|197:371,1,32,10|0,2:3|0:0,0:0:0:0:
131,281,145196,1,4,0:0:0:0:
143,277,145290,1,0,0:0:0:0:
122,301,145385,5,10,2:3:0:0:
120,288,145479,1,0,0:0:0:0:
118,275,145573,1,0,0:0:0:0:
116,262,145668,1,0,0:0:0:0:
79,231,145762,5,12,2:3:0:0:
91,229,145856,1,0,0:0:0:0:
102,223,145951,1,0,0:0:0:0:
110,212,146045,1,0,0:0:0:0:
107,180,146139,5,10,2:3:0:0:
117,188,146234,1,0,0:0:0:0:
129,191,146328,1,0,0:0:0:0:
142,189,146422,1,0,0:0:0:0:
164,166,146517,5,10,2:3:0:0:
166,179,146611,1,0,0:0:0:0:
172,189,146705,1,0,0:0:0:0:
183,197,146800,1,0,0:0:0:0:
214,194,146894,6,0,L|259:182,1,32,10|0,2:3|0:0,0:0:0:0:
346,163,147083,2,0,L|301:151,1,32
239,75,147271,5,12,2:3:0:0:
239,75,147366,1,0,0:0:0:0:
239,75,147460,2,0,L|251:120,1,32
301,240,147650,5,10,2:3:0:0:
297,265,147743,1,0,0:0:0:0:
293,290,147837,1,0,0:0:0:0:
290,315,147931,1,0,0:0:0:0:
287,340,148026,2,0,L|340:327,1,32,10|0,2:3|0:0,0:0:0:0:
212,296,148215,5,2,0:0:0:0:
199,293,148309,1,0,0:0:0:0:
186,294,148403,1,10,2:3:0:0:
173,298,148498,1,0,0:0:0:0:
162,305,148592,1,0,0:0:0:0:
154,315,148686,1,0,0:0:0:0:
87,338,148781,5,12,2:3:0:0:
74,333,148875,1,0,0:0:0:0:
62,328,148969,1,0,0:0:0:0:
49,323,149064,1,0,0:0:0:0:
19,309,149158,5,10,2:3:0:0:
32,304,149253,1,0,0:0:0:0:
44,299,149347,1,0,0:0:0:0:
57,294,149441,1,0,0:0:0:0:
87,282,149536,5,10,2:3:0:0:
74,277,149630,1,0,0:0:0:0:
62,272,149724,1,0,0:0:0:0:
49,267,149819,1,0,0:0:0:0:
19,255,149913,6,0,L|9:210,1,32,10|0,2:3|0:0,0:0:0:0:
4,145,150102,2,0,L|38:153,1,32
167,168,150290,5,12,2:3:0:0:
148,174,150385,1,0,0:0:0:0:
129,170,150479,1,0,0:0:0:0:
114,156,150573,1,0,0:0:0:0:
128,142,150668,5,12,2:3:0:0:
110,132,150762,1,0,0:0:0:0:
99,116,150856,1,0,0:0:0:0:
99,96,150951,1,0,0:0:0:0:
118,95,151045,5,12,2:3:0:0:
112,76,151139,1,0,0:0:0:0:
116,57,151234,1,0,0:0:0:0:
130,42,151328,1,0,0:0:0:0:
145,53,151422,5,12,2:3:0:0:
154,35,151517,1,0,0:0:0:0:
170,24,151611,1,0,0:0:0:0:
190,24,151705,1,0,0:0:0:0:
215,43,151800,5,12,2:3:0:0:
232,50,151893,1,0,0:0:0:0:
249,57,151986,1,0,0:0:0:0:
266,64,152079,1,0,0:0:0:0:
274,94,152172,5,12,2:3:0:0:
291,87,152265,1,0,0:0:0:0:
308,80,152359,1,0,0:0:0:0:
325,73,152452,1,0,0:0:0:0:
330,41,152545,5,12,2:3:0:0:
347,48,152638,1,0,0:0:0:0:
364,55,152731,1,0,0:0:0:0:
381,62,152824,1,0,0:0:0:0:
391,92,152918,5,12,2:3:0:0:
408,85,153011,1,0,0:0:0:0:
425,78,153104,1,0,0:0:0:0:
442,71,153197,1,0,0:0:0:0:
512,62,153290,5,12,2:3:0:0:
510,68,153383,1,0,0:0:0:0:
508,74,153477,2,0,L|494:126,1,32
322,182,153663,6,0,L|374:168,1,32,10|0,2:3|0:0,0:0:0:0:
435,155,153849,2,0,L|421:207,1,32,2|0,0:0|0:0,0:0:0:0:
404,266,154036,2,0,L|365:227,1,32,10|0,2:3|0:0,0:0:0:0:
251,216,154222,5,2,0:0:0:0:
249,228,154315,1,0,0:0:0:0:
247,240,154408,1,8,2:3:0:0:
245,252,154501,1,0,0:0:0:0:
243,264,154595,2,0,L|277:252,1,32,2|0,0:0|0:0,0:0:0:0:
189,155,154781,6,0,L|182:186,1,32,10|0,2:3|0:0,0:0:0:0:
162,299,154968,2,0,L|171:252,1,32,4|0,2:3|0:0,0:0:0:0:
26,231,155156,5,10,2:3:0:0:
38,227,155249,1,0,0:0:0:0:
50,223,155343,1,2,0:0:0:0:
62,220,155437,1,0,0:0:0:0:
100,248,155531,5,12,2:3:0:0:
104,222,155624,1,0,0:0:0:0:
110,197,155718,1,0,0:0:0:0:
115,172,155812,1,0,0:0:0:0:
87,155,155906,5,12,2:3:0:0:
83,129,155999,1,0,0:0:0:0:
77,104,156093,1,0,0:0:0:0:
72,79,156187,1,0,0:0:0:0:
59,9,156281,5,12,2:3:0:0:
69,15,156374,1,0,0:0:0:0:
81,16,156468,1,0,0:0:0:0:
92,11,156562,1,0,0:0:0:0:
117,29,156656,5,10,2:3:0:0:
127,23,156749,1,0,0:0:0:0:
139,22,156843,1,0,0:0:0:0:
150,27,156937,1,0,0:0:0:0:
179,16,157031,5,10,2:3:0:0:
189,22,157124,1,0,0:0:0:0:
201,23,157218,1,0,0:0:0:0:
212,18,157312,1,0,0:0:0:0:
231,42,157406,5,10,2:3:0:0:
241,36,157499,1,0,0:0:0:0:
253,35,157593,1,0,0:0:0:0:
264,40,157687,1,0,0:0:0:0:
286,62,157781,5,12,2:3:0:0:
281,74,157874,1,0,0:0:0:0:
276,86,157968,1,0,0:0:0:0:
271,98,158062,1,0,0:0:0:0:
245,116,158156,5,10,2:3:0:0:
250,128,158249,1,0,0:0:0:0:
255,140,158343,1,0,0:0:0:0:
260,152,158437,1,0,0:0:0:0:
286,169,158531,5,10,2:3:0:0:
281,181,158624,1,0,0:0:0:0:
276,193,158718,1,0,0:0:0:0:
271,205,158812,1,0,0:0:0:0:
244,222,158906,5,10,2:3:0:0:
249,234,158999,1,0,0:0:0:0:
254,246,159093,1,0,0:0:0:0:
259,258,159187,1,0,0:0:0:0:
300,313,159281,5,12,2:3:0:0:
288,318,159374,1,0,0:0:0:0:
276,323,159468,2,0,L|235:341,1,32
118,262,159656,5,10,2:3:0:0:
135,269,159749,1,0,0:0:0:0:
153,275,159843,1,0,0:0:0:0:
171,281,159937,1,0,0:0:0:0:
188,287,160031,2,0,L|170:246,1,32,10|0,2:3|0:0,0:0:0:0:
155,153,160218,5,2,0:0:0:0:
149,171,160312,1,0,0:0:0:0:
143,188,160406,2,0,L|184:170,1,32,10|0,2:3|0:0,0:0:0:0:
256,135,160593,2,0,L|215:117,1,32,2|0,0:0|0:0,0:0:0:0:
305,226,160781,5,10,2:3:0:0:
320,215,160875,1,0,0:0:0:0:
339,213,160969,1,0,0:0:0:0:
357,219,161064,1,0,0:0:0:0:
381,198,161158,5,10,2:3:0:0:
399,200,161252,1,0,0:0:0:0:
414,212,161347,1,0,0:0:0:0:
422,229,161441,1,0,0:0:0:0:
453,232,161535,5,10,2:3:0:0:
464,246,161630,1,0,0:0:0:0:
466,265,161724,1,0,0:0:0:0:
460,282,161818,1,0,0:0:0:0:
483,303,161913,5,10,2:3:0:0:
480,321,162007,1,0,0:0:0:0:
468,336,162101,1,0,0:0:0:0:
451,344,162196,1,0,0:0:0:0:
428,366,162290,5,12,2:3:0:0:
403,359,162384,1,0,0:0:0:0:
378,352,162479,1,0,0:0:0:0:
353,345,162573,1,0,0:0:0:0:
337,316,162667,5,12,2:3:0:0:
312,323,162762,1,0,0:0:0:0:
287,330,162856,1,0,0:0:0:0:
262,337,162950,1,0,0:0:0:0:
230,343,163045,5,12,2:3:0:0:
237,318,163138,1,0,0:0:0:0:
244,293,163231,1,0,0:0:0:0:
251,268,163324,1,0,0:0:0:0:
280,252,163417,5,12,2:3:0:0:
273,227,163510,1,0,0:0:0:0:
266,202,163604,1,0,0:0:0:0:
259,177,163697,1,0,0:0:0:0:
232,158,163790,5,12,2:3:0:0:
252,143,163883,1,0,0:0:0:0:
256,117,163976,1,0,0:0:0:0:
241,95,164069,1,0,0:0:0:0:
212,79,164163,5,12,2:3:0:0:
236,82,164256,1,0,0:0:0:0:
257,66,164349,1,0,0:0:0:0:
262,40,164442,1,0,0:0:0:0:
256,8,164535,5,12,2:3:0:0:
271,28,164628,1,0,0:0:0:0:
297,31,164722,1,0,0:0:0:0:
319,17,164815,1,0,0:0:0:0:
346,0,164910,5,12,2:3:0:0:
342,24,165003,1,0,0:0:0:0:
358,45,165097,1,0,0:0:0:0:
384,50,165191,1,0,0:0:0:0:
451,28,165285,5,12,2:3:0:0:
453,34,165378,1,0,0:0:0:0:
455,39,165472,2,0,L|469:91,1,32
384,238,165660,6,0,L|398:186,1,32,10|0,2:3|0:0,0:0:0:0:
409,125,165847,2,0,L|356:138,1,32,2|0,0:0|0:0,0:0:0:0:
298,161,166035,2,0,L|336:199,1,32,10|0,2:3|0:0,0:0:0:0:
472,185,166219,5,2,0:0:0:0:
472,185,166311,1,0,0:0:0:0:
472,185,166403,2,0,L|525:172,1,32,8|0,2:3|0:0,0:0:0:0:
398,248,166587,2,0,L|345:235,1,32,2|0,0:0|0:0,0:0:0:0:
260,284,166771,6,0,L|247:231,1,32,12|0,2:3|0:0,0:0:0:0:
225,117,166957,1,2,0:0:0:0:
223,123,167050,1,0,0:0:0:0:
221,129,167143,2,0,L|208:182,1,32,8|0,2:3|0:0,0:0:0:0:
125,223,167330,5,2,0:0:0:0:
149,230,167423,1,0,0:0:0:0:
173,237,167516,1,12,2:3:0:0:
78,280,167702,5,8,2:3:0:0:
57,247,167795,1,8,2:3:0:0:
54,208,167889,1,8,2:3:0:0:
71,173,167982,1,8,2:3:0:0:
91,140,168075,1,8,2:3:0:0:
91,101,168168,1,8,2:3:0:0:
73,66,168261,5,4,0:0:0:0:
88,77,168355,1,8,2:3:0:0:
107,79,168449,1,0,0:0:0:0:
124,71,168544,1,8,2:3:0:0:
133,54,168640,1,2,0:0:0:0:
137,35,168735,1,8,2:3:0:0:
152,23,168830,1,0,0:0:0:0:
171,22,168925,1,8,2:3:0:0:
187,31,169020,1,2,0:0:0:0:
193,48,169115,1,8,2:3:0:0:
192,67,169210,1,0,0:0:0:0:
179,81,169305,1,8,2:3:0:0:
166,95,169400,1,2,0:0:0:0:
163,114,169495,1,8,2:3:0:0:
173,130,169590,1,0,0:0:0:0:
189,139,169685,1,8,2:3:0:0:
208,141,169779,5,2,0:0:0:0:
189,122,169874,1,8,2:3:0:0:
163,114,169969,1,0,0:0:0:0:
145,132,170064,1,8,2:3:0:0:
141,157,170159,1,2,0:0:0:0:
156,177,170254,1,8,2:3:0:0:
180,185,170349,1,0,0:0:0:0:
202,196,170444,1,8,2:3:0:0:
214,218,170539,1,2,0:0:0:0:
206,242,170634,1,8,2:3:0:0:
185,256,170729,1,0,0:0:0:0:
166,273,170824,1,8,2:3:0:0:
166,298,170919,1,2,0:0:0:0:
184,316,171014,1,8,2:3:0:0:
209,317,171109,1,0,0:0:0:0:
232,307,171204,1,8,2:3:0:0:
245,285,171298,5,2,0:0:0:0:
254,293,171391,1,8,2:3:0:0:
265,297,171485,1,0,0:0:0:0:
277,292,171579,1,8,2:3:0:0:
286,282,171673,1,2,0:0:0:0:
291,270,171766,1,8,2:3:0:0:
300,261,171860,1,0,0:0:0:0:
312,259,171954,1,8,2:3:0:0:
324,263,172048,1,2,0:0:0:0:
332,272,172141,1,8,2:3:0:0:
341,280,172235,1,0,0:0:0:0:
352,285,172329,1,8,2:3:0:0:
364,284,172423,1,2,0:0:0:0:
375,277,172516,1,8,2:3:0:0:
379,265,172610,1,0,0:0:0:0:
375,252,172704,1,8,2:3:0:0:
368,240,172798,5,2,0:0:0:0:
364,245,172891,1,8,2:3:0:0:
364,251,172985,1,0,0:0:0:0:
365,257,173079,1,8,2:3:0:0:
368,262,173173,1,2,0:0:0:0:
373,265,173266,1,8,2:3:0:0:
379,265,173360,1,0,0:0:0:0:
385,264,173454,1,8,2:3:0:0:
390,261,173548,1,2,0:0:0:0:
395,257,173641,1,8,2:3:0:0:
400,253,173735,1,0,0:0:0:0:
406,251,173829,1,8,2:3:0:0:
412,251,173923,1,2,0:0:0:0:
417,253,174016,1,8,2:3:0:0:
422,256,174110,1,0,0:0:0:0:
425,261,174204,1,8,2:3:0:0:
487,287,174298,5,4,0:0:0:0:
483,267,174391,1,8,2:3:0:0:
480,247,174485,1,2,0:0:0:0:
476,227,174579,1,8,2:3:0:0:
473,208,174673,2,0,L|514:222,1,32,2|8,0:0|2:3,0:0:0:0:
382,166,174860,5,2,0:0:0:0:
386,146,174954,1,8,2:3:0:0:
389,126,175048,1,2,0:0:0:0:
393,106,175141,1,8,2:3:0:0:
396,87,175235,2,0,L|355:101,1,32,2|8,0:0|2:3,0:0:0:0:
481,53,175423,5,2,0:0:0:0:
477,33,175516,1,8,2:3:0:0:
474,14,175610,2,0,L|515:28,1,32,2|8,0:0|2:3,0:0:0:0:
365,97,175798,5,2,0:0:0:0:
345,96,175891,1,8,2:3:0:0:
327,88,175985,1,2,0:0:0:0:
315,72,176079,1,8,2:3:0:0:
310,53,176173,2,0,L|322:17,1,32,2|8,0:0|2:3,0:0:0:0:
229,90,176360,5,2,0:0:0:0:
214,103,176454,1,8,2:3:0:0:
195,110,176548,1,2,0:0:0:0:
175,107,176641,1,8,2:3:0:0:
158,97,176735,2,0,L|141:63,1,32,2|8,0:0|2:3,0:0:0:0:
119,179,176923,5,2,0:0:0:0:
103,191,177016,1,8,2:3:0:0:
84,196,177110,2,0,L|47:184,1,32,2|8,0:0|2:3,0:0:0:0:
199,186,177298,5,4,0:0:0:0:
206,203,177391,1,8,2:3:0:0:
213,220,177485,1,2,0:0:0:0:
220,237,177579,1,8,2:3:0:0:
228,254,177673,2,0,L|172:243,1,32,2|8,0:0|2:3,0:0:0:0:
321,246,177860,5,2,0:0:0:0:
314,263,177954,1,8,2:3:0:0:
307,280,178048,1,2,0:0:0:0:
300,297,178141,1,8,2:3:0:0:
292,314,178235,2,0,L|348:303,1,32,2|8,0:0|2:3,0:0:0:0:
204,329,178423,5,2,0:0:0:0:
211,346,178516,1,8,2:3:0:0:
219,363,178610,2,0,L|163:352,1,32,2|8,0:0|2:3,0:0:0:0:
414,172,178798,6,0,L|393:226,1,32,4|8,0:0|2:3,0:0:0:0:
498,240,178985,1,4,0:0:0:0:
498,240,179079,1,8,2:3:0:0:
498,240,179173,2,0,L|461:194,1,32,0|8,0:0|2:3,0:0:0:0:
399,281,179360,1,4,0:0:0:0:
399,281,179454,1,8,2:3:0:0:
399,281,179548,2,0,L|457:271,1,32,0|8,0:0|2:3,0:0:0:0:
485,144,179735,6,0,L|496:114,1,32,4|8,0:0|2:3,0:0:0:0:
327,231,179923,2,0,L|295:235,1,32,4|8,0:0|2:3,0:0:0:0:
492,316,180110,2,0,L|512:340,1,32,4|8,0:0|2:3,0:0:0:0:
226,327,180298,5,4,0:0:0:0:
210,315,180391,1,8,2:3:0:0:
190,315,180485,1,0,0:0:0:0:
178,330,180579,1,8,2:3:0:0:
171,348,180673,1,2,0:0:0:0:
153,356,180766,1,8,2:3:0:0:
135,348,180860,1,0,0:0:0:0:
132,328,180954,1,8,2:3:0:0:
143,312,181048,1,2,0:0:0:0:
154,296,181141,1,8,2:3:0:0:
149,277,181235,1,0,0:0:0:0:
132,266,181329,1,8,2:3:0:0:
112,265,181423,1,2,0:0:0:0:
99,280,181516,1,8,2:3:0:0:
100,299,181610,1,0,0:0:0:0:
116,309,181704,1,8,2:3:0:0:
135,308,181798,5,2,0:0:0:0:
124,284,181891,1,8,2:3:0:0:
99,280,181985,1,0,0:0:0:0:
79,297,182079,1,8,2:3:0:0:
74,322,182173,1,2,0:0:0:0:
55,339,182266,1,8,2:3:0:0:
29,340,182360,1,0,0:0:0:0:
16,317,182454,1,8,2:3:0:0:
21,291,182548,1,2,0:0:0:0:
42,277,182641,1,8,2:3:0:0:
60,259,182735,1,0,0:0:0:0:
59,233,182829,1,8,2:3:0:0:
41,214,182923,1,2,0:0:0:0:
16,205,183016,1,8,2:3:0:0:
4,182,183110,1,0,0:0:0:0:
10,157,183204,1,8,2:3:0:0:
31,143,183298,5,2,0:0:0:0:
40,151,183391,1,8,2:3:0:0:
52,152,183485,1,0,0:0:0:0:
63,147,183579,1,8,2:3:0:0:
72,138,183673,1,2,0:0:0:0:
78,126,183766,1,8,2:3:0:0:
84,114,183860,1,0,0:0:0:0:
94,106,183954,1,8,2:3:0:0:
106,104,184048,1,2,0:0:0:0:
118,107,184141,1,8,2:3:0:0:
127,115,184235,1,0,0:0:0:0:
133,126,184329,1,8,2:3:0:0:
144,131,184423,1,2,0:0:0:0:
156,131,184516,1,8,2:3:0:0:
168,126,184610,1,0,0:0:0:0:
176,116,184704,1,8,2:3:0:0:
177,103,184798,5,2,0:0:0:0:
172,107,184891,1,8,2:3:0:0:
169,112,184985,1,0,0:0:0:0:
169,118,185079,1,8,2:3:0:0:
168,126,185173,1,2,0:0:0:0:
172,130,185266,1,8,2:3:0:0:
177,132,185360,1,0,0:0:0:0:
183,132,185454,1,8,2:3:0:0:
189,131,185548,1,2,0:0:0:0:
194,128,185641,1,8,2:3:0:0:
199,124,185735,1,0,0:0:0:0:
202,118,185829,1,8,2:3:0:0:
233,90,185923,6,0,L|250:146,1,32,4|8,0:0|2:3,0:0:0:0:
313,163,186112,2,0,L|296:219,1,32,4|8,0:0|2:3,0:0:0:0:
148,272,186302,5,4,0:0:0:0:
163,260,186395,1,8,2:3:0:0:
182,258,186488,1,2,0:0:0:0:
200,264,186581,1,8,2:3:0:0:
214,276,186674,2,0,L|226:331,1,32,2|8,0:0|2:3,0:0:0:0:
312,344,186861,5,2,0:0:0:0:
327,356,186954,1,8,2:3:0:0:
346,358,187047,1,2,0:0:0:0:
364,352,187140,1,8,2:3:0:0:
378,340,187233,2,0,L|390:285,1,32,2|8,0:0|2:3,0:0:0:0:
468,257,187420,5,2,0:0:0:0:
487,255,187513,1,8,2:3:0:0:
505,261,187606,2,0,L|517:316,1,32,2|8,0:0|2:3,0:0:0:0:
388,230,187792,5,2,0:0:0:0:
376,214,187885,1,8,2:3:0:0:
374,194,187979,1,2,0:0:0:0:
380,176,188072,1,8,2:3:0:0:
391,160,188165,2,0,L|440:148,1,32,2|8,0:0|2:3,0:0:0:0:
309,138,188351,5,2,0:0:0:0:
289,135,188444,1,8,2:3:0:0:
273,122,188538,1,2,0:0:0:0:
265,105,188631,1,8,2:3:0:0:
261,86,188724,2,0,L|287:42,1,32,2|8,0:0|2:3,0:0:0:0:
176,107,188910,5,2,0:0:0:0:
158,100,189003,1,8,2:3:0:0:
142,90,189097,2,0,L|129:41,1,32,2|8,0:0|2:3,0:0:0:0:
76,177,189283,5,4,0:0:0:0:
84,186,189377,1,8,2:3:0:0:
85,198,189471,1,2,0:0:0:0:
79,209,189566,1,8,2:3:0:0:
70,218,189660,2,0,L|17:227,1,32,2|8,0:0|2:3,0:0:0:0:
151,244,189849,5,4,0:0:0:0:
143,253,189943,1,8,2:3:0:0:
142,265,190037,1,2,0:0:0:0:
148,276,190132,1,8,2:3:0:0:
157,285,190226,2,0,L|210:294,1,32,2|8,0:0|2:3,0:0:0:0:
67,311,190415,5,4,0:0:0:0:
68,323,190509,1,8,2:3:0:0:
62,334,190603,2,0,L|9:343,1,32,2|8,0:0|2:3,0:0:0:0:
261,222,190792,6,0,L|240:277,1,32,4|8,0:0|2:3,0:0:0:0:
349,288,190979,1,4,0:0:0:0:
349,288,191073,1,8,2:3:0:0:
349,288,191167,2,0,L|328:263,1,32,2|8,0:0|2:3,0:0:0:0:
249,328,191354,2,0,L|307:318,1,32,4|8,0:0|2:3,0:0:0:0:
411,358,191542,5,8,2:3:0:0:
435,328,191635,1,8,2:3:0:0:
444,290,191729,1,8,2:3:0:0:
436,252,191823,1,8,2:3:0:0:
416,219,191917,1,8,2:3:0:0:
394,186,192010,1,8,2:3:0:0:
388,147,192104,1,8,2:3:0:0:
396,109,192198,1,8,2:3:0:0:
420,79,192292,5,4,0:0:0:0:
407,75,192386,1,0,0:0:0:0:
394,71,192481,1,0,0:0:0:0:
381,67,192576,1,0,0:0:0:0:
319,32,192671,6,0,L|309:73,1,32,12|0,2:3|0:0,0:0:0:0:
283,171,192861,2,0,L|273:130,1,32,4|0,0:0|0:0,0:0:0:0:
232,47,193051,5,4,0:0:0:0:
216,58,193143,1,0,0:0:0:0:
196,59,193236,1,0,0:0:0:0:
180,47,193329,1,0,0:0:0:0:
166,33,193422,1,10,2:3:0:0:
151,20,193515,1,0,0:0:0:0:
131,19,193608,1,0,0:0:0:0:
114,28,193701,1,0,0:0:0:0:
106,45,193794,1,2,0:0:0:0:
110,63,193886,1,0,0:0:0:0:
123,77,193979,1,0,0:0:0:0:
138,88,194072,1,0,0:0:0:0:
146,105,194165,1,10,2:3:0:0:
142,123,194258,1,0,0:0:0:0:
128,137,194351,1,0,0:0:0:0:
110,144,194444,1,0,0:0:0:0:
90,144,194537,1,2,0:0:0:0:
71,148,194629,1,0,0:0:0:0:
57,162,194722,1,0,0:0:0:0:
54,181,194815,1,0,0:0:0:0:
59,199,194908,1,10,2:3:0:0:
73,211,195001,1,0,0:0:0:0:
91,216,195094,1,0,0:0:0:0:
110,213,195187,1,0,0:0:0:0:
127,203,195280,5,4,0:0:0:0:
125,209,195372,1,0,0:0:0:0:
123,215,195465,1,0,0:0:0:0:
122,221,195558,1,0,0:0:0:0:
120,291,195651,6,0,L|164:277,1,32,12|0,2:3|0:0,0:0:0:0:
205,218,195837,2,0,L|249:232,1,32,4|0,0:0|0:0,0:0:0:0:
287,310,196023,5,4,0:0:0:0:
296,301,196116,1,0,0:0:0:0:
308,299,196210,1,0,0:0:0:0:
320,303,196304,1,0,0:0:0:0:
328,312,196398,1,10,2:3:0:0:
335,322,196491,1,0,0:0:0:0:
345,328,196585,1,0,0:0:0:0:
357,330,196679,1,0,0:0:0:0:
369,327,196773,1,2,0:0:0:0:
379,319,196866,1,0,0:0:0:0:
384,307,196960,1,0,0:0:0:0:
382,294,197054,1,0,0:0:0:0:
375,283,197148,1,10,2:3:0:0:
365,274,197241,1,0,0:0:0:0:
356,264,197335,1,0,0:0:0:0:
353,251,197429,1,0,0:0:0:0:
357,238,197523,1,2,0:0:0:0:
366,229,197617,1,0,0:0:0:0:
377,224,197711,1,0,0:0:0:0:
385,214,197806,1,0,0:0:0:0:
385,201,197900,1,10,2:3:0:0:
379,189,197994,1,0,0:0:0:0:
368,181,198089,1,0,0:0:0:0:
355,178,198183,1,0,0:0:0:0:
342,182,198277,5,4,0:0:0:0:
340,175,198372,1,0,0:0:0:0:
338,169,198466,1,0,0:0:0:0:
336,162,198560,1,0,0:0:0:0:
327,92,198655,6,0,L|386:105,1,32,12|0,2:3|0:0,0:0:0:0:
247,80,198843,2,0,L|260:139,1,32,4|0,0:0|0:0,0:0:0:0:
258,205,199032,5,4,0:0:0:0:
252,202,199125,1,0,0:0:0:0:
245,201,199219,1,0,0:0:0:0:
238,203,199313,1,0,0:0:0:0:
233,207,199407,1,10,2:3:0:0:
229,212,199500,1,0,0:0:0:0:
227,218,199594,1,0,0:0:0:0:
226,224,199688,1,0,0:0:0:0:
224,230,199782,1,2,0:0:0:0:
220,235,199875,1,0,0:0:0:0:
214,237,199969,1,0,0:0:0:0:
207,237,200063,1,0,0:0:0:0:
200,235,200157,1,10,2:3:0:0:
194,231,200250,1,0,0:0:0:0:
190,225,200344,1,0,0:0:0:0:
188,218,200438,1,0,0:0:0:0:
189,211,200532,1,2,0:0:0:0:
192,205,200625,1,0,0:0:0:0:
197,201,200719,1,0,0:0:0:0:
203,199,200813,1,0,0:0:0:0:
209,200,200907,1,10,2:3:0:0:
214,203,201000,1,0,0:0:0:0:
218,207,201094,1,0,0:0:0:0:
221,212,201188,1,0,0:0:0:0:
221,218,201282,5,4,0:0:0:0:
203,226,201375,1,0,0:0:0:0:
184,220,201469,1,0,0:0:0:0:
172,204,201563,1,0,0:0:0:0:
166,185,201657,1,12,2:3:0:0:
153,170,201750,1,0,0:0:0:0:
134,164,201844,1,0,0:0:0:0:
115,167,201938,1,0,0:0:0:0:
101,180,202032,1,4,0:0:0:0:
98,199,202125,1,0,0:0:0:0:
107,215,202219,1,0,0:0:0:0:
121,227,202313,1,0,0:0:0:0:
130,243,202407,1,12,2:3:0:0:
127,262,202500,1,0,0:0:0:0:
116,278,202594,1,0,0:0:0:0:
99,287,202688,1,0,0:0:0:0:
79,284,202782,5,2,0:0:0:0:
104,264,202874,1,2,0:0:0:0:
136,263,202967,1,2,0:0:0:0:
163,278,203059,1,2,0:0:0:0:
178,306,203152,2,0,L|224:294,1,32,10|2,2:3|0:0,0:0:0:0:
331,257,203337,5,2,0:0:0:0:
300,250,203430,1,2,0:0:0:0:
269,242,203522,5,2,0:0:0:0:
269,242,203615,2,0,L|281:288,1,32,2|2,0:0|0:0,0:0:0:0:
218,150,203800,5,2,0:0:0:0:
218,150,203893,2,0,L|206:196,1,32,10|2,2:3|0:0,0:0:0:0:
373,114,204078,5,2,0:0:0:0:
342,121,204170,1,2,0:0:0:0:
310,128,204263,5,4,0:0:0:0:
320,135,204356,1,0,0:0:0:0:
330,141,204450,1,0,0:0:0:0:
340,148,204544,1,0,0:0:0:0:
401,181,204638,6,0,L|452:169,1,32,12|0,2:3|0:0,0:0:0:0:
338,225,204825,2,0,L|326:276,1,32,4|0,0:0|0:0,0:0:0:0:
425,349,205013,5,4,0:0:0:0:
409,336,205106,1,0,0:0:0:0:
390,332,205200,1,0,0:0:0:0:
372,338,205294,1,0,0:0:0:0:
358,351,205388,1,10,2:3:0:0:
344,364,205481,1,0,0:0:0:0:
324,364,205575,1,0,0:0:0:0:
306,356,205669,1,0,0:0:0:0:
293,341,205763,1,2,0:0:0:0:
288,322,205856,1,0,0:0:0:0:
293,303,205950,1,0,0:0:0:0:
306,289,206044,1,0,0:0:0:0:
320,276,206138,1,10,2:3:0:0:
325,257,206231,1,0,0:0:0:0:
321,238,206325,1,0,0:0:0:0:
309,222,206419,1,0,0:0:0:0:
291,214,206513,1,2,0:0:0:0:
271,214,206606,1,0,0:0:0:0:
255,225,206700,1,0,0:0:0:0:
240,237,206794,1,0,0:0:0:0:
221,240,206888,1,10,2:3:0:0:
202,235,206981,1,0,0:0:0:0:
187,222,207075,1,0,0:0:0:0:
181,203,207169,1,0,0:0:0:0:
186,184,207263,5,4,0:0:0:0:
179,182,207357,1,0,0:0:0:0:
172,180,207451,1,0,0:0:0:0:
165,178,207546,1,0,0:0:0:0:
96,163,207640,6,0,L|107:207,1,32,12|0,2:3|0:0,0:0:0:0:
195,108,207829,2,0,L|151:97,1,32,4|0,0:0|0:0,0:0:0:0:
272,127,208017,5,4,0:0:0:0:
284,131,208112,1,0,0:0:0:0:
296,130,208206,1,0,0:0:0:0:
307,124,208300,1,0,0:0:0:0:
315,114,208395,1,10,2:3:0:0:
320,102,208489,1,0,0:0:0:0:
330,94,208583,1,0,0:0:0:0:
342,92,208678,1,0,0:0:0:0:
354,96,208772,1,2,0:0:0:0:
361,105,208866,1,0,0:0:0:0:
366,116,208961,1,0,0:0:0:0:
364,128,209055,1,0,0:0:0:0:
357,138,209149,1,10,2:3:0:0:
350,149,209244,1,0,0:0:0:0:
351,161,209338,1,0,0:0:0:0:
358,171,209432,1,0,0:0:0:0:
369,177,209527,1,2,0:0:0:0:
380,181,209621,1,0,0:0:0:0:
390,188,209715,1,0,0:0:0:0:
395,199,209810,1,0,0:0:0:0:
395,211,209904,1,10,2:3:0:0:
391,223,209998,1,0,0:0:0:0:
382,232,210093,1,0,0:0:0:0:
370,238,210187,1,0,0:0:0:0:
357,238,210281,5,4,0:0:0:0:
363,269,210376,1,0,0:0:0:0:
369,300,210470,1,0,0:0:0:0:
376,331,210564,1,0,0:0:0:0:
383,362,210659,5,12,2:3:0:0:
387,357,210753,1,0,0:0:0:0:
391,352,210847,1,0,0:0:0:0:
395,347,210942,1,0,0:0:0:0:
305,345,211036,6,0,L|317:394,1,32,4|0,0:0|0:0,0:0:0:0:
283,245,211225,2,0,L|272:197,1,32,4|0,0:0|0:0,0:0:0:0:
117,290,211413,5,12,2:3:0:0:
141,294,211508,1,0,0:0:0:0:
166,299,211602,1,0,0:0:0:0:
190,304,211696,1,0,0:0:0:0:
215,309,211791,5,4,0:0:0:0:
215,309,211976,1,0,0:0:0:0:
134,214,212161,2,0,L|76:223,1,47.9999985351563,8|0,2:3|0:0,0:0:0:0:
209,231,212531,5,0,0:0:0:0:
209,231,212716,1,0,0:0:0:0:
286,193,212902,2,0,P|296:170|299:134,1,47.9999985351563,8|0,2:3|0:0,0:0:0:0:
126,112,213272,5,4,0:0:0:0:
203,140,213459,1,0,0:0:0:0:
133,31,213647,5,10,2:3:0:0:
143,198,213834,1,0,0:0:0:0:
109,105,214022,5,2,0:0:0:0:
186,133,214209,1,0,0:0:0:0:
116,24,214397,5,10,2:3:0:0:
241,35,214569,5,0,0:0:0:0:
231,38,214635,1,0,0:0:0:0:
222,41,214701,1,0,0:0:0:0:
212,44,214768,1,12,2:3:0:0:
262,112,214967,5,0,0:0:0:0:
269,119,215033,1,0,0:0:0:0:
276,125,215099,1,0,0:0:0:0:
284,132,215166,1,12,2:3:0:0:
322,58,215366,5,0,0:0:0:0:
324,48,215432,1,0,0:0:0:0:
326,39,215498,1,0,0:0:0:0:
328,28,215565,1,12,2:3:0:0:
454,145,215725,5,8,2:3:0:0:
425,136,215814,1,8,2:3:0:0:
397,127,215904,1,8,2:3:0:0:
368,119,215994,1,8,2:3:0:0:
376,136,216084,1,0,0:0:0:0:
384,153,216174,1,0,0:0:0:0:
392,170,216263,5,0,0:0:0:0:
392,170,216454,1,0,0:0:0:0:
206,202,216645,1,12,2:3:0:0:
325,225,216836,1,4,0:0:0:0:
149,259,217027,2,0,P|101:263|72:267,1,64,4|0,0:0|2:0,0:0:0:0:
2,86,217402,2,0,P|43:147|28:204,1,128,10|2,2:3|2:3,0:0:0:0:
4,275,217965,1,0,0:0:0:0:
149,259,218153,2,0,P|115:262|69:268,1,64,10|0,2:3|2:0,0:0:0:0:
4,275,218529,1,2,0:0:0:0:
4,275,218717,1,0,0:0:0:0:
149,259,218905,1,10,2:3:0:0:
101,374,219093,5,0,0:0:0:0:
97,361,219156,1,0,0:0:0:0:
93,348,219219,1,0,0:0:0:0:
89,335,219282,2,0,L|161:344,1,64
322,244,219657,5,12,2:3:0:0:
411,337,219844,1,4,0:0:0:0:
234,291,220032,2,0,P|239:256|247:207,1,64,4|0,0:0|2:0,0:0:0:0:
421,152,220407,2,0,B|363:160|363:160|353:154|353:154|290:164,1,128,10|2,2:3|2:3,0:0:0:0:
219,152,220969,1,0,0:0:0:0:
234,291,221157,2,0,P|239:256|247:207,1,64,10|0,2:3|2:0,0:0:0:0:
219,152,221532,1,2,0:0:0:0:
219,152,221719,1,0,0:0:0:0:
345,242,221907,1,12,2:3:0:0:
330,105,222094,5,0,0:0:0:0:
325,121,222157,1,0,0:0:0:0:
320,137,222219,1,0,0:0:0:0:
315,153,222282,2,0,L|396:138,1,64
249,63,222657,5,12,2:3:0:0:
219,152,222844,1,0,0:0:0:0:
156,13,223032,1,4,0:0:0:0:
310,167,223219,1,4,0:0:0:0:
246,42,223407,2,0,P|236:105|226:183,1,128,8|2,2:3|2:3,0:0:0:0:
271,239,223970,1,0,0:0:0:0:
127,247,224159,2,0,L|190:237,1,64,10|0,2:3|2:0,0:0:0:0:
271,239,224522,1,2,0:0:0:0:
271,239,224704,1,0,0:0:0:0:
127,247,224904,2,0,L|190:237,1,64,10|0,2:3|0:0,0:0:0:0:
344,138,225291,5,4,0:0:0:0:
371,236,225478,1,0,0:0:0:0:
255,153,225666,5,12,2:3:0:0:
463,215,225853,1,0,0:0:0:0:
351,247,226041,5,4,0:0:0:0:
363,127,226228,1,0,0:0:0:0:
271,239,226416,5,12,2:3:0:0:
441,129,226603,1,0,0:0:0:0:
344,138,226791,5,4,0:0:0:0:
371,236,226976,1,0,0:0:0:0:
255,153,227159,5,12,2:3:0:0:
463,215,227343,1,0,0:0:0:0:
351,247,227527,5,4,0:0:0:0:
363,127,227711,1,0,0:0:0:0:
426,284,227895,5,12,2:3:0:0:
298,80,228071,1,0,0:0:0:0:
267,339,228247,5,4,0:0:0:0:
267,339,228453,1,0,0:0:0:0:
84,262,228660,1,8,2:3:0:0:
142,366,228847,1,4,0:0:0:0:
181,179,229035,2,0,P|175:143|166:99,1,64,4|0,0:0|2:0,0:0:0:0:
0,53,229410,2,0,P|40:84|121:50,1,128,10|2,2:3|2:3,0:0:0:0:
191,38,229972,1,0,0:0:0:0:
181,179,230160,2,0,P|175:147|169:101,1,64,10|0,2:3|2:0,0:0:0:0:
191,38,230535,1,2,2:3:0:0:
191,38,230722,1,0,0:0:0:0:
181,179,230910,1,10,2:3:0:0:
301,135,231097,5,0,0:0:0:0:
288,130,231160,1,0,0:0:0:0:
276,125,231222,1,0,0:0:0:0:
263,120,231285,2,0,P|275:161|283:198,1,64
359,295,231653,5,12,2:3:0:0:
208,251,231837,1,4,0:0:0:0:
346,383,232021,2,0,P|374:377|422:368,1,64,4|0,0:0|2:0,0:0:0:0:
480,183,232396,2,0,B|468:243|468:243|475:254|475:254|462:311,1,128,10|2,2:3|2:3,0:0:0:0:
492,383,232965,1,0,0:0:0:0:
346,383,233155,2,0,P|374:377|422:368,1,64,10|0,2:3|2:0,0:0:0:0:
492,383,233527,1,2,0:0:0:0:
492,383,233714,1,0,0:0:0:0:
393,183,233900,1,12,2:3:0:0:
326,280,234086,5,0,0:0:0:0:
337,285,234148,1,0,0:0:0:0:
348,290,234210,1,0,0:0:0:0:
359,295,234273,2,0,P|333:302|288:313,1,64
132,238,234645,5,12,2:3:0:0:
162,327,234832,1,0,0:0:0:0:
44,214,235018,1,4,0:0:0:0:
236,356,235204,1,4,0:0:0:0:
153,343,235391,2,0,P|145:280|135:217,1,128,8|2,2:3|2:3,0:0:0:0:
191,147,235953,1,0,0:0:0:0:
51,126,236141,2,0,P|88:134|130:144,1,64,10|0,2:3|2:0,0:0:0:0:
191,147,236516,1,2,0:0:0:0:
191,147,236703,1,0,0:0:0:0:
51,126,236891,2,0,P|88:134|130:144,1,64,10|0,2:3|2:0,0:0:0:0:
297,59,237290,5,4,0:0:0:0:
338,147,237477,1,0,0:0:0:0:
218,70,237665,5,12,2:3:0:0:
402,99,237852,1,0,0:0:0:0:
287,44,238040,5,4,0:0:0:0:
347,160,238227,1,0,0:0:0:0:
201,66,238415,5,12,2:3:0:0:
419,101,238602,1,0,0:0:0:0:
277,203,238790,5,12,2:3:0:0:
271,221,238883,1,0,0:0:0:0:
265,239,238977,1,0,0:0:0:0:
260,257,239071,1,0,0:0:0:0:
218,281,239165,5,12,2:3:0:0:
224,299,239258,1,0,0:0:0:0:
230,317,239352,1,0,0:0:0:0:
235,335,239446,1,0,0:0:0:0:
281,346,239540,5,12,2:3:0:0:
347,160,239721,1,8,2:3:0:0:
310,128,239812,1,8,2:3:0:0:
262,122,239903,1,8,2:3:0:0:
220,144,239994,1,8,2:3:0:0:
177,166,240085,1,8,2:3:0:0:
129,158,240176,1,8,2:3:0:0:
93,125,240267,5,4,0:0:0:0:
89,137,240360,1,0,0:0:0:0:
85,149,240453,1,0,0:0:0:0:
81,161,240546,1,0,0:0:0:0:
54,179,240639,5,10,2:3:0:0:
58,191,240732,1,0,0:0:0:0:
62,203,240826,1,0,0:0:0:0:
66,215,240919,1,0,0:0:0:0:
78,244,241012,6,0,L|27:235,1,32,10|0,2:3|0:0,0:0:0:0:
163,304,241201,1,4,0:0:0:0:
167,315,241296,1,0,0:0:0:0:
138,299,241391,5,10,2:3:0:0:
150,295,241486,1,0,0:0:0:0:
162,291,241581,1,0,0:0:0:0:
174,288,241676,1,0,0:0:0:0:
220,274,241771,5,10,2:3:0:0:
209,266,241866,1,0,0:0:0:0:
207,253,241961,1,0,0:0:0:0:
214,242,242056,1,0,0:0:0:0:
239,222,242151,5,10,2:3:0:0:
250,214,242246,1,0,0:0:0:0:
252,201,242341,1,0,0:0:0:0:
245,190,242436,1,0,0:0:0:0:
218,171,242530,5,10,2:3:0:0:
207,163,242625,1,0,0:0:0:0:
205,150,242720,1,0,0:0:0:0:
212,139,242815,1,0,0:0:0:0:
233,115,242910,6,0,L|272:107,1,32,10|0,2:3|0:0,0:0:0:0:
126,150,243100,2,0,L|87:142,1,32
151,43,243290,5,12,2:3:0:0:
151,43,243385,1,0,0:0:0:0:
151,43,243480,2,0,L|166:99,1,32
31,186,243670,5,10,2:3:0:0:
21,163,243765,1,0,0:0:0:0:
19,137,243860,1,2,0:0:0:0:
25,111,243955,1,0,0:0:0:0:
41,90,244049,2,0,L|34:56,1,32,10|0,2:3|0:0,0:0:0:0:
126,150,244235,5,4,0:0:0:0:
123,162,244328,1,0,0:0:0:0:
120,174,244421,1,8,2:3:0:0:
117,186,244514,1,0,0:0:0:0:
114,198,244608,1,0,0:0:0:0:
111,210,244701,1,0,0:0:0:0:
67,265,244794,5,12,2:3:0:0:
79,263,244887,1,0,0:0:0:0:
91,265,244980,1,0,0:0:0:0:
102,271,245073,1,0,0:0:0:0:
129,288,245167,5,10,2:3:0:0:
141,290,245260,1,0,0:0:0:0:
153,288,245353,1,0,0:0:0:0:
164,282,245446,1,0,0:0:0:0:
190,263,245539,5,10,2:3:0:0:
202,261,245632,1,0,0:0:0:0:
214,263,245726,1,0,0:0:0:0:
225,269,245819,1,0,0:0:0:0:
252,286,245912,5,10,2:3:0:0:
264,288,246005,1,0,0:0:0:0:
276,286,246098,1,0,0:0:0:0:
287,280,246191,1,0,0:0:0:0:
332,294,246285,5,12,2:3:0:0:
337,275,246378,1,0,0:0:0:0:
342,256,246471,1,0,0:0:0:0:
347,237,246564,1,0,0:0:0:0:
375,222,246657,5,12,2:3:0:0:
370,203,246750,1,0,0:0:0:0:
365,184,246844,1,0,0:0:0:0:
360,165,246937,1,0,0:0:0:0:
329,156,247030,5,12,2:3:0:0:
334,137,247123,1,0,0:0:0:0:
339,118,247217,1,0,0:0:0:0:
344,99,247311,1,0,0:0:0:0:
373,86,247405,5,12,2:3:0:0:
368,67,247498,1,0,0:0:0:0:
363,48,247592,1,0,0:0:0:0:
358,29,247686,1,0,0:0:0:0:
373,0,247780,5,12,2:3:0:0:
358,12,247873,1,0,0:0:0:0:
339,15,247967,1,0,0:0:0:0:
320,9,248061,1,0,0:0:0:0:
290,22,248155,5,12,2:3:0:0:
287,41,248248,1,0,0:0:0:0:
276,56,248342,1,0,0:0:0:0:
258,65,248436,1,0,0:0:0:0:
239,91,248530,5,12,2:3:0:0:
250,106,248623,1,0,0:0:0:0:
253,124,248717,1,0,0:0:0:0:
246,144,248811,1,0,0:0:0:0:
242,175,248905,5,12,2:3:0:0:
260,177,248998,1,0,0:0:0:0:
275,188,249092,1,0,0:0:0:0:
284,207,249186,1,0,0:0:0:0:
251,269,249280,5,12,2:3:0:0:
256,271,249373,1,0,0:0:0:0:
261,273,249467,2,0,L|311:288,1,32
168,214,249655,6,0,L|183:264,1,32,10|0,2:3|0:0,0:0:0:0:
203,330,249842,2,0,L|152:317,1,32,2|0,0:0|0:0,0:0:0:0:
84,302,250030,2,0,L|119:264,1,32,10|0,2:3|0:0,0:0:0:0:
291,358,250217,5,4,0:0:0:0:
303,355,250311,1,0,0:0:0:0:
315,351,250405,1,8,2:3:0:0:
327,348,250498,1,0,0:0:0:0:
339,345,250592,2,0,L|324:395,1,32,2|0,0:0|0:0,0:0:0:0:
366,275,250780,6,0,L|417:288,1,32,10|0,2:3|0:0,0:0:0:0:
487,305,250967,1,2,0:0:0:0:
487,305,251061,1,0,0:0:0:0:
487,305,251155,2,0,L|474:254,1,32,8|0,2:3|0:0,0:0:0:0:
415,193,251342,5,4,0:0:0:0:
418,181,251436,1,0,0:0:0:0:
429,211,251530,5,8,2:3:0:0:
417,208,251623,1,0,0:0:0:0:
405,204,251717,1,0,0:0:0:0:
393,201,251811,1,0,0:0:0:0:
373,175,251905,5,12,2:3:0:0:
361,178,251998,1,0,0:0:0:0:
349,182,252092,1,0,0:0:0:0:
337,185,252186,1,0,0:0:0:0:
304,220,252280,5,12,2:3:0:0:
300,207,252373,1,0,0:0:0:0:
290,198,252467,1,0,0:0:0:0:
277,196,252561,1,0,0:0:0:0:
257,170,252655,5,10,2:3:0:0:
244,163,252748,1,0,0:0:0:0:
231,164,252842,1,0,0:0:0:0:
220,172,252936,1,0,0:0:0:0:
193,154,253030,5,10,2:3:0:0:
178,158,253124,1,0,0:0:0:0:
170,168,253219,1,0,0:0:0:0:
168,181,253314,1,0,0:0:0:0:
137,189,253409,5,10,2:3:0:0:
129,202,253504,1,0,0:0:0:0:
130,215,253599,1,0,0:0:0:0:
138,225,253694,1,0,0:0:0:0:
172,258,253789,5,12,2:3:0:0:
159,261,253882,1,0,0:0:0:0:
146,264,253976,1,0,0:0:0:0:
133,267,254070,1,0,0:0:0:0:
102,275,254164,5,10,2:3:0:0:
115,278,254257,1,0,0:0:0:0:
128,281,254351,1,0,0:0:0:0:
141,284,254445,1,0,0:0:0:0:
173,285,254539,5,10,2:3:0:0:
160,288,254632,1,0,0:0:0:0:
147,291,254726,1,0,0:0:0:0:
134,294,254820,1,0,0:0:0:0:
102,301,254914,6,0,L|158:317,1,32,10|0,2:3|0:0,0:0:0:0:
262,339,255101,2,0,L|253:308,1,32
256,198,255289,5,12,2:3:0:0:
250,216,255382,1,0,0:0:0:0:
244,234,255476,2,0,L|295:220,1,32
406,304,255664,5,10,2:3:0:0:
387,300,255757,1,0,0:0:0:0:
368,296,255851,1,2,0:0:0:0:
349,292,255945,1,0,0:0:0:0:
330,288,256039,2,0,L|344:339,1,32,10|0,2:3|0:0,0:0:0:0:
469,355,256226,5,4,0:0:0:0:
479,338,256320,1,0,0:0:0:0:
485,319,256414,1,8,2:3:0:0:
487,300,256507,1,0,0:0:0:0:
484,280,256601,1,2,0:0:0:0:
476,262,256695,1,0,0:0:0:0:
413,229,256789,5,12,2:3:0:0:
418,217,256882,1,0,0:0:0:0:
423,205,256976,1,0,0:0:0:0:
428,193,257070,1,0,0:0:0:0:
454,175,257164,5,10,2:3:0:0:
449,163,257257,1,0,0:0:0:0:
444,151,257351,1,0,0:0:0:0:
439,139,257445,1,0,0:0:0:0:
412,121,257539,5,10,2:3:0:0:
417,109,257632,1,0,0:0:0:0:
422,97,257726,1,0,0:0:0:0:
427,85,257820,1,0,0:0:0:0:
440,55,257914,6,0,L|383:65,1,32,10|0,2:3|0:0,0:0:0:0:
327,75,258101,2,0,L|270:85,1,32
200,34,258289,5,12,2:3:0:0:
211,48,258382,1,0,0:0:0:0:
212,67,258476,1,0,0:0:0:0:
202,83,258570,1,0,0:0:0:0:
216,111,258664,5,12,2:3:0:0:
214,129,258757,1,0,0:0:0:0:
201,143,258851,1,0,0:0:0:0:
183,147,258945,1,0,0:0:0:0:
171,176,259039,5,12,2:3:0:0:
156,187,259132,1,0,0:0:0:0:
137,188,259226,1,0,0:0:0:0:
122,178,259320,1,0,0:0:0:0:
95,195,259414,5,12,2:3:0:0:
77,193,259507,1,0,0:0:0:0:
63,180,259601,1,0,0:0:0:0:
59,162,259695,1,0,0:0:0:0:
35,140,259789,5,12,2:3:0:0:
52,133,259882,1,0,0:0:0:0:
70,126,259976,1,0,0:0:0:0:
88,119,260070,1,0,0:0:0:0:
110,95,260164,5,12,2:3:0:0:
127,102,260257,1,0,0:0:0:0:
145,109,260351,1,0,0:0:0:0:
163,116,260445,1,0,0:0:0:0:
181,142,260539,5,12,2:3:0:0:
198,135,260632,1,0,0:0:0:0:
216,128,260726,1,0,0:0:0:0:
234,121,260820,1,0,0:0:0:0:
256,97,260914,5,12,2:3:0:0:
273,104,261007,1,0,0:0:0:0:
291,111,261101,1,0,0:0:0:0:
309,118,261195,1,0,0:0:0:0:
371,150,261289,5,12,2:3:0:0:
374,144,261381,1,0,0:0:0:0:
377,138,261473,2,0,L|397:87,1,32
304,197,261657,6,0,L|253:177,1,32,10|0,2:3|0:0,0:0:0:0:
281,267,261841,2,0,L|289:321,1,32,2|0,0:0|0:0,0:0:0:0:
353,252,262025,2,0,L|395:217,1,32,10|0,2:3|0:0,0:0:0:0:
138,201,262209,5,2,2:3:0:0:
155,208,262301,1,0,0:0:0:0:
173,215,262393,1,8,2:3:0:0:
191,222,262485,1,0,0:0:0:0:
208,230,262577,2,0,L|198:186,1,32,2|0,0:0|0:0,0:0:0:0:
178,301,262761,6,0,L|219:315,1,32,10|0,2:3|0:0,0:0:0:0:
102,272,262945,1,2,0:0:0:0:
84,265,263037,1,0,0:0:0:0:
67,257,263129,2,0,L|77:301,1,32,8|0,2:3|0:0,0:0:0:0:
64,181,263313,5,4,0:0:0:0:
57,163,263405,1,0,0:0:0:0:
49,146,263497,1,12,2:3:0:0:
87,58,263690,5,8,2:3:0:0:
121,75,263787,1,8,2:3:0:0:
159,75,263884,1,8,2:3:0:0:
193,59,263980,1,8,2:3:0:0:
226,40,264077,1,8,2:3:0:0:
264,36,264174,1,8,2:3:0:0:
298,52,264270,5,4,0:0:0:0:
283,64,264364,1,8,2:3:0:0:
276,81,264458,1,0,0:0:0:0:
280,99,264553,1,8,2:3:0:0:
295,110,264647,1,2,0:0:0:0:
313,113,264741,1,8,2:3:0:0:
331,108,264836,1,0,0:0:0:0:
348,99,264930,1,8,2:3:0:0:
366,102,265024,1,2,0:0:0:0:
381,113,265119,1,8,2:3:0:0:
389,130,265213,1,0,0:0:0:0:
389,149,265307,1,8,2:3:0:0:
398,165,265402,1,2,0:0:0:0:
413,176,265496,1,8,2:3:0:0:
432,178,265590,1,0,0:0:0:0:
450,173,265685,1,8,2:3:0:0:
461,157,265779,5,2,0:0:0:0:
436,150,265873,1,8,2:3:0:0:
410,155,265968,1,0,0:0:0:0:
397,177,266062,1,8,2:3:0:0:
396,202,266156,1,2,0:0:0:0:
411,222,266251,1,8,2:3:0:0:
426,242,266345,1,0,0:0:0:0:
428,267,266439,1,8,2:3:0:0:
417,290,266534,1,2,0:0:0:0:
394,302,266628,1,8,2:3:0:0:
368,299,266722,1,0,0:0:0:0:
350,280,266817,1,8,2:3:0:0:
332,261,266911,1,2,0:0:0:0:
307,254,267005,1,8,2:3:0:0:
282,261,267100,1,0,0:0:0:0:
264,279,267194,1,8,2:3:0:0:
262,304,267288,5,2,0:0:0:0:
272,296,267383,1,8,2:3:0:0:
271,283,267477,1,0,0:0:0:0:
261,274,267571,1,8,2:3:0:0:
249,269,267666,1,2,0:0:0:0:
236,266,267760,1,8,2:3:0:0:
226,257,267854,1,0,0:0:0:0:
227,244,267949,1,8,2:3:0:0:
235,234,268043,1,2,0:0:0:0:
243,224,268137,1,8,2:3:0:0:
244,211,268232,1,0,0:0:0:0:
236,200,268326,1,8,2:3:0:0:
224,194,268420,1,2,0:0:0:0:
211,193,268515,1,8,2:3:0:0:
200,200,268609,1,0,0:0:0:0:
196,212,268703,1,8,2:3:0:0:
199,227,268798,5,2,0:0:0:0:
204,220,268891,1,8,2:3:0:0:
203,212,268984,1,0,0:0:0:0:
197,206,269077,1,8,2:3:0:0:
189,202,269170,1,2,0:0:0:0:
181,203,269263,1,8,2:3:0:0:
174,207,269357,1,0,0:0:0:0:
169,213,269450,1,8,2:3:0:0:
165,219,269543,1,2,0:0:0:0:
157,222,269636,1,8,2:3:0:0:
149,221,269729,1,0,0:0:0:0:
143,215,269822,1,8,2:3:0:0:
137,208,269916,1,2,0:0:0:0:
129,205,270009,1,8,2:3:0:0:
121,205,270102,1,0,0:0:0:0:
113,208,270195,1,8,2:3:0:0:
57,158,270288,5,4,0:0:0:0:
62,139,270381,1,8,2:3:0:0:
67,120,270475,1,2,0:0:0:0:
73,101,270569,1,8,2:3:0:0:
79,82,270663,2,0,L|31:91,1,32,2|8,0:0|2:3,0:0:0:0:
186,92,270850,5,2,0:0:0:0:
204,88,270944,1,8,2:3:0:0:
220,77,271038,1,2,0:0:0:0:
230,61,271131,1,8,2:3:0:0:
233,42,271225,2,0,L|224:6,1,32,2|8,0:0|2:3,0:0:0:0:
346,61,271413,5,2,0:0:0:0:
363,53,271506,1,8,2:3:0:0:
380,46,271600,2,0,L|369:99,1,32,2|8,0:0|2:3,0:0:0:0:
441,144,271788,5,2,0:0:0:0:
436,163,271881,1,8,2:3:0:0:
431,182,271975,1,2,0:0:0:0:
425,201,272069,1,8,2:3:0:0:
419,220,272163,2,0,L|467:211,1,32,2|8,0:0|2:3,0:0:0:0:
317,228,272350,5,2,0:0:0:0:
322,247,272444,1,8,2:3:0:0:
327,266,272538,1,2,0:0:0:0:
333,285,272631,1,8,2:3:0:0:
339,304,272725,2,0,L|291:295,1,32,2|8,0:0|2:3,0:0:0:0:
434,325,272913,5,2,0:0:0:0:
428,344,273006,1,8,2:3:0:0:
422,363,273100,2,0,L|470:354,1,32,2|8,0:0|2:3,0:0:0:0:
232,281,273288,5,4,0:0:0:0:
213,282,273381,1,8,2:3:0:0:
196,291,273475,1,2,0:0:0:0:
185,306,273569,1,8,2:3:0:0:
179,324,273663,2,0,L|194:380,1,32,2|8,0:0|2:3,0:0:0:0:
120,259,273850,5,2,0:0:0:0:
105,246,273944,1,8,2:3:0:0:
87,240,274038,1,2,0:0:0:0:
69,243,274131,1,8,2:3:0:0:
52,251,274225,2,0,L|23:301,1,32,2|8,0:0|2:3,0:0:0:0:
59,163,274413,5,4,2:3:0:0:
50,146,274506,1,8,2:3:0:0:
34,134,274600,2,0,L|-22:149,1,32,2|8,0:0|2:3,0:0:0:0:
218,69,274788,6,0,L|208:111,1,32,4|8,0:0|2:3,0:0:0:0:
271,190,274975,1,6,0:0:0:0:
271,190,275069,1,8,2:3:0:0:
271,190,275163,2,0,L|239:160,1,32,0|8,0:0|2:3,0:0:0:0:
138,175,275350,1,4,0:0:0:0:
138,175,275444,1,8,2:3:0:0:
138,175,275538,2,0,L|180:161,1,32,0|8,0:0|2:3,0:0:0:0:
287,104,275725,6,0,L|329:91,1,32,4|8,0:0|2:3,0:0:0:0:
136,96,275913,2,0,L|103:66,1,32,4|8,0:0|2:3,0:0:0:0:
205,233,276100,2,0,L|195:275,1,32,4|8,0:0|2:3,0:0:0:0:
108,370,276288,5,4,0:0:0:0:
122,358,276381,1,8,2:3:0:0:
141,357,276475,1,0,0:0:0:0:
158,363,276569,1,8,2:3:0:0:
172,375,276663,1,2,0:0:0:0:
188,384,276756,1,8,2:3:0:0:
207,384,276850,1,0,0:0:0:0:
224,376,276944,1,8,2:3:0:0:
238,363,277038,1,2,0:0:0:0:
251,349,277131,1,8,2:3:0:0:
269,343,277225,1,0,0:0:0:0:
288,345,277319,1,8,2:3:0:0:
303,355,277413,1,2,0:0:0:0:
320,362,277506,1,8,2:3:0:0:
339,363,277600,1,0,0:0:0:0:
357,357,277694,1,8,2:3:0:0:
371,344,277788,5,2,0:0:0:0:
354,324,277881,1,8,2:3:0:0:
353,298,277975,1,0,0:0:0:0:
370,279,278069,1,8,2:3:0:0:
395,274,278163,1,2,0:0:0:0:
417,285,278256,1,8,2:3:0:0:
441,292,278350,1,0,0:0:0:0:
465,285,278444,1,8,2:3:0:0:
479,263,278538,1,2,0:0:0:0:
476,237,278631,1,8,2:3:0:0:
459,217,278725,1,0,0:0:0:0:
435,206,278819,1,8,2:3:0:0:
415,189,278913,1,2,0:0:0:0:
408,164,279006,1,8,2:3:0:0:
416,139,279100,1,0,0:0:0:0:
436,124,279194,1,8,2:3:0:0:
456,115,279288,5,2,0:0:0:0:
461,127,279381,1,8,2:3:0:0:
457,140,279475,1,0,0:0:0:0:
448,149,279569,1,8,2:3:0:0:
436,151,279663,1,2,0:0:0:0:
425,147,279756,1,8,2:3:0:0:
416,139,279850,1,0,0:0:0:0:
406,132,279944,1,8,2:3:0:0:
394,129,280038,1,2,0:0:0:0:
382,134,280131,1,8,2:3:0:0:
372,143,280225,1,0,0:0:0:0:
368,155,280319,1,8,2:3:0:0:
367,167,280413,1,2,0:0:0:0:
359,178,280506,1,8,2:3:0:0:
348,184,280600,1,0,0:0:0:0:
336,185,280694,1,8,2:3:0:0:
323,181,280788,5,2,0:0:0:0:
327,185,280881,1,8,2:3:0:0:
326,191,280974,1,0,0:0:0:0:
322,196,281067,1,8,2:3:0:0:
317,200,281160,1,2,0:0:0:0:
311,202,281253,1,8,2:3:0:0:
306,206,281347,1,0,0:0:0:0:
305,212,281440,1,8,2:3:0:0:
306,218,281533,1,2,0:0:0:0:
309,222,281626,1,8,2:3:0:0:
312,227,281719,1,0,0:0:0:0:
316,231,281812,1,8,2:3:0:0:
318,236,281906,1,2,0:0:0:0:
316,242,281999,1,8,2:3:0:0:
311,246,282092,1,0,0:0:0:0:
305,249,282185,1,8,2:3:0:0:
274,310,282278,5,4,0:0:0:0:
255,304,282371,1,8,2:3:0:0:
236,298,282465,1,2,0:0:0:0:
217,292,282558,1,8,2:3:0:0:
198,286,282651,2,0,L|211:338,1,32,2|8,0:0|2:3,0:0:0:0:
180,203,282837,5,2,0:0:0:0:
161,209,282930,1,8,2:3:0:0:
142,215,283024,1,2,0:0:0:0:
123,221,283118,1,8,2:3:0:0:
104,227,283210,2,0,L|117:175,1,32,2|8,0:0|2:3,0:0:0:0:
86,311,283396,5,2,0:0:0:0:
67,305,283489,1,8,2:3:0:0:
48,299,283583,2,0,L|61:351,1,32,2|8,0:0|2:3,0:0:0:0:
23,218,283769,5,2,0:0:0:0:
29,199,283864,1,8,2:3:0:0:
35,180,283960,1,2,0:0:0:0:
41,161,284055,1,8,2:3:0:0:
47,142,284151,2,0,L|-5:155,1,32,2|8,0:0|2:3,0:0:0:0:
141,126,284342,5,2,0:0:0:0:
135,107,284437,1,8,2:3:0:0:
129,88,284533,1,2,0:0:0:0:
123,69,284628,1,8,2:3:0:0:
117,50,284724,2,0,L|169:63,1,32,2|8,0:0|2:3,0:0:0:0:
26,38,284915,5,2,0:0:0:0:
32,19,285011,1,8,2:3:0:0:
38,0,285106,2,0,L|-14:13,1,32,0|8,0:0|2:3,0:0:0:0:
223,79,285297,5,4,0:0:0:0:
248,81,285393,1,8,2:3:0:0:
272,74,285488,1,2,0:0:0:0:
292,58,285584,1,8,2:3:0:0:
301,34,285679,2,0,L|292:-2,1,32,2|8,0:0|2:3,0:0:0:0:
376,84,285870,5,4,0:0:0:0:
361,104,285966,1,8,2:3:0:0:
355,128,286061,1,2,0:0:0:0:
359,154,286153,1,8,2:3:0:0:
375,174,286245,2,0,L|410:184,1,32,2|8,0:0|2:3,0:0:0:0:
285,185,286429,5,4,0:0:0:0:
267,167,286521,1,8,2:3:0:0:
242,158,286613,2,0,L|215:183,1,32,2|8,0:0|2:3,0:0:0:0:
62,287,286797,6,0,L|26:277,1,32,4|8,0:0|2:3,0:0:0:0:
143,308,286981,1,4,0:0:0:0:
143,308,287073,1,8,2:3:0:0:
143,308,287165,2,0,L|152:344,1,32,0|8,0:0|2:3,0:0:0:0:
118,232,287349,1,4,0:0:0:0:
118,232,287441,1,8,2:3:0:0:
118,232,287533,2,0,L|144:205,1,32,0|8,0:0|2:3,0:0:0:0:
82,371,287722,6,0,L|46:361,1,32,4|8,0:0|2:3,0:0:0:0:
204,255,287912,2,0,L|213:291,1,32,4|8,0:0|2:3,0:0:0:0:
37,201,288102,2,0,L|63:174,1,32,4|8,0:0|2:3,0:0:0:0:
20,52,288292,5,4,0:0:0:0:
41,66,288385,1,8,2:3:0:0:
66,69,288479,1,0,0:0:0:0:
90,59,288573,1,8,2:3:0:0:
104,37,288667,1,4,0:0:0:0:
119,16,288760,1,8,2:3:0:0:
144,10,288854,1,0,0:0:0:0:
169,14,288948,1,8,2:3:0:0:
187,32,289042,1,4,0:0:0:0:
191,56,289135,1,8,2:3:0:0:
180,79,289229,1,0,0:0:0:0:
162,97,289323,1,8,2:3:0:0:
152,120,289417,1,4,0:0:0:0:
157,144,289510,1,8,2:3:0:0:
172,164,289604,1,0,0:0:0:0:
196,172,289698,1,8,2:3:0:0:
221,170,289792,5,4,0:0:0:0:
198,147,289885,1,8,2:3:0:0:
165,145,289979,1,0,0:0:0:0:
145,170,290073,1,8,2:3:0:0:
146,202,290167,1,4,0:0:0:0:
169,222,290260,1,8,2:3:0:0:
200,228,290354,1,0,0:0:0:0:
226,246,290448,1,8,2:3:0:0:
236,276,290542,1,4,0:0:0:0:
226,306,290635,1,8,2:3:0:0:
202,327,290729,1,0,0:0:0:0:
169,325,290823,1,8,2:3:0:0:
144,303,290917,1,4,0:0:0:0:
119,283,291010,1,8,2:3:0:0:
86,284,291104,1,0,0:0:0:0:
62,305,291198,1,8,2:3:0:0:
52,335,291292,5,4,0:0:0:0:
68,327,291385,1,8,2:3:0:0:
80,312,291479,1,0,0:0:0:0:
84,294,291573,1,8,2:3:0:0:
79,276,291667,1,4,0:0:0:0:
70,258,291760,1,8,2:3:0:0:
66,240,291854,1,0,0:0:0:0:
69,221,291948,1,8,2:3:0:0:
79,205,292042,1,4,0:0:0:0:
95,195,292135,1,8,2:3:0:0:
111,186,292229,1,0,0:0:0:0:
122,171,292323,1,8,2:3:0:0:
127,152,292417,1,4,0:0:0:0:
124,133,292510,1,8,2:3:0:0:
111,119,292604,1,0,0:0:0:0:
93,110,292698,1,8,2:3:0:0:
74,116,292792,5,4,0:0:0:0:
84,126,292885,1,8,2:3:0:0:
96,131,292979,1,0,0:0:0:0:
110,128,293073,1,8,2:3:0:0:
119,119,293167,1,4,0:0:0:0:
129,109,293260,1,8,2:3:0:0:
141,104,293354,1,0,0:0:0:0:
154,107,293448,1,8,2:3:0:0:
165,114,293542,1,4,0:0:0:0:
171,124,293635,1,8,2:3:0:0:
177,135,293729,1,0,0:0:0:0:
187,143,293823,1,8,2:3:0:0:
200,144,293917,1,4,0:0:0:0:
213,141,294010,1,8,2:3:0:0:
223,133,294104,1,0,0:0:0:0:
231,121,294198,1,8,2:3:0:0:
258,53,294292,5,4,0:0:0:0:
279,67,294385,1,8,2:3:0:0:
304,70,294479,1,0,0:0:0:0:
329,65,294573,1,8,2:3:0:0:
349,49,294667,2,0,L|358:1,1,32,2|8,0:0|2:3,0:0:0:0:
349,138,294854,5,4,0:0:0:0:
353,162,294948,1,8,2:3:0:0:
369,182,295042,1,0,0:0:0:0:
390,196,295135,1,8,2:3:0:0:
416,199,295229,2,0,L|456:171,1,32,0|8,0:0|2:3,0:0:0:0:
376,277,295417,5,4,0:0:0:0:
373,302,295510,1,8,2:3:0:0:
378,327,295604,2,0,L|426:336,1,32,0|8,0:0|2:3,0:0:0:0:
307,237,295792,5,4,0:0:0:0:
282,242,295885,1,8,2:3:0:0:
256,247,295979,1,0,0:0:0:0:
230,252,296073,1,8,2:3:0:0:
204,257,296167,2,0,L|211:217,1,32,0|8,0:0|2:3,0:0:0:0:
186,340,296354,5,4,0:0:0:0:
161,335,296448,1,8,2:3:0:0:
135,330,296533,1,0,0:0:0:0:
109,325,296627,1,8,2:3:0:0:
83,320,296721,2,0,L|90:360,1,32,0|8,0:0|2:3,0:0:0:0:
29,221,296910,6,0,L|22:261,1,32,4|8,0:0|2:3,0:0:0:0:
50,111,297099,2,0,L|43:151,1,32,4|8,0:0|2:3,0:0:0:0:
6,40,297287,5,4,0:0:0:0:
29,30,297382,1,8,2:3:0:0:
54,29,297476,1,0,0:0:0:0:
79,34,297570,1,8,2:3:0:0:
101,46,297665,2,0,L|139:39,1,32,0|8,0:0|2:3,0:0:0:0:
196,114,297853,5,4,0:0:0:0:
219,124,297948,1,8,2:3:0:0:
244,125,298042,1,0,0:0:0:0:
269,120,298136,1,8,2:3:0:0:
291,108,298231,2,0,L|329:115,1,32,0|8,0:0|2:3,0:0:0:0:
391,41,298419,5,4,0:0:0:0:
416,40,298514,1,8,2:3:0:0:
441,45,298608,2,0,L|479:38,1,32,0|8,0:0|2:3,0:0:0:0:
435,166,298797,5,4,0:0:0:0:
435,166,298891,1,8,2:3:0:0:
435,166,298985,2,0,L|414:107,1,32,0|8,0:0|2:3,0:0:0:0:
501,234,299174,6,0,L|480:293,1,32,4|8,0:0|2:3,0:0:0:0:
434,335,299363,1,4,0:0:0:0:
434,335,299457,1,8,2:3:0:0:
434,335,299551,2,0,L|455:394,1,32,0|8,0:0|2:3,0:0:0:0:
386,253,299740,6,0,L|445:232,1,32,4|8,0:0|2:3,0:0:0:0:
260,287,299929,2,0,L|201:266,1,32,4|8,0:0|2:3,0:0:0:0:
381,265,300117,2,0,L|440:244,1,32,4|8,0:0|2:3,0:0:0:0:
116,305,300306,5,4,0:0:0:0:
140,298,300399,1,8,2:3:0:0:
158,279,300492,1,0,0:0:0:0:
161,253,300585,1,8,2:3:0:0:
150,229,300678,1,4,0:0:0:0:
127,218,300771,1,8,2:3:0:0:
102,211,300865,1,0,0:0:0:0:
85,191,300958,1,8,2:3:0:0:
89,164,301051,1,4,0:0:0:0:
108,148,301144,1,8,2:3:0:0:
133,145,301237,1,0,0:0:0:0:
159,151,301330,1,8,2:3:0:0:
183,143,301424,1,4,0:0:0:0:
193,119,301517,1,8,2:3:0:0:
184,93,301610,1,0,0:0:0:0:
162,82,301703,1,8,2:3:0:0:
135,83,301796,5,4,0:0:0:0:
159,103,301889,1,8,2:3:0:0:
191,103,301983,1,0,0:0:0:0:
217,84,302076,1,8,2:3:0:0:
233,56,302169,1,4,0:0:0:0:
247,27,302262,1,8,2:3:0:0:
275,12,302355,1,0,0:0:0:0:
306,14,302448,1,8,2:3:0:0:
329,35,302542,1,4,0:0:0:0:
336,65,302635,1,8,2:3:0:0:
326,95,302728,1,0,0:0:0:0:
303,117,302821,1,8,2:3:0:0:
278,137,302914,1,4,0:0:0:0:
267,166,303007,1,8,2:3:0:0:
276,196,303101,1,0,0:0:0:0:
302,214,303194,1,8,2:3:0:0:
333,218,303287,5,4,0:0:0:0:
318,205,303380,1,8,2:3:0:0:
298,204,303473,1,0,0:0:0:0:
282,215,303566,1,8,2:3:0:0:
275,233,303660,1,4,0:0:0:0:
266,249,303753,1,8,2:3:0:0:
249,259,303846,1,0,0:0:0:0:
230,255,303939,1,8,2:3:0:0:
215,242,304032,1,4,0:0:0:0:
207,224,304125,1,8,2:3:0:0:
192,211,304219,1,0,0:0:0:0:
173,206,304312,1,8,2:3:0:0:
154,212,304405,1,4,0:0:0:0:
142,227,304498,1,8,2:3:0:0:
140,246,304591,1,0,0:0:0:0:
148,263,304684,1,8,2:3:0:0:
168,275,304778,5,4,0:0:0:0:
179,263,304871,1,8,2:3:0:0:
180,247,304965,1,0,0:0:0:0:
172,233,305059,1,8,2:3:0:0:
158,225,305153,1,4,0:0:0:0:
142,227,305246,1,8,2:3:0:0:
126,232,305340,1,0,0:0:0:0:
111,226,305434,1,8,2:3:0:0:
104,211,305528,1,4,0:0:0:0:
111,197,305621,1,8,2:3:0:0:
125,190,305715,1,0,0:0:0:0:
139,182,305809,1,8,2:3:0:0:
146,167,305903,1,4,0:0:0:0:
141,151,305996,1,8,2:3:0:0:
128,141,306090,1,0,0:0:0:0:
112,144,306184,1,8,2:3:0:0:
42,148,306278,5,4,0:0:0:0:
63,134,306371,1,8,2:3:0:0:
78,113,306465,1,0,0:0:0:0:
77,87,306559,1,8,2:3:0:0:
67,63,306653,2,0,L|26:51,1,32,0|8,0:0|2:3,0:0:0:0:
157,75,306840,5,4,0:0:0:0:
181,79,306934,1,8,2:3:0:0:
207,75,307028,1,0,0:0:0:0:
224,56,307121,1,8,2:3:0:0:
234,32,307215,2,0,L|213:-5,1,32,0|8,0:0|2:3,0:0:0:0:
287,108,307403,5,4,0:0:0:0:
308,123,307496,1,8,2:3:0:0:
333,122,307590,2,0,L|345:81,1,32,0|8,0:0|2:3,0:0:0:0:
417,179,307778,5,4,0:0:0:0:
403,200,307871,1,8,2:3:0:0:
404,225,307965,1,0,0:0:0:0:
417,246,308059,1,8,2:3:0:0:
436,262,308153,2,0,L|484:254,1,32,0|8,0:0|2:3,0:0:0:0:
306,238,308340,5,4,0:0:0:0:
320,259,308434,1,8,2:3:0:0:
319,284,308528,1,0,0:0:0:0:
306,305,308623,1,8,2:3:0:0:
287,321,308719,2,0,L|239:313,1,32,0|8,0:0|2:3,0:0:0:0:
196,248,308910,6,0,L|244:240,1,32,4|8,0:0|2:3,0:0:0:0:
87,264,309101,2,0,L|135:256,1,32,4|8,0:0|2:3,0:0:0:0:
39,178,309292,5,4,0:0:0:0:
33,166,309387,1,8,2:3:0:0:
28,154,309483,1,0,0:0:0:0:
62,120,309578,5,12,2:3:0:0:
68,108,309674,1,0,0:0:0:0:
73,96,309770,1,8,2:3:0:0:
40,60,309865,5,4,0:0:0:0:
51,65,309961,1,8,2:3:0:0:
63,68,310056,1,0,0:0:0:0:
75,66,310148,1,8,2:3:0:0:
87,62,310241,1,0,0:0:0:0:
97,54,310333,1,8,2:3:0:0:
146,3,310426,6,0,L|156:59,1,32,4|8,0:0|2:3,0:0:0:0:
238,81,310611,2,0,L|228:137,1,32,4|8,0:0|2:3,0:0:0:0:
131,216,310796,5,4,0:0:0:0:
156,197,310889,1,0,0:0:0:0:
184,194,310981,1,0,0:0:0:0:
209,207,311074,1,0,0:0:0:0:
225,230,311167,1,0,0:0:0:0:
226,258,311259,1,0,0:0:0:0:
201,320,311352,6,0,L|167:309,2,21.3333333333333
275,316,311537,1,0,0:0:0:0:
303,311,311630,1,0,0:0:0:0:
371,289,311722,6,0,L|379:252,2,21.3333333333333
360,358,311907,1,0,0:0:0:0:
388,353,311996,1,0,0:0:0:0:
416,348,312085,1,0,0:0:0:0:
444,343,312174,1,0,0:0:0:0:
512,326,312264,6,0,B|493:312|493:312|436:320|364:338,1,143.999995605469,4|0,0:0|2:0,0:0:0:0:
319,370,313023,2,0,P|271:360|215:350,1,95.9999970703126,8|0,2:3|2:0,0:0:0:0:
158,210,313580,5,0,0:0:0:0:
190,280,313767,1,0,0:0:0:0:
234,218,313955,1,0,0:0:0:0:
114,273,314144,2,0,L|56:261,1,47.9999985351563,0|0,0:0|2:0,0:0:0:0:
0,306,314521,2,0,P|25:287|13:179,1,143.999995605469,8|0,2:3|2:0,0:0:0:0:
36,60,315276,6,0,B|100:49|100:49|110:56|110:56|193:41,1,143.999995605469,0|0,0:0|2:0,0:0:0:0:
249,20,316031,2,0,P|241:67|233:119,1,95.9999970703126,8|0,2:3|2:0,0:0:0:0:
345,242,316597,5,0,0:0:0:0:
331,146,316785,1,0,0:0:0:0:
255,204,316974,1,0,0:0:0:0:
422,181,317163,2,0,L|484:192,1,47.9999985351563,0|0,0:0|2:0,0:0:0:0:
230,210,317540,5,12,2:3:0:0:
369,256,317729,1,4,0:0:0:0:
322,123,317917,2,0,L|327:181,1,47.9999985351563,4|0,0:0|2:0,0:0:0:0:
479,382,318295,6,0,P|470:335|518:246,1,143.999995605469,4|0,0:0|2:0,0:0:0:0:
469,189,319040,2,0,P|462:142|454:85,1,95.9999970703126,8|0,2:3|2:0,0:0:0:0:
328,52,319585,5,0,0:0:0:0:
379,109,319767,1,0,0:0:0:0:
403,36,319949,1,0,0:0:0:0:
304,126,320130,2,0,L|238:108,1,47.9999985351563,0|0,0:0|2:0,0:0:0:0:
202,50,320531,2,0,B|214:111|214:111|206:124|206:124|223:200,1,143.999995605469,8|0,2:3|2:0,0:0:0:0:
28,262,321276,6,0,P|59:235|174:246,1,143.999995605469,0|0,0:0|2:0,0:0:0:0:
228,264,322026,2,0,P|220:316|213:366,1,95.9999970703126,8|0,2:3|2:0,0:0:0:0:
113,350,322588,5,0,0:0:0:0:
111,340,322651,1,0,0:0:0:0:
109,330,322713,1,0,0:0:0:0:
107,320,322776,5,2,0:0:0:0:
242,255,322962,1,4,0:0:0:0:
137,175,323151,2,0,L|144:222,1,47.9999985351563,2|0,0:0|2:0,0:0:0:0:
211,110,323526,5,12,2:3:0:0:
86,80,323713,1,0,0:0:0:0:
237,112,323901,2,0,L|286:101,1,47.9999985351563,2|0,0:0|2:0,0:0:0:0:
461,29,324281,6,0,P|443:68|498:160,1,143.999995605469,4|0,0:0|2:0,0:0:0:0:
421,199,325031,2,0,P|429:245|439:300,1,95.9999970703126,8|0,2:3|2:0,0:0:0:0:
339,383,325593,5,0,0:0:0:0:
363,309,325781,1,0,0:0:0:0:
413,367,325968,1,0,0:0:0:0:
288,324,326156,2,0,L|229:337,1,47.9999985351563,0|0,0:0|2:0,0:0:0:0:
180,287,326531,2,0,P|173:335|165:381,1,95.9999970703126,8|0,2:3|2:0,0:0:0:0:
89,383,327093,1,0,0:0:0:0:
43,156,327281,5,0,0:0:0:0:
82,239,327468,1,0,0:0:0:0:
133,103,327656,1,0,0:0:0:0:
0,298,327843,1,4,0:0:0:0:
70,247,328031,2,0,P|63:199|55:152,1,95.9999970703126,8|2,2:3|2:3,0:0:0:0:
112,100,328593,1,0,0:0:0:0:
369,87,328781,5,0,0:0:0:0:
278,119,328968,1,0,0:0:0:0:
440,142,329156,1,0,0:0:0:0:
223,49,329343,1,4,0:0:0:0:
373,113,329531,2,0,P|325:104|269:95,1,95.9999970703126,8|2,2:3|2:3,0:0:0:0:
209,61,330093,1,0,0:0:0:0:
353,219,330281,6,0,P|293:208|222:267,1,143.999995605469,4|0,0:0|2:0,0:0:0:0:
253,326,331031,2,0,P|206:332|144:341,1,95.9999970703126,8|0,2:3|2:0,0:0:0:0:
59,249,331591,5,0,0:0:0:0:
134,264,331776,1,0,0:0:0:0:
83,322,331961,1,0,0:0:0:0:
110,191,332146,2,0,L|98:132,1,47.9999985351563,0|0,0:0|2:0,0:0:0:0:
30,111,332531,2,0,P|40:59|47:14,1,95.9999970703126,8|0,2:3|2:0,0:0:0:0:
122,4,333092,1,0,0:0:0:0:
219,176,333280,5,4,0:0:0:0:
259,97,333467,1,2,2:3:0:0:
251,95,333561,1,2,2:3:0:0:
243,93,333655,1,2,2:3:0:0:
236,92,333748,1,2,2:3:0:0:
228,90,333842,1,2,2:3:0:0:
301,167,334030,2,0,L|357:156,2,47.9999985351563,8|0|2,2:3|2:0|2:3,0:0:0:0:
200,181,334593,1,0,0:0:0:0:
407,48,334781,6,0,L|393:105,1,47.9999985351563,4|0,0:0|2:0,0:0:0:0:
464,190,335146,1,2,2:3:0:0:
447,180,335238,1,2,2:3:0:0:
429,171,335329,1,4,0:0:0:0:
360,316,335512,5,0,0:0:0:0:
270,247,335695,1,0,0:0:0:0:
288,241,335787,1,0,0:0:0:0:
306,235,335878,1,0,0:0:0:0:
298,252,335970,1,0,0:0:0:0:
290,269,336061,1,0,0:0:0:0:
282,286,336152,1,0,0:0:0:0:
276,302,336244,6,0,B|217:313|217:313|204:310|204:310|118:328,1,143.999995605469,4|0,0:0|2:0,0:0:0:0:
64,347,337024,2,0,P|68:317|75:249,1,95.9999970703126,8|0,2:3|2:0,0:0:0:0:
152,142,337586,5,0,0:0:0:0:
82,174,337774,1,0,0:0:0:0:
144,218,337961,1,0,0:0:0:0:
90,96,338149,2,0,L|104:32,1,47.9999985351563,0|0,0:0|2:0,0:0:0:0:
45,0,338524,2,0,B|105:11|105:11|116:26|116:26|199:43,1,143.999995605469,8|0,2:3|2:0,0:0:0:0:
493,82,339274,6,0,P|454:93|358:42,1,143.999995605469,0|0,0:0|2:0,0:0:0:0:
411,112,340024,2,0,P|398:155|383:211,1,95.9999970703126,8|0,2:3|2:0,0:0:0:0:
434,361,340586,5,0,0:0:0:0:
363,295,340774,1,0,0:0:0:0:
454,267,340961,1,0,0:0:0:0:
343,384,341149,2,0,L|277:363,1,47.9999985351563,0|0,0:0|2:0,0:0:0:0:
202,232,341524,5,12,2:3:0:0:
148,362,341711,1,4,0:0:0:0:
200,214,341899,2,0,L|183:155,1,47.9999985351563,4|0,0:0|2:0,0:0:0:0:
78,7,342284,6,0,P|96:38|47:137,1,143.999995605469,4|0,0:0|2:0,0:0:0:0:
101,189,343034,2,0,P|90:235|80:285,1,95.9999970703126,8|0,2:3|2:0,0:0:0:0:
181,373,343593,5,0,0:0:0:0:
156,300,343777,1,0,0:0:0:0:
105,357,343961,1,0,0:0:0:0:
232,315,344145,2,0,L|245:258,1,47.9999985351563,0|0,0:0|2:0,0:0:0:0:
176,213,344534,2,0,P|246:222|311:166,1,143.999995605469,8|0,2:3|2:0,0:0:0:0:
364,6,345284,6,0,B|375:69|375:69|385:79|385:79|400:166,1,143.999995605469,0|0,0:0|2:0,0:0:0:0:
369,211,346034,2,0,P|431:221|473:229,1,95.9999970703126,8|0,2:3|2:0,0:0:0:0:
276,274,346596,5,0,0:0:0:0:
271,262,346690,1,0,0:0:0:0:
267,250,346784,1,2,0:0:0:0:
381,291,346971,1,4,0:0:0:0:
215,332,347159,2,0,L|156:318,1,47.9999985351563,2|0,0:0|2:0,0:0:0:0:
6,211,347534,5,12,2:3:0:0:
168,150,347721,1,4,0:0:0:0:
103,272,347909,2,0,L|94:209,1,47.9999985351563,4|0,0:0|2:0,0:0:0:0:
78,17,348284,6,0,P|71:88|63:167,1,143.999995605469,4|0,0:0|2:0,0:0:0:0:
6,211,349034,2,0,P|11:260|16:311,1,95.9999970703126,8|0,2:3|2:0,0:0:0:0:
130,382,349586,5,0,0:0:0:0:
92,310,349769,1,0,0:0:0:0:
52,376,349952,1,0,0:0:0:0:
169,315,350135,2,0,L|227:331,1,47.9999985351563,0|0,0:0|2:0,0:0:0:0:
277,282,350501,2,0,P|289:337|301:383,1,95.9999970703126,8|0,2:3|2:0,0:0:0:0:
362,332,351070,1,0,0:0:0:0:
200,238,351261,5,0,0:0:0:0:
373,172,351450,1,0,0:0:0:0:
258,137,351640,1,0,0:0:0:0:
472,91,351830,1,4,0:0:0:0:
386,55,352020,2,0,L|374:165,1,95.9999970703126,8|2,2:3|2:3,0:0:0:0:
446,178,352590,1,0,0:0:0:0:
165,153,352779,5,0,0:0:0:0:
349,245,352969,1,0,0:0:0:0:
200,285,353159,1,0,0:0:0:0:
444,322,353349,1,4,0:0:0:0:
364,367,353539,2,0,L|350:259,1,95.9999970703126,8|2,2:3|2:3,0:0:0:0:
456,197,354109,1,4,0:0:0:0:
165,153,354298,6,0,B|230:160|230:160|239:171|239:171|325:179,1,143.999995605469,4|0,0:0|2:0,0:0:0:0:
379,186,355034,2,0,P|370:135|361:81,1,95.9999970703126,8|0,2:3|2:0,0:0:0:0:
248,21,355586,5,0,0:0:0:0:
285,88,355770,1,0,0:0:0:0:
325,23,355957,1,0,0:0:0:0:
208,87,356145,2,0,L|140:80,1,47.9999985351563,0|0,0:0|2:0,0:0:0:0:
107,26,356520,2,0,P|59:32|11:38,1,95.9999970703126,8|0,2:3|2:0,0:0:0:0:
0,114,357082,1,0,0:0:0:0:
206,188,357275,5,0,0:0:0:0:
121,216,357462,1,2,2:3:0:0:
119,208,357556,1,2,2:3:0:0:
117,200,357650,1,2,2:3:0:0:
116,192,357743,1,2,2:3:0:0:
115,184,357837,1,2,2:3:0:0:
186,268,358025,2,0,L|170:328,2,47.9999985351563,8|0|2,2:3|2:0|2:3,0:0:0:0:
100,294,358587,1,0,0:0:0:0:
363,255,358775,5,0,0:0:0:0:
272,251,358962,1,2,2:3:0:0:
273,259,359056,1,2,2:3:0:0:
274,267,359150,1,2,2:3:0:0:
276,275,359243,1,2,2:3:0:0:
277,283,359337,1,2,2:3:0:0:
335,114,359525,5,8,2:3:0:0:
322,186,359712,1,0,0:0:0:0:
282,63,359900,1,0,0:0:0:0:
409,90,360087,1,0,0:0:0:0:
221,153,360275,5,0,0:0:0:0:
221,153,360649,1,0,0:0:0:0:
148,177,360836,1,0,0:0:0:0:
272,251,361024,6,0,P|236:256|205:274,1,71.9999978027344,12|0,2:3|2:0,0:0:0:0:
226,129,361774,2,0,P|248:157|279:175,1,71.9999978027344,0|0,0:0|2:0,0:0:0:0:
141,230,362524,2,0,P|154:196|154:160,1,71.9999978027344,8|0,2:3|2:0,0:0:0:0:
41,65,363275,6,0,P|65:61|91:56,1,47.9999985351563,0|0,0:0|2:0,0:0:0:0:
115,51,363836,1,0,2:0:0:0:
292,19,364040,6,0,L|272:96,1,71.9999978027344,12|0,2:3|2:0,0:0:0:0:
413,127,364790,2,0,L|356:71,1,71.9999978027344,0|0,0:0|2:0,0:0:0:0:
259,178,365540,2,0,L|335:156,1,71.9999978027344,8|0,2:3|2:0,0:0:0:0:
433,213,366290,6,0,L|426:260,1,47.9999985351563,0|0,0:0|2:0,0:0:0:0:
498,308,366852,1,2,2:3:0:0:
281,342,367040,1,10,2:3:0:0:
365,366,367224,2,0,L|370:335,1,23.9999992675781,4|0,0:0|2:0,0:0:0:0:
328,158,367592,5,0,0:0:0:0:
328,158,367776,2,0,P|330:202|316:235,1,71.9999978027344,0|0,0:0|2:0,0:0:0:0:
174,253,368512,2,0,L|252:266,1,71.9999978027344,8|0,2:3|2:0,0:0:0:0:
109,93,369264,6,0,L|103:123,1,23.9999992675781,4|0,0:0|2:0,0:0:0:0:
39,174,369640,2,0,L|45:204,1,23.9999992675781,2|0,2:3|0:0,0:0:0:0:
168,242,370016,6,0,P|154:246|138:251,1,23.9999992675781,10|0,2:3|2:0,0:0:0:0:
74,298,370392,2,0,P|60:293|44:289,1,23.9999992675781,2|0,2:3|2:0,0:0:0:0:
262,255,370769,6,0,L|253:284,1,23.9999992675781,2|0,0:0|2:0,0:0:0:0:
182,326,371145,2,0,L|191:355,1,23.9999992675781,2|0,2:3|2:0,0:0:0:0:
395,62,371521,5,12,2:3:0:0:
352,156,371709,1,4,0:0:0:0:
293,50,371897,1,4,0:0:0:0:
452,154,372085,1,4,0:0:0:0:
205,108,372273,6,0,P|239:116|279:130,1,71.9999978027344,0|0,0:0|2:0,0:0:0:0:
337,170,372649,1,0,0:0:0:0:
337,170,372838,1,0,0:0:0:0:
138,198,373026,6,0,P|178:203|205:230,1,71.9999978027344,12|0,2:3|2:0,0:0:0:0:
158,334,373778,2,0,P|142:296|152:259,1,71.9999978027344,0|0,0:0|2:0,0:0:0:0:
267,249,374530,2,0,P|242:281|205:291,1,71.9999978027344,8|0,2:3|2:0,0:0:0:0:
40,197,375283,6,0,L|48:148,1,47.9999985351563,0|0,0:0|2:0,0:0:0:0:
51,119,375847,1,0,2:0:0:0:
221,75,376035,6,0,L|146:93,1,71.9999978027344,12|0,2:3|2:0,0:0:0:0:
294,79,376787,2,0,L|315:5,1,71.9999978027344,0|0,0:0|2:0,0:0:0:0:
255,141,377540,2,0,L|308:196,1,71.9999978027344,8|0,2:3|2:0,0:0:0:0:
498,241,378290,6,0,P|471:247|446:255,1,47.9999985351563,0|0,0:0|2:0,0:0:0:0:
395,188,378852,1,2,2:3:0:0:
342,362,379040,1,12,2:3:0:0:
302,287,379227,2,0,L|334:282,1,23.9999992675781,4|0,0:0|2:0,0:0:0:0:
228,348,379602,5,0,0:0:0:0:
178,150,379790,2,0,P|171:187|163:228,1,71.9999978027344,4|0,0:0|2:0,0:0:0:0:
102,282,380540,2,0,P|109:319|117:360,1,71.9999978027344,8|0,2:3|2:0,0:0:0:0:
178,150,381270,6,0,L|209:157,1,23.9999992675781,4|0,0:0|2:0,0:0:0:0:
267,210,381645,2,0,L|298:203,1,23.9999992675781,2|0,2:3|2:0,0:0:0:0:
342,85,382020,6,0,L|335:116,1,23.9999992675781,10|0,2:3|2:0,0:0:0:0:
409,155,382395,2,0,L|416:186,1,23.9999992675781,2|0,2:3|2:0,0:0:0:0:
353,250,382770,6,0,P|380:254|404:259,1,47.9999985351563,2|2,0:0|2:3,0:0:0:0:
451,347,383332,1,0,0:0:0:0:
455,345,383395,1,0,0:0:0:0:
459,343,383457,1,0,0:0:0:0:
463,341,383520,5,12,0:0:0:0:
418,248,383704,1,4,0:0:0:0:
376,375,383888,1,4,0:0:0:0:
510,228,384072,1,4,0:0:0:0:
239,313,384256,6,0,P|277:319|317:336,1,71.9999978027344,4|0,0:0|2:0,0:0:0:0:
380,354,384624,1,0,0:0:0:0:
380,354,384808,1,0,0:0:0:0:
295,146,385017,6,0,P|285:182|278:223,1,71.9999978027344,12|0,2:3|2:0,0:0:0:0:
239,77,385771,2,0,P|275:67|314:53,1,71.9999978027344,0|0,0:0|2:0,0:0:0:0:
207,160,386526,2,0,P|180:133|148:106,1,71.9999978027344,8|0,2:3|2:0,0:0:0:0:
26,227,387276,6,0,L|77:236,1,47.9999985351563,0|0,0:0|2:0,0:0:0:0:
104,239,387838,1,0,2:0:0:0:
208,358,388026,6,0,P|199:335|223:290,1,71.9999978027344,12|0,2:3|2:0,0:0:0:0:
170,178,388776,2,0,P|194:181|221:224,1,71.9999978027344,0|0,0:0|2:0,0:0:0:0:
345,236,389526,2,0,P|329:255|278:257,1,71.9999978027344,8|0,2:3|2:0,0:0:0:0:
294,77,390276,6,0,L|347:87,1,47.9999985351563,0|0,0:0|2:0,0:0:0:0:
416,42,390838,1,2,2:3:0:0:
470,250,391026,1,4,0:0:0:0:
503,170,391213,2,0,L|471:164,1,23.9999992675781,4|0,0:0|2:0,0:0:0:0:
284,259,391588,5,0,0:0:0:0:
284,259,391776,2,0,P|321:266|352:292,1,71.9999978027344,0|0,0:0|2:0,0:0:0:0:
433,346,392526,2,0,P|459:341|507:335,1,71.9999978027344,8|0,2:3|2:0,0:0:0:0:
267,334,393276,6,0,L|236:325,1,23.9999992675781,4|0,0:0|2:0,0:0:0:0:
179,268,393651,2,0,L|148:277,1,23.9999992675781,2|0,2:3|2:0,0:0:0:0:
102,363,394026,6,0,L|93:332,1,23.9999992675781,10|0,2:3|2:0,0:0:0:0:
36,275,394401,2,0,L|45:244,1,23.9999992675781,2|0,2:3|2:0,0:0:0:0:
135,197,394776,6,0,L|104:188,1,23.9999992675781,2|0,0:0|2:0,0:0:0:0:
47,131,395151,2,0,L|16:140,1,23.9999992675781,2|0,2:3|2:0,0:0:0:0:
268,57,395526,5,4,0:0:0:0:
173,100,395713,1,4,0:0:0:0:
357,125,395901,1,4,0:0:0:0:
187,16,396088,1,4,0:0:0:0:
267,215,396276,6,0,P|260:181|237:138,1,71.9999978027344,4|0,0:0|2:0,0:0:0:0:
168,121,396651,1,0,0:0:0:0:
168,121,396838,1,0,0:0:0:0:
106,355,397031,6,0,P|142:349|176:343,1,71.9999978027344,12|0,2:3|2:0,0:0:0:0:
281,355,397790,2,0,P|257:326|235:300,1,71.9999978027344,0|0,0:0|2:0,0:0:0:0:
188,206,398549,2,0,P|175:240|163:272,1,71.9999978027344,8|0,2:3|2:0,0:0:0:0:
396,220,399294,6,0,L|345:209,1,47.9999985351563,0|0,0:0|2:0,0:0:0:0:
318,205,399853,1,0,2:0:0:0:
178,139,400039,6,0,P|194:173|185:210,1,71.9999978027344,12|0,2:3|2:0,0:0:0:0:
267,132,400789,2,0,P|288:101|324:90,1,71.9999978027344,0|0,0:0|2:0,0:0:0:0:
216,58,401539,2,0,P|178:54|151:28,1,71.9999978027344,8|0,2:3|2:0,0:0:0:0:
4,187,402289,6,0,L|56:181,1,47.9999985351563,0|0,0:0|2:0,0:0:0:0:
100,110,402851,1,2,2:3:0:0:
153,295,403039,1,12,2:3:0:0:
193,225,403226,2,0,L|160:217,1,23.9999992675781,4|0,0:0|2:0,0:0:0:0:
240,298,403601,5,0,0:0:0:0:
488,267,403789,2,0,P|451:272|412:278,1,71.9999978027344,4|0,0:0|2:0,0:0:0:0:
375,364,404539,2,0,P|338:359|299:353,1,71.9999978027344,8|0,2:3|2:0,0:0:0:0:
311,164,405289,6,0,L|304:137,1,23.9999992675781,4|0,0:0|2:0,0:0:0:0:
390,97,405664,2,0,L|397:70,1,23.9999992675781,2|0,2:3|2:0,0:0:0:0:
256,53,406039,6,0,P|282:58|307:63,1,47.9999985351563,2|2,0:0|2:3,0:0:0:0:
226,129,406598,1,0,0:0:0:0:
101,47,406784,5,12,2:3:0:0:
138,150,406970,1,4,0:0:0:0:
7,37,407157,1,4,0:0:0:0:
212,113,407343,1,4,0:0:0:0:
0,274,407529,5,4,0:0:0:0:
56,176,407716,1,4,0:0:0:0:
98,320,407902,1,4,0:0:0:0:
116,65,408088,1,4,0:0:0:0:
338,309,408275,6,0,B|299:282|251:275|217:281|217:281|206:308|176:333|176:333|212:247|192:203|188:219|170:150|197:95|197:95|247:119|340:104|340:104|326:130|315:166|331:207|351:233|351:233|315:216|262:209|262:209|252:180|242:153|263:107|262:46|262:46|239:40|189:14|189:14|222:40|277:56|301:46|315:41|353:23|366:16|371:38|417:60|460:93|406:132|376:144|386:164|417:206|417:206|406:178|419:149,1,1487.99995458985,4|0,0:0|2:0,0:0:0:0:
