osu file format v14

[General]
AudioFilename: audio1.ogg
AudioLeadIn: 0
PreviewTime: 568
Countdown: 0
SampleSet: Soft
StackLeniency: 0.7
Mode: 0
LetterboxInBreaks: 0
WidescreenStoryboard: 1

[Editor]
DistanceSpacing: 1
BeatDivisor: 4
GridSize: 4
TimelineZoom: 1.4

[Metadata]
Title:Koakuma datte Kamawanai!
TitleUnicode:小悪魔だってかまわない!
Artist:Meychan
ArtistUnicode:めいちゃん
Creator:YamYA
Version:Normal
Source:
Tags:HoneyWorks japanese jpop j-pop pop utaite male vocal hatsune miku 初音ミク cover i don't mind if you are a little minx! dont youre you're
BeatmapID:3412869
BeatmapSetID:1570458

[Difficulty]
HPDrainRate:4
CircleSize:3.5
OverallDifficulty:4
ApproachRate:5
SliderMultiplier:1.1
SliderTickRate:1

[Events]
//Background and Video events
Video,0,"y2mate (2).mp4"
0,0,"BG2.jpg",0,0
//Break Periods
2,80275,89722
//Storyboard Layer 0 (Background)
//Storyboard Layer 1 (Fail)
//Storyboard Layer 2 (Pass)
//Storyboard Layer 3 (Foreground)
//Storyboard Layer 4 (Overlay)
//Storyboard Sound Samples

[TimingPoints]
75,338.983050847458,4,2,1,70,1,0
752,-100,4,2,1,60,0,0
1430,338.983050847458,4,2,1,70,1,0
1430,-100,4,2,1,70,0,0
23125,-100,4,2,1,70,0,0
33803,-100,4,2,2,60,0,0
33973,-100,4,2,2,60,0,0
34142,-100,4,2,1,60,0,0
42108,-100,4,2,1,70,0,0
46854,-100,4,2,1,60,0,0
47531,-100,4,2,1,80,0,1
69226,-100,4,2,1,70,0,0
80075,-100,4,2,1,60,0,0
90922,-100,4,2,1,70,0,0
104480,-100,4,2,1,80,0,1
126175,-100,4,2,1,60,0,0
129736,-100,4,2,3,60,0,0
130244,-100,4,2,1,60,0,0
131261,-100,4,2,1,70,0,0
131600,-100,4,2,1,70,0,0
137024,-100,4,2,1,80,0,0
147871,-100,4,2,1,60,0,0
156007,-100,4,2,1,70,0,0
161430,-100,4,2,1,70,0,0
161431,-100,4,2,1,60,0,0
172277,-100,4,2,1,80,0,1
193972,-100,4,2,1,70,0,0

[Colours]
Combo1 : 254,233,209
Combo2 : 255,175,96
Combo3 : 228,118,121
Combo4 : 156,78,78

[HitObjects]
0,152,752,6,0,B|60:124|60:124|113:142,1,110,2|2,0:2|0:2,0:0:0:0:
151,39,1430,6,0,P|220:58|263:46,1,110,6|2,3:2|3:2,0:0:0:0:
359,10,2108,2,0,L|436:28,1,55,2|2,3:2|0:2,0:0:0:0:
444,67,2447,1,2,3:2:0:0:
444,67,2617,2,0,L|410:184,1,110,2|2,0:2|0:2,0:0:0:0:
395,281,3295,1,2,0:2:0:0:
296,330,3634,2,0,L|313:400,2,55,2|2|2,0:2|3:2|0:2,0:0:0:0:
243,312,4142,6,0,P|212:290|127:288,1,110,2|2,3:2|3:2,0:0:0:0:
58,212,4820,2,0,P|146:177|197:192,1,110,2|0,3:2|3:2,0:0:0:0:
176,125,5329,2,0,B|245:148|245:148|300:121,1,110,2|2,0:2|0:2,0:0:0:0:
302,23,6007,2,0,B|335:6|335:6|404:29,1,110,2|0,0:2|0:0,0:0:0:0:
458,39,6515,1,0,3:2:0:0:
488,144,6854,6,0,P|477:201|507:253,1,110,6|2,3:2|3:2,0:0:0:0:
473,296,7363,1,2,0:2:0:0:
473,296,7532,2,0,L|405:318,1,55,2|2,3:2|0:2,0:0:0:0:
374,282,7871,2,0,L|310:302,1,55,2|2,3:2|0:2,0:0:0:0:
229,238,8380,2,0,B|210:311|210:311|156:333,1,110,2|2,0:2|0:2,0:0:0:0:
86,263,9058,2,0,L|15:244,2,55,2|2|2,0:2|3:2|0:2,0:0:0:0:
136,240,9566,6,0,P|111:167|123:127,1,110,2|2,3:2|3:2,0:0:0:0:
174,42,10244,2,0,L|252:57,1,55,10|10,0:2|0:2,0:0:0:0:
268,90,10583,2,0,L|338:68,1,55,10|10,0:2|0:2,0:0:0:0:
87,81,12278,6,0,P|40:115|17:173,1,110,6|10,3:2|0:2,0:0:0:0:
46,268,12956,1,10,0:2:0:0:
46,268,13124,2,0,L|99:280,1,55,2|10,3:2|0:2,0:0:0:0:
145,250,13463,2,0,B|221:228|221:228|261:243,1,110,2|2,3:2|0:2,0:0:0:0:
352,280,14142,1,2,3:2:0:0:
460,262,14481,2,0,P|447:291|447:327,2,55,2|10|2,3:2|2:2|3:2,0:0:0:0:
452,207,14990,6,0,P|423:159|429:93,1,110,10|10,2:2|2:2,0:0:0:0:
465,4,15668,2,0,L|391:21,1,55,10|2,2:2|3:2,0:0:0:0:
357,27,16007,1,10,2:2:0:0:
357,27,16176,2,0,P|311:69|254:66,1,110,2|2,3:2|0:2,0:0:0:0:
165,25,16854,2,0,P|111:29|73:68,1,110,2|2,3:2|3:2,0:0:0:0:
51,118,17363,1,10,2:2:0:0:
158,138,17702,6,0,L|138:254,1,110,14|10,2:2|2:2,0:0:0:0:
128,356,18380,1,10,2:2:0:0:
128,356,18548,2,0,L|180:340,1,55,2|10,3:2|2:2,0:0:0:0:
234,326,18888,2,0,P|298:353|345:347,1,110,2|2,3:2|0:2,0:0:0:0:
447,345,19566,2,0,L|464:222,1,110,2|2,3:2|3:2,0:0:0:0:
475,182,20075,1,10,2:2:0:0:
466,72,20413,6,0,P|412:31|352:37,1,110,14|10,2:2|2:2,0:0:0:0:
328,131,21091,2,0,L|266:146,1,55,10|2,2:2|3:2,0:0:0:0:
225,119,21430,2,0,L|157:100,1,55,10|6,2:2|3:2,0:0:0:0:
86,173,21939,1,10,2:2:0:0:
86,173,22108,2,0,B|23:191,2,55,10|10|2,2:2|3:2|3:2,0:0:0:0:
163,251,22786,1,8,2:2:0:0:
115,350,23125,6,0,P|172:361|221:340,1,110,6|10,3:2|2:2,0:0:0:0:
244,299,23634,1,2,0:2:0:0:
244,299,23803,2,0,L|365:341,1,110,2|10,3:2|2:2,0:0:0:0:
401,350,24312,1,2,0:2:0:0:
510,362,24651,2,0,P|509:312|448:258,1,110,2|2,0:2|0:2,0:0:0:0:
431,230,25159,2,0,P|405:203|417:118,1,110,0|8,0:0|2:2,0:0:0:0:
457,36,25837,6,0,L|334:25,1,110,2|10,3:2|2:2,0:0:0:0:
262,96,26515,2,0,L|139:107,1,110,2|10,3:2|2:2,0:0:0:0:
44,82,27193,2,0,P|47:140|102:165,2,110,2|10|2,3:2|2:2|3:2,0:0:0:0:
87,47,28041,1,8,2:2:0:0:
87,47,28210,1,8,2:2:0:0:
179,105,28549,6,0,P|229:125|303:113,1,110,6|10,3:2|2:2,0:0:0:0:
322,82,29058,1,2,0:2:0:0:
322,82,29227,2,0,L|391:95,1,55,2|2,3:2|0:2,0:0:0:0:
429,104,29566,1,10,2:2:0:0:
510,177,29905,2,0,P|441:208|396:201,1,110,2|10,3:2|2:2,0:0:0:0:
372,246,30413,2,0,P|280:218|245:228,1,110,2|0,0:2|0:2,0:0:0:0:
220,246,30922,1,8,2:2:0:0:
139,320,31261,6,0,L|117:189,1,110,2|10,3:2|2:2,0:0:0:0:
13,238,31939,2,0,L|30:129,1,110,2|10,3:2|2:2,0:0:0:0:
42,78,32447,1,10,2:2:0:0:
42,78,32617,1,14,2:2:0:0:
145,115,32956,1,2,1:2:0:0:
125,6,33295,1,2,3:2:0:0:
51,213,33973,6,0,B|87:215|110:262|110:262|146:224|208:239,1,165,10|0,0:2|0:2,0:0:0:0:
219,280,34651,2,0,B|259:268|295:306|295:306|318:259|354:257,1,165,2|0,0:2|0:2,0:0:0:0:
397,290,35329,2,0,B|449:250|416:183|411:204|377:141|439:86,1,220,2|2,0:2|0:2,0:0:0:0:
503,2,36346,1,0,0:2:0:0:
393,10,36685,6,0,B|357:12|334:59|334:59|298:21|236:36,1,165,2|0,0:2|0:2,0:0:0:0:
225,77,37363,2,0,B|184:65|148:103|148:103|125:56|89:54,1,165,2|0,0:2|0:2,0:0:0:0:
35,52,38041,2,0,P|12:104|31:170,1,110,2|0,0:2|0:0,0:0:0:0:
70,253,38719,2,0,P|70:285|47:329,2,55,2|0|0,0:2|0:0|0:0,0:0:0:0:
165,308,39397,6,0,B|198:294|239:326|239:326|255:276|317:262,1,165,2|0,0:2|0:2,0:0:0:0:
337,305,40075,2,0,B|379:307|400:355|400:355|437:318|472:328,1,165,2|0,0:2|0:2,0:0:0:0:
498,280,40752,2,0,B|465:237|488:174|495:189|520:118|463:69,1,220,2|2,0:2|0:2,0:0:0:0:
383,144,41769,1,0,0:2:0:0:
326,49,42108,6,0,B|254:70|254:70|194:57,1,110,6|0,3:2|3:2,0:0:0:0:
166,46,42617,1,0,0:2:0:0:
166,46,42786,2,0,L|141:167,1,110,0|0,3:2|3:2,0:0:0:0:
33,147,43464,6,0,P|12:202|33:265,1,110,2|0,3:2|3:2,0:0:0:0:
63,288,43973,1,2,0:2:0:0:
63,288,44142,2,0,L|194:252,1,110,2|0,3:2|3:2,0:0:0:0:
260,320,44820,6,0,L|324:336,1,55,14|0,2:2|3:2,0:0:0:0:
361,305,45159,2,0,L|434:324,1,55,8|0,2:2|3:2,0:0:0:0:
467,304,45498,1,8,2:2:0:0:
425,202,45837,2,0,P|419:157|434:124,1,55,8|0,2:2|3:2,0:2:0:0:
445,98,46176,1,8,2:2:0:0:
248,61,47532,6,0,P|269:114|257:170,1,110,6|10,3:2|2:2,0:0:0:0:
197,256,48210,1,10,2:2:0:0:
197,256,48380,2,0,L|250:268,1,55,2|10,3:2|2:2,0:0:0:0:
275,317,48719,2,0,L|391:288,1,110,2|2,3:2|0:2,0:0:0:0:
488,316,49397,1,2,3:2:0:0:
476,206,49736,2,0,L|499:137,2,55,2|10|2,3:2|2:2|3:2,0:0:0:0:
421,212,50244,6,0,P|376:207|307:153,1,110,10|10,2:2|2:2,0:0:0:0:
332,66,50922,1,10,2:2:0:0:
332,66,51091,2,0,L|258:44,1,55,2|8,3:2|2:2,0:0:0:0:
229,75,51431,2,0,B|178:119|116:88,1,110,2|2,3:2|0:2,0:0:0:0:
28,43,52108,2,0,P|12:104|31:154,1,110,2|0,3:2|3:2,0:0:0:0:
62,188,52617,1,8,2:2:0:0:
44,296,52956,6,0,L|153:276,1,110,14|10,2:2|2:2,0:0:0:0:
191,237,53463,1,2,0:2:0:0:
191,237,53633,2,0,L|249:245,1,55,10|2,2:2|3:2,0:0:0:0:
283,284,53972,2,0,L|342:271,1,55,10|2,2:2|3:2,0:0:0:0:
426,205,54480,2,0,B|454:143|454:143|436:88,1,110,2|2,0:2|3:2,0:0:0:0:
342,54,55158,2,0,L|320:-4,2,55,2|10|2,0:2|2:2|3:2,0:0:0:0:
331,108,55667,6,0,P|282:146|200:139,1,110,14|10,2:2|2:2,0:0:0:0:
148,84,56345,2,0,L|139:144,1,55,10|2,2:2|3:2,0:0:0:0:
93,167,56684,2,0,L|79:247,1,55,10|6,2:2|3:2,0:0:0:0:
65,329,57192,1,8,2:2:0:0:
112,356,57362,2,0,P|145:359|173:343,1,55,2|8,3:2|2:2,0:0:0:0:
206,315,57701,2,0,P|245:272|312:264,1,110,2|10,3:2|2:2,0:0:0:0:
384,198,58379,6,0,L|438:219,1,55,6|0,3:2|0:2,0:0:0:0:
485,237,58718,2,0,P|508:289|467:369,1,110,10|2,2:2|3:2,0:0:0:0:
465,384,59226,1,2,3:2:0:0:
465,384,59396,2,0,L|401:372,1,55,10|2,2:2|3:2,0:0:0:0:
304,345,59904,1,2,3:2:0:0:
282,237,60243,2,0,B|208:217|208:217|159:240,1,110,2|0,3:2|3:2,0:0:0:0:
126,250,60751,1,8,2:2:0:0:
87,353,61090,6,0,P|35:314|23:255,1,110,6|10,3:2|2:2,0:0:0:0:
42,167,61768,1,2,3:2:0:0:
42,167,61938,2,0,L|105:138,1,55,0|10,3:2|2:2,0:0:0:0:
128,102,62277,2,0,P|183:134|245:131,1,110,2|2,3:2|3:2,0:0:0:0:
279,37,62955,2,0,P|333:40|379:70,1,110,2|0,3:2|3:2,0:0:0:0:
420,106,63463,1,8,2:2:0:0:
326,163,63802,6,0,P|325:224|349:277,1,110,6|10,3:2|2:2,0:0:0:0:
434,339,64480,1,2,3:2:0:0:
434,339,64650,2,0,P|401:357|353:365,1,55,2|10,3:2|2:2,0:0:0:0:
331,377,64989,2,0,P|286:345|217:340,1,110,2|2,3:2|3:2,0:0:0:0:
189,237,65667,2,0,P|111:261|57:235,1,110,2|2,3:2|3:2,0:0:0:0:
48,214,66175,1,10,2:2:0:0:
124,134,66514,6,0,P|155:75|214:61,1,110,6|10,3:2|2:2,0:0:0:0:
273,135,67192,1,10,2:2:0:0:
273,135,67362,2,0,L|353:116,1,55,2|10,3:2|2:2,0:0:0:0:
380,113,67701,2,0,P|371:192|390:231,1,110,6|0,3:2|1:2,0:0:0:0:
410,265,68209,1,0,1:2:0:0:
309,307,68548,2,0,B|253:302|199:367|199:367|168:306|98:309,1,220,2|6,3:2|3:2,0:0:0:0:
26,343,69566,5,10,2:2:0:0:
46,238,69905,1,10,2:2:0:0:
46,238,70075,2,0,L|33:147,1,55,2|10,3:2|2:2,0:0:0:0:
35,128,70414,2,0,B|93:156|151:121,1,110,2|2,3:2|3:2,0:0:0:0:
195,31,71091,1,2,3:2:0:0:
255,122,71430,2,0,P|242:151|242:187,2,55,2|10|2,3:2|2:2|3:2,0:0:0:0:
298,87,71939,6,0,P|365:116|413:115,1,110,10|10,2:2|2:2,0:0:0:0:
509,94,72617,2,0,L|495:158,1,55,10|2,2:2|0:2,0:0:0:0:
466,194,72956,1,10,2:2:0:0:
466,194,73125,2,0,B|491:268|491:268|477:325,1,110,2|2,3:2|0:2,0:0:0:0:
383,346,73803,2,0,B|358:272|358:272|372:215,1,110,2|2,3:2|3:2,0:0:0:0:
381,187,74312,1,10,2:2:0:0:
422,85,74651,6,0,L|296:59,1,110,6|10,3:2|2:2,0:0:0:0:
219,116,75329,1,10,2:2:0:0:
219,116,75497,2,0,L|135:127,1,55,2|10,3:2|2:2,0:0:0:0:
113,102,75837,2,0,P|73:146|87:214,1,110,2|2,3:2|3:2,0:0:0:0:
113,296,76515,2,0,P|179:273|233:288,1,110,2|2,3:2|3:2,0:0:0:0:
267,302,77024,1,10,2:2:0:0:
341,221,77363,6,0,B|392:243|392:243|462:218,1,110,14|10,2:2|2:2,0:0:0:0:
509,137,78040,2,0,L|490:73,1,55,10|2,2:2|3:2,0:0:0:0:
438,82,78379,2,0,L|421:19,1,55,10|6,2:2|3:2,0:0:0:0:
332,89,78888,1,10,0:2:0:0:
332,89,79058,2,0,P|273:101|207:74,1,110,2|10,3:2|2:2,0:0:0:0:
130,33,79735,1,8,0:3:0:0:
63,121,80075,5,4,3:2:0:0:
94,303,90922,6,0,P|86:373|62:386,2,82.5,6|2|10,3:2|0:2|2:2,0:0:0:0:
122,255,91600,2,0,P|130:185|154:172,2,82.5,2|2|10,3:2|0:2|2:2,0:0:0:0:
175,269,92278,2,0,L|301:295,1,110,2|0,3:2|3:2,0:0:0:0:
359,370,92956,1,2,3:2:0:0:
433,289,93295,1,2,3:2:0:0:
405,183,93634,6,0,P|442:147|488:146,2,82.5,2|2|10,3:2|0:2|2:2,0:0:0:0:
350,184,94312,2,0,P|312:219|266:220,2,82.5,2|2|10,3:2|0:2|2:2,0:0:0:0:
325,134,94990,2,0,L|207:101,1,110,2|0,3:2|3:2,0:0:0:0:
188,0,95668,2,0,L|115:15,1,55,0|8,3:2|2:2,0:0:0:0:
108,59,96007,1,8,2:2:0:0:
30,137,96346,6,0,P|1:99|2:53,2,82.5,6|2|10,3:2|0:2|2:2,0:0:0:0:
82,154,97024,2,0,P|111:192|110:238,2,82.5,2|2|10,3:2|0:2|2:2,0:0:0:0:
123,118,97702,2,0,P|170:93|249:95,1,110,2|0,3:2|3:2,0:0:0:0:
314,23,98380,1,2,3:2:0:0:
382,108,98719,1,10,2:2:0:0:
345,214,99058,6,0,B|309:221|309:221|221:192|221:192|173:200,1,165,6|0,3:2|1:2,0:0:0:0:
132,210,99736,1,0,3:2:0:0:
24,234,100075,1,8,2:2:0:0:
49,127,100413,2,0,P|23:78|31:39,2,82.5,6|2|10,3:2|0:2|2:2,0:0:0:0:
101,144,101091,2,0,P|155:115|197:119,2,82.5,2|0|10,3:2|0:0|2:2,0:0:0:0:
124,193,101769,6,0,L|102:316,1,110,6|8,3:2|2:2,0:0:0:0:
214,298,102447,2,0,L|222:356,2,55,8|0|8,2:2|3:2|2:2,0:0:0:0:
237,247,102956,1,0,3:2:0:0:
237,247,103125,1,8,2:2:0:0:
340,285,103464,1,8,2:2:0:0:
415,204,103803,2,0,P|365:162|358:108,1,110,10|10,3:2|2:2,0:0:0:0:
378,70,104312,1,10,2:2:0:0:
378,70,104481,6,0,L|261:88,1,110,6|10,3:2|2:2,0:0:0:0:
174,42,105159,1,10,2:2:0:0:
174,42,105329,2,0,L|105:28,1,55,2|10,3:2|2:2,0:0:0:0:
65,25,105668,2,0,P|85:98|69:131,1,110,2|2,3:2|0:2,0:0:0:0:
16,221,106346,1,2,3:2:0:0:
88,304,106685,2,0,L|65:359,2,55,2|10|2,3:2|2:2|3:2,0:0:0:0:
137,279,107193,6,0,P|182:309|235:317,1,110,10|10,2:2|2:2,0:0:0:0:
317,242,107871,1,10,2:2:0:0:
317,242,108040,2,0,P|348:245|380:271,1,55,2|10,3:2|2:2,0:0:0:0:
410,293,108380,2,0,B|461:173,1,110,2|2,3:2|0:2,0:0:0:0:
496,90,109058,2,0,P|454:96|387:47,1,110,2|0,3:2|3:2,0:0:0:0:
362,20,109566,1,8,2:2:0:0:
279,93,109905,6,0,L|170:113,1,110,14|10,2:2|2:2,0:0:0:0:
70,67,110583,2,0,L|48:124,1,55,10|2,2:2|3:2,0:0:0:0:
84,161,110922,2,0,L|61:219,1,55,10|2,2:2|3:2,0:0:0:0:
63,322,111431,2,0,B|125:293|125:293|180:311,1,110,2|2,0:2|3:2,0:0:0:0:
272,283,112107,2,0,L|337:310,2,55,2|10|2,3:2|2:2|3:2,0:0:0:0:
241,237,112617,6,0,P|242:175|299:115,1,110,14|10,2:2|2:2,0:0:0:0:
354,203,113295,2,0,L|426:187,1,55,10|2,2:2|3:2,0:0:0:0:
424,138,113634,2,0,L|485:124,1,55,10|6,2:2|3:2,0:0:0:0:
459,17,114142,1,8,2:0:0:0:
414,49,114312,2,0,P|393:57|352:47,1,55,2|8,3:2|2:0,0:0:0:0:
311,28,114651,2,0,P|242:-2|186:9,1,110,2|10,3:2|2:2,0:0:0:0:
124,75,115329,6,0,P|94:81|58:66,1,55,6|0,3:2|0:2,0:0:0:0:
26,42,115668,2,0,L|52:171,1,110,10|2,2:2|3:2,0:0:0:0:
98,182,116176,1,2,3:2:0:0:
98,182,116346,2,0,L|78:252,1,55,10|2,2:2|3:2,0:0:0:0:
53,340,116854,1,2,3:2:0:0:
160,315,117193,2,0,B|234:295|234:295|283:318,1,110,2|0,3:2|3:2,0:0:0:0:
314,332,117702,1,8,2:2:0:0:
420,360,118041,6,0,P|472:321|484:262,1,110,6|10,3:2|2:2,0:0:0:0:
406,211,118718,1,2,3:2:0:0:
406,211,118888,2,0,L|398:143,1,55,0|10,3:2|2:2,0:0:0:0:
390,101,119227,2,0,P|335:97|289:67,1,110,2|2,3:2|3:2,0:0:0:0:
185,104,119905,2,0,P|139:74|85:71,1,110,2|0,3:2|3:2,0:0:0:0:
33,90,120413,1,8,2:2:0:0:
73,192,120752,6,0,B|99:257|99:257|77:299,1,110,6|10,3:2|2:2,0:0:0:0:
162,374,121430,1,2,3:2:0:0:
162,374,121600,2,0,L|190:316,1,55,2|10,3:2|2:2,0:0:0:0:
215,277,121939,2,0,P|275:313|329:310,1,110,2|2,3:2|3:2,0:0:0:0:
383,228,122617,2,0,P|454:219|496:174,1,110,2|2,3:2|3:2,0:0:0:0:
511,148,123125,1,10,2:2:0:0:
421,84,123464,6,0,B|351:61|351:61|307:81,1,110,14|10,2:2|2:2,0:0:0:0:
226,135,124142,1,14,2:2:0:0:
226,135,124312,2,0,L|154:114,1,55,2|10,3:2|2:2,0:0:0:0:
119,109,124651,2,0,B|153:165|131:223,1,110,6|0,3:2|3:2,0:0:0:0:
112,264,125159,1,8,2:2:0:0:
182,348,125498,2,0,B|242:306|296:332|283:340|343:369|401:329,1,220,2|6,1:2|3:2,0:0:0:0:
408,226,126515,6,0,P|439:225|515:269,2,110,0|0|0,0:0|0:0|0:2,0:0:0:0:
348,133,127532,2,0,B|253:153|241:73|127:95,1,220,6|0,3:2|0:0,0:0:0:0:
35,136,128549,1,10,0:2:0:0:
99,225,128888,6,0,L|68:346,2,110,6|0|2,3:2|0:0|0:2,0:0:0:0:
203,189,129905,1,10,0:2:0:0:
197,298,130244,2,0,P|270:334|410:307,1,220,6|2,3:2|1:2,0:0:0:0:
487,241,131261,1,8,2:2:0:0:
387,195,131600,5,6,3:2:0:0:
400,85,131939,1,10,2:2:0:0:
302,34,132278,2,0,P|246:57|174:47,1,110,2|10,3:2|2:2,0:0:0:0:
89,30,132956,2,0,P|67:73|67:88,1,55,2|2,3:2|0:2,0:0:0:0:
101,121,133295,1,8,3:2:0:0:
208,144,133634,2,0,L|182:268,1,110,0|8,0:0|3:2,0:0:0:0:
117,336,134312,6,0,L|187:357,1,55,2|2,3:2|0:2,0:0:0:0:
221,331,134651,2,0,L|289:347,1,55,10|2,2:2|0:2,0:0:0:0:
321,314,134990,2,0,P|371:301|393:307,2,55,10|10|10,2:2|2:2|2:2,0:0:0:0:
337,204,135668,2,0,P|309:152|308:96,1,110,10|10,2:2|2:2,0:0:0:0:
328,51,136176,1,10,2:2:0:0:
218,64,136515,2,0,L|149:54,1,55,10|2,2:2|1:2,0:0:0:0:
112,76,136854,1,2,3:2:0:0:
63,50,137024,6,0,B|30:113|30:113|50:147|50:147|44:211,1,165,6|2,3:2|0:2,0:0:0:0:
37,255,137702,1,8,2:2:0:0:
116,331,138041,2,0,B|188:302|188:302|218:320|218:320|292:317,1,165,10|2,2:2|0:2,0:0:0:0:
325,310,138719,1,10,2:2:0:0:
414,374,139058,2,0,P|439:318|430:270,1,110,10|10,2:2|2:2,0:0:0:0:
396,236,139566,1,2,3:2:0:0:
396,236,139736,6,0,B|408:193|408:193|401:177|401:177|419:118,1,110,14|8,2:2|2:2,0:0:0:0:
326,66,140413,2,0,L|340:10,2,55,10|2|10,2:2|3:2|2:2,0:0:0:0:
308,118,140922,1,2,3:2:0:0:
290,170,141091,2,0,P|213:144|169:161,1,110,14|10,2:2|2:2,0:0:0:0:
144,49,141769,2,0,P|73:84|49:126,1,110,10|10,2:2|2:2,0:0:0:0:
33,215,142447,6,0,B|92:200|92:200|129:230|129:230|197:231,1,165,6|2,3:2|0:2,0:0:0:0:
220,273,143125,2,0,L|306:253,1,55,8|0,2:2|3:2,0:0:0:0:
312,299,143464,2,0,L|389:308,1,55,10|0,2:2|3:2,0:0:0:0:
416,281,143803,2,0,B|445:218|445:218|421:186|421:186|426:113,1,165,10|0,2:2|3:2,0:0:0:0:
389,88,144481,2,0,L|337:106,1,55,10|2,2:2|3:2,0:0:0:0:
292,74,144820,2,0,L|240:55,1,55,10|2,2:2|3:2,0:0:0:0:
204,97,145159,6,0,P|161:123|94:89,1,110,14|2,2:2|3:2,0:0:0:0:
12,48,145837,2,0,L|-3:167,1,110,6|0,1:2|3:2,0:0:0:0:
27,204,146346,1,4,3:2:0:0:
135,220,146685,2,0,P|121:251|122:284,2,55,8|2|10,2:2|3:2|2:2,0:0:0:0:
125,165,147193,1,14,2:2:0:0:
231,357,147871,6,0,B|336:324|336:324|357:345|394:351,1,165,2|2,3:2|0:2,0:0:0:0:
438,342,148549,1,10,2:2:0:0:
489,244,148888,1,2,3:2:0:0:
408,168,149227,2,0,P|427:116|428:55,1,110,2|0,3:2|0:0,0:0:0:0:
324,97,149905,2,0,P|298:144|235:177,1,110,8|0,2:2|0:2,0:0:0:0:
209,70,150583,6,0,B|102:48|102:48|84:71|53:78,1,165,2|2,3:2|0:2,0:0:0:0:
0,82,151261,1,10,2:2:0:0:
45,182,151600,1,0,3:2:0:0:
154,177,151939,2,0,P|133:254|147:297,1,110,2|0,3:2|0:0,0:0:0:0:
243,244,152617,2,0,P|284:187|338:167,1,110,8|0,2:2|0:2,0:0:0:0:
345,277,153295,6,0,B|400:282|443:320|443:320|462:284|483:267,1,165,2|2,3:2|0:2,0:0:0:0:
511,233,153973,1,10,2:2:0:0:
420,170,154312,1,0,3:2:0:0:
459,67,154651,2,0,B|374:37|379:101|279:63,1,165,2|0,3:2|3:2,0:0:0:0:
248,45,155329,1,10,2:2:0:0:
148,91,155668,1,2,0:2:0:0:
55,32,156007,6,0,P|36:80|59:150,1,110,2|0,3:2|3:2,0:0:0:0:
144,190,156685,2,0,P|163:238|140:308,1,110,0|0,3:2|3:2,0:0:0:0:
258,272,157363,6,0,P|311:269|338:283,2,73.3333333333333,2|2|2,3:2|0:2|0:2,0:0:0:0:
254,216,158041,2,0,P|289:176|317:162,2,73.3333333333333,2|2|2,3:2|0:2|0:2,0:0:0:0:
199,206,158719,6,0,P|161:149|164:84,1,110,10|8,2:2|2:2,0:0:0:0:
222,19,159397,1,8,2:2:0:0:
315,76,159736,2,0,L|380:60,1,55,8|8,2:2|2:2,0:0:0:0:
419,83,160075,1,8,2:2:0:0:
419,83,161430,6,0,L|388:190,1,110,2|2,3:2|3:2,0:0:0:0:
422,293,162108,2,0,P|362:298|318:265,1,110,2|2,3:2|3:2,0:0:0:0:
288,227,162617,2,0,P|252:194|179:194,1,110,2|2,0:2|0:2,0:0:0:0:
117,268,163295,1,2,0:2:0:0:
23,209,163634,2,0,L|41:146,1,55,2|2,0:2|3:2,0:0:0:0:
31,46,164142,6,0,L|148:80,1,110,2|2,3:2|3:2,0:0:0:0:
224,10,164820,2,0,P|247:56|227:123,1,110,2|2,3:2|3:2,0:0:0:0:
204,157,165329,2,0,P|192:234|217:267,1,110,2|2,0:2|0:2,0:0:0:0:
305,207,166007,2,0,L|465:252,1,165,2|0,0:2|3:2,0:0:0:0:
393,336,166854,6,0,P|351:368|289:370,1,110,6|2,3:2|3:2,0:0:0:0:
243,274,167532,2,0,B|192:253|192:253|141:274,1,110,10|10,2:2|2:2,0:0:0:0:
100,312,168041,2,0,B|49:333|49:333|-19:305,1,110,2|2,3:2|3:2,0:0:0:0:
55,217,168719,1,2,3:2:0:0:
130,137,169058,2,0,L|211:161,2,55,2|2|2,1:2|1:2|3:2,0:0:0:0:
90,98,169566,6,0,P|12:120|-6:163,1,110,2|2,3:2|3:2,0:0:0:0:
66,227,170244,2,0,B|89:280|89:280|63:346,1,110,10|10,2:2|2:2,0:0:0:0:
43,376,170752,1,2,3:2:0:0:
419,83,172278,6,0,P|350:64|307:76,1,110,6|10,3:2|2:2,0:0:0:0:
225,137,172956,1,10,2:2:0:0:
225,137,173125,2,0,P|192:122|173:97,1,55,2|10,3:2|2:2,0:0:0:0:
159,57,173464,2,0,P|120:80|34:80,1,110,2|2,3:2|0:2,0:0:0:0:
112,181,174142,1,2,3:2:0:0:
37,262,174481,2,0,L|11:319,2,55,2|10|2,3:2|2:2|3:2,0:0:0:0:
88,283,174989,6,0,P|143:290|197:260,1,110,10|10,2:2|2:2,0:0:0:0:
285,332,175667,1,10,2:2:0:0:
285,332,175836,2,0,L|346:341,1,55,2|8,3:2|2:2,0:0:0:0:
394,347,176176,2,0,P|425:311|426:242,1,110,2|2,3:2|0:2,0:0:0:0:
320,231,176853,2,0,P|289:195|288:126,1,110,2|0,3:2|3:2,0:0:0:0:
316,89,177362,1,8,2:2:0:0:
215,44,177701,6,0,P|152:53|101:27,1,110,6|10,3:2|2:2,0:0:0:0:
58,52,178210,1,2,0:2:0:0:
58,52,178379,2,0,L|44:115,1,55,10|2,2:2|3:2,0:0:0:0:
78,149,178718,2,0,L|89:218,1,55,10|2,2:2|3:2,0:0:0:0:
76,312,179226,2,0,B|151:283|151:283|188:310,1,110,2|2,0:2|3:2,0:0:0:0:
285,299,179905,2,0,L|312:346,2,55,2|10|2,3:2|2:2|3:2,0:0:0:0:
304,247,180413,6,0,P|304:192|338:151,1,110,14|10,2:2|2:2,0:0:0:0:
413,71,181091,2,0,L|344:37,1,55,14|2,2:2|3:2,0:0:0:0:
311,64,181430,2,0,L|255:75,1,55,10|6,2:2|3:2,0:0:0:0:
210,174,181938,5,0,1:2:0:0:
161,147,182107,2,0,P|143:139|101:146,1,55,2|8,1:2|2:0,0:0:0:0:
62,172,182447,2,0,L|15:64,1,110,10|8,2:2|2:2,0:0:0:0:
101,0,183125,2,0,L|125:51,1,55,2|0,3:2|0:0,0:0:0:0:
179,45,183464,6,0,P|228:46|282:84,1,110,14|2,2:2|3:2,0:0:0:0:
320,43,183972,1,2,3:2:0:0:
320,43,184142,2,0,L|382:22,1,55,10|2,2:2|3:2,0:0:0:0:
469,76,184650,1,2,3:2:0:0:
371,126,184989,2,0,B|351:200|351:200|374:249,1,110,2|0,3:2|3:2,0:0:0:0:
400,272,185497,1,8,2:2:0:0:
502,312,185836,6,0,P|463:364|404:376,1,110,2|14,3:2|2:2,0:0:0:0:
321,343,186514,1,2,3:2:0:0:
321,343,186684,2,0,L|246:330,1,55,0|10,3:2|2:2,0:0:0:0:
229,293,187023,2,0,P|182:321|128:324,1,110,2|2,3:2|3:2,0:0:0:0:
48,246,187701,2,0,P|94:217|148:214,1,110,2|0,3:2|3:2,0:0:0:0:
172,164,188209,1,8,2:2:0:0:
199,57,188548,6,0,B|264:79|264:79|304:64,1,110,2|14,3:2|2:2,0:0:0:0:
412,35,189226,1,2,3:2:0:0:
412,35,189396,2,0,L|395:92,1,55,2|10,3:2|2:2,0:0:0:0:
377,139,189735,2,0,P|403:209|401:255,1,110,2|2,3:2|3:2,0:0:0:0:
293,254,190413,2,0,P|291:300|255:357,1,110,2|2,3:2|3:2,0:0:0:0:
207,375,190921,1,10,2:2:0:0:
140,286,191260,6,0,B|114:222|114:222|128:179,1,110,14|10,2:2|2:2,0:0:0:0:
168,83,191938,1,14,2:2:0:0:
168,83,192108,2,0,P|198:98|242:95,1,55,0|10,3:2|2:2,0:0:0:0:
257,59,192446,2,0,B|296:16|353:16|353:16|376:49|359:88,1,165,6|8,3:2|2:2,0:0:0:0:
339,176,193294,6,0,B|385:192|427:162|427:162|442:239|513:245,1,220,10|4,2:2|3:2,0:0:0:0:
