osu file format v14

[General]
AudioFilename: audio1.ogg
AudioLeadIn: 0
PreviewTime: 568
Countdown: 0
SampleSet: Soft
StackLeniency: 0.7
Mode: 0
LetterboxInBreaks: 0
WidescreenStoryboard: 1

[Editor]
DistanceSpacing: 1
BeatDivisor: 4
GridSize: 4
TimelineZoom: 1.4

[Metadata]
Title:Koakuma datte Kamawanai!
TitleUnicode:小悪魔だってかまわない!
Artist:Meychan
ArtistUnicode:めいちゃん
Creator:YamYA
Version:Hard
Source:
Tags:HoneyWorks japanese jpop j-pop pop utaite male vocal hatsune miku 初音ミク cover i don't mind if you are a little minx! dont youre you're
BeatmapID:3264262
BeatmapSetID:1570458

[Difficulty]
HPDrainRate:5
CircleSize:3.8
OverallDifficulty:6
ApproachRate:8
SliderMultiplier:1.4
SliderTickRate:1

[Events]
//Background and Video events
Video,0,"y2mate (2).mp4"
0,0,"BG2.jpg",0,0
//Break Periods
2,80275,90172
//Storyboard Layer 0 (Background)
//Storyboard Layer 1 (Fail)
//Storyboard Layer 2 (Pass)
//Storyboard Layer 3 (Foreground)
//Storyboard Layer 4 (Overlay)
//Storyboard Sound Samples

[TimingPoints]
75,338.983050847458,4,2,1,70,1,0
752,-125,4,2,1,60,0,0
1430,338.983050847458,4,2,1,70,1,0
1430,-100,4,2,1,70,0,0
23125,-100,4,2,1,70,0,0
33803,-100,4,2,2,60,0,0
33973,-125,4,2,2,60,0,0
34086,-125,4,2,2,60,0,0
34142,-125,4,2,1,60,0,0
42108,-100,4,2,1,70,0,0
46854,-125,4,2,1,60,0,0
47531,-83.3333333333333,4,2,1,80,0,1
69226,-100,4,2,1,70,0,0
80075,-125,4,2,1,60,0,0
90922,-100,4,2,1,70,0,0
104480,-83.3333333333333,4,2,1,80,0,1
126175,-125,4,2,1,60,0,0
129736,-125,4,2,3,60,0,0
130244,-125,4,2,1,60,0,0
131261,-125,4,2,1,70,0,0
131600,-100,4,2,1,70,0,0
137024,-83.3333333333333,4,2,1,80,0,0
147871,-125,4,2,1,60,0,0
156007,-100,4,2,1,70,0,0
161430,-166.666666666667,4,2,1,70,0,0
161431,-166.666666666667,4,2,1,60,0,0
166854,-125,4,2,1,60,0,0
171600,-166.666666666667,4,2,1,60,0,0
172277,-83.3333333333333,4,2,1,80,0,1
193972,-100,4,2,1,70,0,0

[Colours]
Combo1 : 254,233,209
Combo2 : 255,175,96
Combo3 : 228,118,121
Combo4 : 156,78,78

[HitObjects]
111,78,752,6,0,B|151:91|168:69|182:47|238:68,1,112,2|2,0:2|0:2,0:2:0:0:
296,84,1261,1,2,0:2:0:0:
224,143,1430,6,0,L|209:217,1,70,6|0,3:2|0:2,0:2:0:0:
128,230,1769,2,0,L|150:314,1,70,2|0,3:2|0:2,0:2:0:0:
221,334,2108,2,0,P|267:315|359:331,1,140,2|2,3:2|3:2,0:2:0:0:
433,357,2617,6,0,P|438:322|427:289,1,70,2|0,0:2|3:2,0:2:0:0:
366,232,2956,2,0,P|354:199|359:165,1,70,2|0,0:2|3:2,0:2:0:0:
389,71,3295,2,0,L|303:97,1,70,2|0,0:2|3:2,0:2:0:0:
239,73,3634,2,0,P|241:119|228:152,2,70,2|2|2,0:2|3:2|0:2,0:2:0:0:
158,49,4142,6,0,P|111:37|71:47,1,70,2|0,3:2|0:2,0:2:0:0:
118,119,4481,2,0,L|106:207,1,70,2|0,3:2|0:2,0:2:0:0:
59,257,4820,1,2,3:2:0:0:
107,325,4990,2,0,P|168:303|193:306,1,70,2|0,0:2|3:2,0:2:0:0:
239,250,5329,6,0,B|271:284|320:290|320:290|386:297,1,140,2|2,0:2|0:2,0:2:0:0:
453,282,5837,1,0,3:2:0:0:
453,282,6007,2,0,L|475:197,1,70,2|2,0:2|3:2,0:2:0:0:
400,167,6346,2,0,L|382:234,1,70,0|0,0:2|3:2,0:2:0:0:
363,316,6685,1,0,0:2:0:0:
291,249,6854,6,0,B|263:230|230:234|230:234|206:270|143:271,1,140,6|2,3:2|3:2,0:2:0:0:
83,248,7363,1,2,0:2:0:0:
64,167,7532,2,0,P|16:177|-7:194,1,70,2|2,3:2|0:2,0:2:0:0:
86,88,7871,1,2,3:2:0:0:
163,120,8041,6,0,P|227:148|299:137,1,140,2|2,0:2|0:2,0:2:0:0:
300,40,8549,1,0,3:2:0:0:
367,90,8719,2,0,P|428:74|509:85,1,140,2|2,0:2|0:2,0:2:0:0:
470,160,9227,2,0,L|484:237,1,70,2|2,3:2|0:2,0:2:0:0:
386,246,9566,6,0,P|356:281|351:310,1,70,2|0,3:2|0:2,0:2:0:0:
268,288,9905,2,0,P|268:323|283:355,1,70,2|8,3:2|0:2,0:2:0:0:
178,312,10244,1,10,0:2:0:0:
178,312,10413,1,10,0:2:0:0:
117,370,10583,2,0,P|98:381|41:382,1,70,10|10,0:2|0:2,0:2:0:0:
16,78,11769,6,0,L|-7:159,2,70,0|0|0,0:2|0:2|0:2,0:2:0:0:
86,30,12278,6,0,B|131:45|131:45|230:9,1,140,6|10,3:2|0:2,0:2:0:0:
292,51,12786,1,0,0:2:0:0:
369,16,12956,2,0,P|418:11|447:26,1,70,10|2,0:2|3:2,0:2:0:0:
499,74,13295,1,10,0:2:0:0:
422,109,13464,2,0,B|406:153|406:153|410:182,1,70,2|8,3:2|2:2,0:2:0:0:
327,156,13803,2,0,B|330:178|330:178|314:222,1,70,2|8,0:2|2:2,0:2:0:0:
224,182,14142,2,0,B|211:224|211:224|244:333,1,140,2|2,3:2|3:2,0:2:0:0:
163,355,14651,2,0,P|131:366|88:357,1,70,10|2,2:2|3:2,0:2:0:0:
30,307,14990,6,0,L|53:236,1,70,10|0,2:2|0:2,0:2:0:0:
134,224,15329,2,0,L|109:145,1,70,10|0,2:2|0:2,0:2:0:0:
116,72,15668,1,10,2:2:0:0:
199,83,15837,2,0,P|256:104|280:104,1,70,2|10,3:2|2:2,0:2:0:0:
281,21,16176,6,0,P|338:0|362:0,1,70,2|8,3:2|2:2,0:2:0:0:
427,22,16515,2,0,L|408:105,1,70,2|8,0:2|2:2,0:2:0:0:
338,132,16854,2,0,L|353:232,1,70,2|8,3:2|2:2,0:2:0:0:
361,298,17193,1,2,3:2:0:0:
361,298,17278,1,0,3:2:0:0:
361,298,17363,2,0,P|315:301|273:278,1,70,10|2,2:2|3:2,0:2:0:0:
197,271,17702,6,0,P|174:308|171:349,1,70,14|0,2:2|0:2,0:2:0:0:
116,247,18041,2,0,P|106:204|79:173,1,70,10|0,2:2|0:2,0:2:0:0:
185,184,18380,2,0,P|226:196|267:188,1,70,10|2,2:2|3:2,0:2:0:0:
313,135,18719,1,10,2:2:0:0:
327,217,18888,6,0,P|330:263|352:295,1,70,2|8,3:2|2:2,0:2:0:0:
424,272,19227,2,0,P|421:318|399:350,1,70,2|8,0:2|2:2,0:2:0:0:
487,216,19566,2,0,P|460:127|489:65,1,140,2|2,3:2|3:2,0:2:0:0:
390,72,20075,2,0,P|357:102|310:113,1,70,10|2,2:2|3:2,0:2:0:0:
262,45,20413,6,0,P|204:18|122:25,1,140,14|10,2:2|2:2,0:2:0:0:
38,21,20922,1,0,3:2:0:0:
38,21,21007,1,0,3:2:0:0:
38,21,21091,2,0,P|53:66|54:102,1,70,10|2,2:2|3:2,0:2:0:0:
24,167,21430,1,10,2:2:0:0:
119,145,21600,6,0,B|175:138|188:161|203:191|275:174,1,140,6|10,3:2|2:2,0:2:0:0:
325,138,22108,1,10,2:2:0:0:
395,184,22278,1,10,2:2:0:0:
472,152,22447,2,0,B|481:193|461:231|461:231|434:259|426:296,1,140,2|8,3:2|2:2,0:2:0:0:
458,360,22956,1,0,1:2:0:0:
362,340,23125,6,0,P|276:328|216:350,1,140,6|10,3:2|2:2,0:2:0:0:
150,380,23634,1,2,0:2:0:0:
77,338,23803,2,0,P|42:338|7:316,1,70,2|2,3:2|0:2,0:2:0:0:
60,252,24142,2,0,P|95:252|130:274,1,70,10|2,2:2|0:2,0:2:0:0:
205,242,24481,5,0,3:2:0:0:
247,314,24651,2,0,P|287:332|406:320,1,140,2|2,0:2|0:2,0:2:0:0:
452,284,25159,2,0,L|425:211,1,70,0|0,3:2|0:2,0:2:0:0:
346,195,25498,2,0,L|367:109,1,70,8|2,2:2|0:2,0:2:0:0:
376,87,25752,1,2,0:2:0:0:
376,87,25837,6,0,P|316:104|240:81,1,140,2|10,3:2|2:2,0:2:0:0:
193,14,26346,1,2,0:2:0:0:
127,65,26515,2,0,P|115:110|120:140,1,70,2|0,3:2|0:2,0:2:0:0:
34,121,26854,2,0,P|41:167|71:203,1,70,10|2,2:2|0:2,0:2:0:0:
126,228,27193,6,0,L|218:208,1,70,2|0,3:2|0:2,0:2:0:0:
227,288,27532,2,0,L|394:328,1,140,10|2,2:2|3:2,0:2:0:0:
458,346,28041,1,8,2:2:0:0:
458,346,28210,1,8,2:2:0:0:
482,151,28549,6,0,P|445:127|411:126,1,70,6|2,3:2|0:2,0:2:0:0:
360,184,28888,2,0,P|316:212|287:212,1,70,10|2,2:2|0:2,0:2:0:0:
236,157,29227,2,0,L|261:12,1,140,2|10,3:2|2:2,0:2:0:0:
180,40,29736,1,2,0:2:0:0:
180,40,29905,6,0,P|136:70|105:64,1,70,2|2,3:2|0:2,0:2:0:0:
27,40,30244,2,0,B|56:123|56:123|69:158|52:194,1,140,10|0,2:2|3:2,0:2:0:0:
14,245,30752,2,0,P|3:278|20:327,1,70,0|8,0:2|2:2,0:2:0:0:
77,361,31091,1,2,0:2:0:0:
133,280,31261,6,0,B|179:270|199:301|221:332|267:321,1,140,2|10,3:2|2:2,0:2:0:0:
336,259,31769,1,2,0:2:0:0:
434,261,31939,2,0,P|460:290|464:325,1,70,2|2,3:2|0:2,0:2:0:0:
369,344,32278,2,0,L|353:397,2,35,10|8|10,2:2|2:2|2:2,0:2:0:0:
342,249,32617,5,14,2:2:0:0:
201,340,32956,1,2,1:2:0:0:
274,188,33295,2,0,B|209:182|204:206|200:230|125:223,1,140,2|0,3:2|0:2,0:2:0:0:
28,152,33973,6,0,P|60:118|109:113,1,74.6666666666667,10|0,0:2|0:2,0:2:0:0:
194,56,34425,1,0,0:2:0:0:
194,56,34651,2,0,P|243:87|351:68,1,168,2|0,0:2|0:2,0:2:0:0:
434,48,35329,2,0,B|453:56|467:104|431:170|434:123|355:165|356:214|380:234,1,224,2|2,0:2|0:2,0:2:0:0:
507,359,36346,1,0,0:2:0:0:
333,314,36685,6,0,P|270:304|242:311,1,74.6666666666667,2|0,0:2|0:2,0:2:0:0:
143,335,37137,1,0,0:2:0:0:
147,338,37363,2,0,P|93:359|1:304,1,168,2|0,0:2|0:2,0:2:0:0:
48,230,38041,2,0,B|81:213|92:174|62:108|62:145|32:83|38:52|62:29|82:20,1,224,2|2,0:2|0:2,0:2:0:0:
202,149,39058,1,0,0:2:0:0:
332,25,39397,6,0,P|376:3|428:9,1,74.6666666666667,2|0,0:2|0:2,0:2:0:0:
493,86,39849,1,0,0:2:0:0:
493,86,40075,2,0,P|447:168|454:247,1,149.333333333333,2|0,0:2|0:2,0:2:0:0:
454,340,40752,2,0,B|366:385|355:263|326:383|237:338,1,224,2|2,0:2|0:2,0:2:0:0:
60,357,41769,1,0,0:2:0:0:
8,197,42108,6,0,P|63:217|98:208,1,70,6|0,3:2|0:2,0:2:0:0:
117,144,42447,2,0,P|172:124|207:133,1,70,0|0,3:2|0:2,0:2:0:0:
233,191,42786,2,0,P|288:211|323:202,1,70,0|0,3:2|0:2,0:2:0:0:
342,138,43125,2,0,P|397:118|432:127,1,70,0|0,3:2|0:2,0:2:0:0:
474,190,43464,6,0,P|468:258|486:293,2,93.3333333333333,2|2|2,3:2|0:2|0:2,0:2:0:0:
501,110,44142,2,0,P|495:70|461:35,1,70,2|0,3:2|0:2,0:2:0:0:
448,24,44397,1,2,0:2:0:0:
448,24,44481,2,0,P|416:38|366:36,1,70,0|2,3:2|0:2,0:2:0:0:
314,111,44820,6,0,P|281:88|221:86,1,70,14|0,2:2|3:2,0:2:0:0:
196,18,45159,2,0,P|156:25|112:66,1,70,8|0,2:2|3:2,0:2:0:0:
49,21,45498,2,0,P|26:54|23:114,1,70,8|0,2:2|3:2,0:2:0:0:
71,149,45837,1,8,2:2:0:0:
164,117,46007,2,0,L|183:174,2,35,8|8|8,2:2|2:2|2:2,0:2:0:0:
22,356,46854,6,0,L|138:323,1,112,2|2,0:2|0:2,0:2:0:0:
203,358,47363,1,2,0:2:0:0:
242,280,47532,6,0,P|290:287|320:317,1,83.9999974365235,6|0,3:2|0:2,0:2:0:0:
380,363,47871,2,0,P|423:358|458:326,1,83.9999974365235,10|0,2:2|0:2,0:2:0:0:
492,257,48210,1,10,2:2:0:0:
408,244,48380,2,0,L|423:150,1,83.9999974365235,2|10,3:2|2:2,0:2:0:0:
372,92,48719,6,0,P|331:121|294:125,1,83.9999974365235,2|8,3:2|2:2,0:2:0:0:
306,41,49058,2,0,P|257:31|231:-4,1,83.9999974365235,2|8,0:2|2:2,0:2:0:0:
193,98,49397,2,0,P|152:99|107:119,1,83.9999974365235,2|8,3:2|2:2,0:2:0:0:
80,202,49736,2,0,B|92:232|92:232|73:292,2,83.9999974365235,2|10|2,3:2|2:2|3:2,0:2:0:0:
175,189,50244,6,0,P|216:198|266:203,1,83.9999974365235,10|0,2:2|0:2,0:2:0:0:
307,271,50583,2,0,P|354:260|394:257,1,83.9999974365235,10|0,2:2|0:2,0:2:0:0:
454,202,50922,1,10,2:2:0:0:
380,161,51091,2,0,P|383:114|401:82,1,83.9999974365235,2|8,3:2|2:2,0:2:0:0:
337,26,51430,6,0,P|295:38|240:37,1,83.9999974365235,2|8,3:2|2:2,0:2:0:0:
152,89,51769,2,0,P|193:99|230:119,1,83.9999974365235,2|8,0:2|2:2,0:2:0:0:
269,193,52108,1,2,3:2:0:0:
167,186,52278,2,0,L|127:362,1,167.999994873047,8|8,2:2|2:2,0:2:0:0:
224,314,52786,5,0,3:2:0:0:
224,314,52871,1,0,3:2:0:0:
224,314,52956,2,0,P|274:339|315:337,1,83.9999974365235,14|0,2:2|0:2,0:2:0:0:
288,256,53295,2,0,P|338:231|379:233,1,83.9999974365235,10|2,2:2|0:2,0:2:0:0:
444,270,53634,1,10,2:2:0:0:
444,270,53803,2,0,L|490:178,1,83.9999974365235,2|10,3:2|2:2,0:2:0:0:
408,152,54142,6,0,P|383:97|403:41,1,83.9999974365235,2|8,3:2|2:2,0:2:0:0:
310,36,54481,2,0,B|255:61|226:34|205:-1|127:28,1,167.999994873047,2|2,0:2|3:2,0:2:0:0:
65,37,54990,1,8,2:2:0:0:
118,101,55159,2,0,P|129:146|110:192,2,83.9999974365235,2|10|2,0:2|2:2|3:2,0:2:0:0:
38,140,55668,6,0,B|19:179|42:217|42:217|68:260|36:314,1,167.999994873047,14|10,2:2|2:2,0:2:0:0:
149,285,56176,1,0,3:2:0:0:
149,285,56261,1,0,3:2:0:0:
149,285,56346,2,0,P|193:263|247:269,1,83.9999974365235,10|2,2:2|3:2,0:2:0:0:
309,279,56685,1,10,2:2:0:0:
268,352,56854,6,0,P|328:363|428:315,1,167.999994873047,6|8,3:2|2:2,0:2:0:0:
396,239,57363,2,0,P|379:180|395:152,1,83.9999974365235,2|8,3:2|2:2,0:2:0:0:
460,109,57702,2,0,P|477:168|461:196,1,83.9999974365235,2|10,3:2|2:2,0:2:0:0:
388,229,58041,2,0,P|371:170|387:142,1,83.9999974365235,10|8,2:2|2:2,0:2:0:0:
362,52,58380,6,0,P|319:34|260:27,1,83.9999974365235,6|0,3:2|0:2,0:2:0:0:
235,97,58719,1,10,2:2:0:0:
58,6,59058,1,2,3:2:0:0:
58,6,59227,2,0,P|62:50|38:95,1,83.9999974365235,2|10,3:2|2:2,0:2:0:0:
118,129,59566,2,0,B|76:179|90:225|119:308,1,167.999994873047,2|2,3:2|3:2,0:2:0:0:
138,368,60075,1,8,2:2:0:0:
203,316,60244,1,2,3:2:0:0:
267,370,60413,6,0,B|318:359|328:322|328:322|337:359|391:374,1,167.999994873047,8|8,0:1|2:1,0:2:0:0:
458,322,60922,1,0,0:2:0:0:
451,221,61091,6,0,P|440:170|464:129,1,83.9999974365235,6|0,3:2|0:2,0:2:0:0:
498,71,61430,1,10,2:2:0:0:
315,152,61769,1,2,3:2:0:0:
315,152,61939,2,0,P|299:117|260:95,1,83.9999974365235,0|10,3:2|2:2,0:2:0:0:
233,174,62278,2,0,P|194:205|152:210,1,83.9999974365235,2|0,3:2|0:2,0:2:0:0:
160,126,62617,2,0,L|62:105,1,83.9999974365235,2|8,3:2|2:2,0:2:0:0:
0,96,62956,1,2,3:2:0:0:
8,196,63125,6,0,B|23:250|60:259|60:259|23:269|12:320,1,167.999994873047,8|8,0:1|2:1,0:2:0:0:
72,379,63634,1,0,0:2:0:0:
155,323,63803,6,0,P|228:315|264:340,1,83.9999974365235,6|0,3:2|0:2,0:2:0:0:
305,271,64142,2,0,P|352:297|391:297,1,83.9999974365235,10|0,2:2|0:2,0:2:0:0:
453,254,64481,1,2,3:2:0:0:
453,254,64651,2,0,L|426:137,1,83.9999974365235,2|10,3:2|2:2,0:2:0:0:
398,95,64990,6,0,P|337:132|311:129,1,83.9999974365235,2|0,3:2|0:2,0:2:0:0:
271,68,65329,1,2,3:2:0:0:
206,121,65498,1,8,2:2:0:0:
156,53,65668,2,0,B|99:32|43:15|-2:63,1,167.999994873047,2|2,3:2|3:2,0:2:0:0:
26,141,66176,2,0,P|39:187|26:234,1,83.9999974365235,10|2,2:2|3:2,0:2:0:0:
7,319,66515,5,6,3:2:0:0:
84,285,66685,1,0,3:2:0:0:
145,341,66854,2,0,P|188:360|235:353,1,83.9999974365235,10|0,2:2|3:2,0:2:0:0:
252,313,67108,1,0,3:2:0:0:
252,313,67193,2,0,L|239:214,1,83.9999974365235,10|2,2:2|3:2,0:2:0:0:
227,146,67532,1,10,2:2:0:0:
322,178,67702,6,0,B|391:170|408:203|420:232|494:221,1,167.999994873047,6|0,3:2|1:2,0:2:0:0:
466,139,68210,2,0,P|486:88|478:52,1,83.9999974365235,0|8,1:2|2:2,0:2:0:0:
404,27,68549,2,0,L|316:59,1,83.9999974365235,2|10,3:2|2:2,0:2:0:0:
325,55,68803,1,8,2:2:0:0:
325,55,68888,1,10,2:2:0:0:
245,27,69058,1,10,2:2:0:0:
186,105,69227,6,0,P|129:73|103:72,1,70,6|0,3:2|0:2,0:2:0:0:
44,128,69566,2,0,P|101:160|127:161,1,70,10|0,2:2|0:2,0:2:0:0:
169,213,69905,2,0,P|234:194|261:198,1,70,10|2,2:2|3:2,0:2:0:0:
318,209,70244,1,10,2:2:0:0:
284,285,70413,6,0,P|341:291|368:278,1,70,2|8,3:2|2:2,0:2:0:0:
384,364,70752,2,0,P|425:331|437:307,1,70,2|8,3:2|2:2,0:2:0:0:
401,223,71091,2,0,B|377:130|377:130|394:113|404:78,1,140,2|2,3:2|3:2,0:2:0:0:
317,69,71600,2,0,P|281:99|234:96,1,70,10|2,2:2|3:2,0:2:0:0:
200,41,71939,6,0,B|146:29|104:22|64:62,1,140,10|10,2:2|2:2,0:2:0:0:
50,140,72447,1,0,0:2:0:0:
130,116,72617,2,0,P|133:162|117:193,1,70,10|2,2:2|0:2,0:2:0:0:
84,257,72956,1,10,2:2:0:0:
118,333,73125,6,0,L|193:310,1,70,2|8,3:2|2:2,0:2:0:0:
201,229,73464,2,0,L|276:249,1,70,2|8,0:2|2:2,0:2:0:0:
289,328,73803,2,0,L|446:283,1,140,2|2,3:2|3:2,0:2:0:0:
503,261,74312,1,10,2:2:0:0:
462,172,74481,5,10,2:2:0:0:
462,172,74566,1,8,2:2:0:0:
462,172,74651,2,0,P|403:207|372:201,1,70,6|0,3:2|0:2,0:2:0:0:
341,151,74990,2,0,P|311:112|286:103,1,70,10|0,2:2|0:2,0:2:0:0:
259,181,75329,2,0,P|233:198|187:195,1,70,10|2,2:2|3:2,0:2:0:0:
127,147,75668,1,10,2:2:0:0:
65,203,75837,6,0,L|45:291,1,70,2|8,3:2|2:2,0:2:0:0:
139,262,76176,2,0,L|153:337,1,70,2|8,3:2|2:2,0:2:0:0:
200,205,76515,2,0,L|234:59,1,140,2|2,3:2|3:2,0:2:0:0:
298,120,77024,2,0,P|340:127|373:112,1,70,10|2,2:2|3:2,0:2:0:0:
377,34,77363,6,0,P|425:20|527:42,1,140,14|10,2:2|2:2,0:2:0:0:
482,114,77871,1,0,3:2:0:0:
482,114,77956,1,0,3:2:0:0:
482,114,78041,2,0,P|465:165|474:205,1,70,10|2,2:2|3:2,0:2:0:0:
493,260,78380,1,10,2:2:0:0:
397,238,78549,6,0,B|346:226|331:253|315:280|256:265,1,140,6|10,3:2|0:2,0:2:0:0:
199,213,79058,1,2,3:2:0:0:
131,262,79227,1,10,2:2:0:0:
131,262,79312,1,8,2:2:0:0:
131,262,79397,2,0,P|141:311|134:344,1,70,10|8,2:2|0:2,0:2:0:0:
45,296,79736,2,0,P|35:247|42:214,1,70,8|0,0:2|3:2,0:2:0:0:
57,152,80075,5,4,3:2:0:0:
92,17,90922,6,0,P|54:10|-12:31,2,105,6|2|10,3:2|0:2|2:2,0:2:0:0:
136,88,91600,2,0,L|101:174,1,70,2|8,3:2|2:2,0:2:0:0:
182,196,91939,2,0,L|196:245,2,35,0|0|10,3:2|3:2|2:2,0:2:0:0:
218,120,92278,6,0,B|275:105|294:131|312:157|369:138,1,140,2|0,3:2|3:2,0:2:0:0:
393,68,92786,1,8,2:2:0:0:
472,94,92956,2,0,P|496:135|494:161,1,70,2|8,3:2|2:2,0:2:0:0:
417,188,93295,2,0,P|393:229|395:255,1,70,2|8,3:2|2:2,0:2:0:0:
411,332,93634,6,0,L|522:300,2,105,2|2|10,3:2|0:2|2:2,0:2:0:0:
339,377,94312,2,0,P|300:376|262:354,1,70,2|8,3:2|2:2,0:2:0:0:
217,299,94651,2,0,L|167:311,2,35,0|0|10,3:2|3:2|2:2,0:2:0:0:
289,256,94990,6,0,L|310:118,1,140,2|0,3:2|3:2,0:2:0:0:
245,66,95498,1,8,2:2:0:0:
204,140,95668,2,0,P|163:166|124:161,1,70,0|8,3:2|2:2,0:2:0:0:
101,93,96007,2,0,P|60:67|21:72,1,70,8|8,2:2|2:2,0:2:0:0:
22,163,96346,6,0,L|2:280,2,105,6|2|10,3:2|0:2|2:2,0:2:0:0:
100,193,97024,2,0,P|159:212|186:203,1,70,2|8,3:2|2:2,0:2:0:0:
235,164,97363,2,0,L|249:216,2,35,0|0|10,3:2|3:2|2:2,0:2:0:0:
216,81,97702,6,0,B|268:59|286:83|304:103|363:80,1,140,2|0,3:2|3:2,0:2:0:0:
419,33,98210,1,8,2:2:0:0:
472,100,98380,2,0,P|486:132|480:188,1,70,2|8,3:2|2:2,0:2:0:0:
486,166,98634,1,8,2:2:0:0:
486,166,98719,1,10,2:2:0:0:
403,154,98888,1,0,1:2:0:0:
381,250,99058,6,0,L|243:275,1,140,6|0,3:2|3:2,0:2:0:0:
167,310,99566,1,0,1:2:0:0:
108,251,99736,2,0,P|83:299|86:325,1,70,0|0,3:2|3:2,0:2:0:0:
32,207,100075,2,0,P|10:156|-11:144,1,70,8|0,2:2|3:2,0:2:0:0:
107,161,100413,6,0,L|207:145,1,70,6|0,3:2|0:2,0:2:0:0:
222,150,100668,1,2,0:2:0:0:
222,150,100752,2,0,P|244:176|237:231,1,70,0|10,3:2|2:2,0:2:0:0:
322,147,101091,2,0,P|324:113|368:79,1,70,2|8,3:2|2:2,0:2:0:0:
431,74,101430,1,10,2:2:0:0:
436,179,101600,1,10,2:2:0:0:
436,179,101685,1,8,2:2:0:0:
436,179,101769,6,0,B|406:242|406:242|441:331,1,140,6|8,3:2|2:2,0:2:0:0:
381,376,102278,1,0,3:2:0:0:
320,318,102447,2,0,P|269:338|258:352,1,70,8|0,2:2|3:2,0:2:0:0:
172,318,102786,2,0,P|167:372|143:394,1,70,8|0,2:2|3:2,0:2:0:0:
90,332,103125,6,0,L|57:181,1,140,8|8,2:2|2:2,0:2:0:0:
77,104,103634,1,8,2:2:0:0:
77,104,103719,1,8,2:2:0:0:
77,104,103803,6,0,B|136:89|136:89|151:99|151:99|228:105,1,140,10|10,3:2|2:2,0:2:0:0:
310,71,104312,1,10,2:2:0:0:
310,71,104397,1,8,2:2:0:0:
310,71,104481,6,0,P|360:99|374:144,1,83.9999974365235,6|0,3:2|0:2,0:2:0:0:
452,150,104820,2,0,P|424:202|424:248,1,83.9999974365235,10|0,2:2|0:2,0:2:0:0:
423,310,105159,1,10,2:2:0:0:
346,274,105329,1,2,3:2:0:0:
268,305,105498,1,10,2:2:0:0:
271,222,105668,6,0,P|232:201|181:200,1,83.9999974365235,2|8,3:2|2:2,0:2:0:0:
138,133,106007,2,0,P|94:160|44:154,1,83.9999974365235,2|8,0:2|2:2,0:2:0:0:
184,60,106346,2,0,P|223:81|274:82,1,83.9999974365235,2|8,3:2|2:2,0:2:0:0:
334,41,106685,2,0,L|431:9,2,83.9999974365235,2|10|2,3:2|2:2|3:2,0:2:0:0:
377,113,107193,6,0,P|357:147|356:209,1,83.9999974365235,10|0,2:2|0:2,0:2:0:0:
435,178,107532,2,0,P|483:202|505:232,1,83.9999974365235,10|0,2:2|0:2,0:2:0:0:
429,269,107871,2,0,P|408:305|404:346,1,83.9999974365235,10|2,2:2|3:2,0:2:0:0:
332,274,108210,1,10,2:2:0:0:
268,329,108380,6,0,P|239:348|176:344,1,83.9999974365235,2|8,3:2|2:2,0:2:0:0:
210,267,108719,2,0,P|151:248|120:255,1,83.9999974365235,2|8,0:2|2:2,0:2:0:0:
49,274,109058,1,2,3:2:0:0:
85,180,109227,2,0,B|111:154|112:110|91:102|68:90|68:41|94:15,1,167.999994873047,8|8,2:2|2:2,0:2:0:0:
181,60,109736,1,0,3:2:0:0:
181,60,109820,1,0,3:2:0:0:
181,60,109905,6,0,P|247:62|288:85,1,83.9999974365235,14|0,2:2|0:2,0:2:0:0:
240,149,110244,2,0,P|306:147|347:124,1,83.9999974365235,10|0,2:2|0:2,0:2:0:0:
414,99,110583,2,0,B|389:141|421:172|459:192|432:264,1,167.999994873047,10|10,2:2|2:2,0:2:0:0:
411,338,111091,1,2,3:2:0:0:
348,280,111261,5,8,2:2:0:0:
280,354,111430,2,0,P|230:375|187:369,1,83.9999974365235,2|8,0:2|2:2,0:2:0:0:
219,291,111769,2,0,P|169:270|126:276,1,83.9999974365235,2|8,3:2|2:2,0:2:0:0:
61,302,112108,2,0,L|40:388,2,83.9999974365235,2|10|2,3:2|2:2|3:2,0:2:0:0:
75,218,112617,6,0,P|41:147|70:45,1,167.999994873047,14|10,2:2|2:2,0:2:0:0:
129,18,113125,1,0,3:2:0:0:
129,18,113210,1,0,3:2:0:0:
129,18,113295,2,0,L|214:32,1,83.9999974365235,10|2,2:2|3:2,0:2:0:0:
295,45,113634,1,10,2:2:0:0:
275,126,113803,6,0,B|335:142|358:99|376:59|440:72,1,167.999994873047,6|8,3:2|0:2,0:2:0:0:
496,117,114312,2,0,P|511:168|494:210,1,83.9999974365235,2|8,3:2|2:2,0:2:0:0:
426,232,114651,2,0,P|411:181|428:139,1,83.9999974365235,2|8,3:2|2:2,0:2:0:0:
500,133,114990,2,0,P|515:184|498:226,1,83.9999974365235,10|10,2:2|2:2,0:2:0:0:
472,307,115329,6,0,P|427:314|390:338,1,83.9999974365235,6|0,3:2|0:2,0:2:0:0:
328,384,115668,1,10,2:2:0:0:
321,186,116007,1,2,3:2:0:0:
321,186,116176,2,0,P|284:207|243:212,1,83.9999974365235,2|10,3:2|2:2,0:2:0:0:
207,135,116515,2,0,P|177:109|132:101,1,83.9999974365235,2|0,3:2|0:2,0:2:0:0:
71,156,116854,2,0,L|95:247,1,83.9999974365235,2|8,3:2|2:2,0:2:0:0:
72,319,117193,1,2,3:2:0:0:
168,288,117363,6,0,B|214:297|236:334|236:334|263:296|319:291,1,167.999994873047,8|8,0:1|2:1,0:2:0:0:
384,325,117871,1,0,0:2:0:0:
446,268,118041,6,0,P|457:212|443:178,1,83.9999974365235,6|0,3:2|0:2,0:2:0:0:
418,109,118380,1,10,2:2:0:0:
227,165,118719,1,2,3:2:0:0:
227,165,118888,2,0,L|132:142,1,83.9999974365235,0|10,3:2|2:2,0:2:0:0:
88,83,119227,2,0,P|60:127|62:174,1,83.9999974365235,2|0,3:2|0:2,0:2:0:0:
115,219,119566,2,0,P|143:263|141:310,1,83.9999974365235,2|8,3:2|2:2,0:2:0:0:
126,376,119905,1,2,3:2:0:0:
221,343,120075,6,0,B|264:339|291:301|291:301|313:338|358:347,1,167.999994873047,8|8,0:1|2:1,0:2:0:0:
441,362,120583,1,0,0:2:0:0:
413,283,120752,6,0,P|391:224|391:193,1,83.9999974365235,6|0,3:2|0:2,0:2:0:0:
465,162,121091,2,0,P|454:98|435:63,1,83.9999974365235,10|0,2:2|0:2,0:2:0:0:
368,107,121430,1,2,3:2:0:0:
368,107,121600,2,0,P|327:64|289:51,1,83.9999974365235,2|10,3:2|2:2,0:2:0:0:
249,117,121939,6,0,P|213:127|157:102,1,83.9999974365235,2|0,3:2|0:2,0:2:0:0:
166,29,122278,2,0,P|128:19|76:36,1,83.9999974365235,2|8,3:2|2:2,0:2:0:0:
86,116,122617,2,0,P|102:185|82:294,1,167.999994873047,2|2,3:2|3:2,0:2:0:0:
69,362,123125,1,10,2:2:0:0:
164,328,123295,1,2,3:2:0:0:
164,328,123380,1,0,3:2:0:0:
164,328,123464,6,0,P|226:317|269:329,1,83.9999974365235,14|0,2:2|3:2,0:2:0:0:
329,333,123803,2,0,P|370:336|410:325,1,83.9999974365235,10|0,2:2|3:2,0:2:0:0:
370,251,124142,2,0,L|391:145,1,83.9999974365235,14|2,2:2|3:2,0:2:0:0:
405,86,124481,1,10,2:2:0:0:
326,117,124651,6,0,B|270:133|252:82|229:56|150:74,1,167.999994873047,6|0,3:2|3:2,0:2:0:0:
101,23,125159,1,8,2:2:0:0:
115,191,125498,6,0,L|87:258,2,55.9999982910157,2|0|0,1:2|1:2|1:2,0:2:0:0:
171,198,125837,6,0,L|195:136,2,55.9999982910157,0|0|0,3:2|3:2|3:2,0:2:0:0:
212,238,126176,6,0,B|280:275|336:236|317:227|375:184|435:223,1,224,6|0,3:2|0:2,0:2:0:0:
422,216,127193,1,0,0:2:0:0:
272,150,127532,6,0,P|330:106|373:98,2,112,6|0|0,3:2|0:2|0:2,0:2:0:0:
139,29,128549,2,0,P|120:56|84:75,1,56,10|0,0:2|0:2,0:2:0:0:
3,43,128888,6,0,P|32:116|21:267,1,224,6|2,3:2|0:2,0:2:0:0:
23,259,129905,1,10,0:2:0:0:
194,250,130244,6,0,B|302:229|302:337|415:306,1,224,6|2,3:2|1:2,0:2:0:0:
477,262,131091,1,0,3:2:0:0:
494,350,131261,1,8,2:2:0:0:
375,210,131600,6,0,P|387:164|384:130,1,70,6|2,3:2|0:2,0:2:0:0:
350,65,131939,1,10,2:2:0:0:
280,111,132108,1,2,0:2:0:0:
212,61,132278,2,0,P|173:79|120:83,1,70,2|2,3:2|0:2,0:2:0:0:
63,69,132617,2,0,P|79:130|64:219,1,140,10|2,2:2|3:2,0:2:0:0:
22,291,133125,5,2,0:2:0:0:
78,353,133295,2,0,P|141:331|173:342,1,70,8|2,3:2|0:2,0:2:0:0:
199,269,133634,2,0,P|283:308|347:293,1,140,0|8,0:2|3:2,0:2:0:0:
407,274,134142,1,0,0:2:0:0:
464,194,134312,6,0,P|431:172|375:162,1,70,2|2,3:2|0:2,0:2:0:0:
355,93,134651,2,0,P|295:102|264:92,1,70,10|2,2:2|0:2,0:2:0:0:
222,46,134990,1,10,2:2:0:0:
154,95,135159,1,10,2:2:0:0:
91,39,135329,2,0,P|56:36|22:46,1,70,10|8,2:2|2:2,0:2:0:0:
63,119,135668,6,0,P|79:161|81:212,1,70,10|2,2:2|0:2,0:2:0:0:
82,185,135922,1,8,2:2:0:0:
82,185,136007,1,10,2:2:0:0:
65,281,136176,2,0,P|173:269|205:293,1,140,10|10,2:2|2:2,0:2:0:0:
265,329,136685,1,2,1:2:0:0:
351,282,136854,1,2,3:2:0:0:
446,324,137024,6,0,B|473:296|470:268|470:268|424:223|440:167,1,167.999994873047,6|10,3:2|2:2,0:2:0:0:
468,94,137532,1,2,0:2:0:0:
384,101,137702,1,8,2:2:0:0:
316,51,137871,1,0,3:2:0:0:
267,120,138041,6,0,B|241:113|229:86|229:86|102:117,1,167.999994873047,10|8,2:2|2:2,0:2:0:0:
68,44,138549,1,2,0:2:0:0:
11,106,138719,2,0,P|10:158|39:180,1,83.9999974365235,10|0,2:2|3:2,0:2:0:0:
109,210,139058,2,0,P|110:262|81:284,1,83.9999974365235,10|0,2:2|3:2,0:2:0:0:
159,326,139397,2,0,P|231:339|269:364,1,83.9999974365235,10|2,2:2|3:2,0:2:0:0:
295,277,139736,6,0,B|328:245|378:276|373:311|417:329|457:292,1,167.999994873047,14|8,2:2|2:2,0:2:0:0:
445,199,140244,2,0,L|471:167,2,41.9999987182618,2|2|10,0:2|0:2|2:2,0:2:0:0:
365,226,140583,1,2,3:2:0:0:
316,157,140752,2,0,B|274:190|274:190|226:188,1,83.9999974365235,10|2,2:2|3:2,0:2:0:0:
181,108,141091,6,0,P|137:70|113:63,1,83.9999974365235,14|0,2:2|0:2,0:2:0:0:
101,146,141430,2,0,P|132:195|134:229,1,83.9999974365235,10|0,2:2|3:2,0:2:0:0:
139,303,141769,2,0,L|115:347,2,41.9999987182618,10|8|0,2:2|0:2|3:2,0:2:0:0:
236,274,142108,1,10,2:2:0:0:
236,274,142193,1,8,0:2:0:0:
236,274,142278,1,8,2:2:0:0:
310,341,142447,6,0,B|339:289|339:289|359:280|359:280|350:192,1,167.999994873047,6|8,3:2|2:2,0:2:0:0:
434,195,142956,2,0,L|458:110,1,83.9999974365235,2|8,0:2|2:2,0:2:0:0:
477,18,143295,1,0,3:2:0:0:
477,18,143464,2,0,B|438:37|438:37|392:28,1,83.9999974365235,10|0,2:2|3:2,0:2:0:0:
341,91,143803,6,0,L|246:83,1,83.9999974365235,10|0,2:2|0:2,0:2:0:0:
227,162,144142,2,0,L|136:187,1,83.9999974365235,10|0,2:2|3:2,0:2:0:0:
76,137,144481,6,0,L|64:96,2,41.9999987182618,10|0|2,2:2|0:2|3:2,0:2:0:0:
25,204,144820,2,0,L|13:250,2,41.9999987182618,10|0|2,2:2|0:2|3:2,0:2:0:0:
105,264,145159,5,14,2:2:0:0:
178,305,145329,1,8,2:2:0:0:
248,259,145498,2,0,B|281:246|281:246|345:272,1,83.9999974365235,2|10,3:2|2:2,0:2:0:0:
360,297,145752,1,8,2:2:0:0:
360,297,145837,2,0,L|350:352,4,41.9999987182618,6|0|0|0|0,1:2|1:2|1:2|1:2|3:2,0:2:0:0:
452,236,146346,6,0,B|446:188|470:157|470:157|427:167|375:142,1,167.999994873047,4|8,3:2|2:2,0:2:0:0:
358,50,146854,1,2,3:2:0:0:
279,81,147024,1,10,2:2:0:0:
185,43,147193,1,14,2:2:0:0:
83,204,147871,6,0,P|67:254|66:286,2,74.6666666666667,2|2|2,3:2|0:2|0:2,0:2:0:0:
44,135,148549,1,10,2:2:0:0:
185,68,148888,2,0,P|214:83|250:91,1,56,2|2,3:2|0:2,0:2:0:0:
293,142,149227,2,0,B|325:93|385:90|385:90|417:100|422:142,1,168,2|0,3:2|3:2,0:2:0:0:
497,178,149905,2,0,P|472:255|476:288,1,112,8|0,2:2|0:2,0:2:0:0:
297,257,150583,6,0,L|220:275,2,74.6666666666667,2|2|2,3:2|0:2|0:2,0:2:0:0:
370,286,151261,1,10,2:2:0:0:
411,134,151600,2,0,P|371:146|343:144,1,56,0|2,3:2|0:2,0:2:0:0:
306,86,151939,2,0,B|278:39|209:41|209:41|186:73|144:84,1,168,2|0,3:2|3:2,0:2:0:0:
82,45,152617,2,0,P|91:113|75:161,1,112,8|0,2:2|0:2,0:2:0:0:
76,333,153295,6,0,L|0:367,2,74.6666666666667,2|2|2,3:2|0:2|0:2,0:2:0:0:
112,263,153973,1,10,2:2:0:0:
236,357,154312,2,0,P|275:336|307:338,1,56,0|2,3:2|0:2,0:2:0:0:
340,279,154651,2,0,B|385:321|441:325|441:325|451:299|480:283,1,168,2|0,3:2|3:2,0:2:0:0:
442,198,155329,2,0,P|429:144|436:125,1,56,10|0,2:2|0:2,0:2:0:0:
456,71,155668,1,2,0:2:0:0:
342,194,156007,6,0,P|308:207|263:202,1,70,2|0,3:2|0:2,0:2:0:0:
270,107,156346,2,0,P|236:94|191:99,1,70,0|0,3:2|0:2,0:2:0:0:
170,188,156685,2,0,P|136:201|91:196,1,70,0|0,3:2|0:2,0:2:0:0:
98,101,157024,2,0,P|64:88|19:93,1,70,0|0,3:2|0:2,0:2:0:0:
18,186,157363,6,0,P|-4:237|3:299,2,93.3333333333333,2|2|2,3:2|0:2|0:2,0:2:0:0:
97,244,158041,2,0,P|141:231|178:232,1,70,2|0,3:2|0:2,0:2:0:0:
194,276,158295,1,2,0:2:0:0:
194,276,158380,2,0,L|168:374,1,70,0|2,3:2|0:2,0:2:0:0:
274,244,158719,6,0,P|304:225|352:225,1,70,10|0,2:2|3:2,0:2:0:0:
338,321,159058,2,0,P|358:349|388:365,1,70,8|0,2:2|3:2,0:2:0:0:
426,274,159397,2,0,P|456:255|504:255,1,70,8|0,2:2|2:2,0:2:0:0:
490,351,159736,2,0,L|481:386,2,35,8|8|8,2:2|2:2|2:2,0:2:0:0:
512,256,160075,5,8,2:2:0:0:
409,60,161430,6,0,P|350:80|314:68,1,83.9999974365235,2|2,3:2|3:2,0:2:0:0:
193,22,162108,1,2,3:2:0:0:
193,22,162278,2,0,L|200:66,1,41.9999987182618,2|2,0:2|3:2,0:2:0:0:
260,122,162617,2,0,P|232:162|234:211,1,83.9999974365235,2|2,0:2|0:2,0:2:0:0:
398,185,163295,2,0,P|426:225|424:274,1,83.9999974365235,2|2,0:2|0:2,0:2:0:0:
369,319,163803,1,2,0:2:0:0:
212,222,164142,6,0,L|113:194,1,83.9999974365235,2|2,3:2|3:2,0:2:0:0:
19,80,164820,1,2,3:2:0:0:
19,80,164990,2,0,L|7:132,1,41.9999987182618,2|2,0:2|3:2,0:2:0:0:
93,122,165329,2,0,P|142:94|182:88,1,83.9999974365235,2|2,0:2|0:2,0:2:0:0:
209,252,166007,2,0,P|261:281|344:281,1,125.999996154785,2|0,0:2|3:2,0:2:0:0:
486,336,166854,6,0,L|464:217,1,112,6|2,3:2|3:2,0:2:0:0:
447,143,167363,1,0,3:2:0:0:
447,143,167532,2,0,P|404:152|328:122,1,112,10|10,2:2|2:2,0:2:0:0:
264,93,168041,2,0,L|185:116,1,56,2|0,3:2|2:2,0:2:0:0:
188,189,168380,2,0,L|68:167,1,112,2|2,3:2|3:2,0:2:0:0:
78,169,168888,1,8,2:2:0:0:
24,104,169058,2,0,P|2:141|-2:164,2,56,2|2|2,1:2|1:2|3:2,0:2:0:0:
89,51,169566,6,0,P|141:76|209:67,1,112,2|2,3:2|3:2,0:2:0:0:
270,37,170075,1,8,2:2:0:0:
270,37,170159,1,8,2:2:0:0:
270,37,170244,2,0,L|289:116,1,56,10|10,2:2|2:2,0:2:0:0:
360,124,170583,1,10,2:2:0:0:
332,203,170752,1,2,3:2:0:0:
20,72,171600,6,0,B|62:62|62:62|93:88,1,83.9999974365235,0|0,0:2|0:2,0:2:0:0:
157,26,172108,1,0,0:2:0:0:
275,94,172278,6,0,P|326:94|363:75,1,83.9999974365235,6|0,3:2|0:2,0:2:0:0:
438,95,172617,2,0,P|418:146|424:183,1,83.9999974365235,10|0,2:2|0:2,0:2:0:0:
443,255,172956,1,10,2:2:0:0:
362,232,173124,1,2,3:2:0:0:
296,285,173294,1,10,2:2:0:0:
235,226,173463,6,0,P|184:210|135:227,1,83.9999974365235,2|8,3:2|2:2,0:2:0:0:
188,293,173802,2,0,P|157:329|114:345,1,83.9999974365235,2|8,0:2|2:2,0:2:0:0:
260,333,174141,2,0,P|300:321|356:330,1,83.9999974365235,2|8,3:2|2:2,0:2:0:0:
416,285,174480,2,0,P|432:335|451:370,2,83.9999974365235,2|10|2,3:2|2:2|3:2,0:2:0:0:
450,189,174989,6,0,P|413:181|354:205,1,83.9999974365235,10|0,2:2|0:2,0:2:0:0:
323,122,175328,2,0,P|283:134|242:126,1,83.9999974365235,10|0,2:2|0:2,0:2:0:0:
172,78,175667,1,10,2:2:0:0:
101,123,175836,2,0,P|122:170|111:217,1,83.9999974365235,2|8,3:2|2:2,0:2:0:0:
83,277,176175,6,0,L|169:288,1,83.9999974365235,2|8,3:2|2:2,0:2:0:0:
197,209,176514,2,0,L|283:198,1,83.9999974365235,2|8,0:2|2:2,0:2:0:0:
337,260,176853,1,2,3:2:0:0:
423,208,177023,2,0,B|445:151|411:125|377:102|409:41,1,167.999994873047,8|8,2:2|2:2,0:2:0:0:
319,93,177531,1,8,2:2:0:0:
319,93,177616,1,8,2:2:0:0:
319,93,177701,6,0,P|279:113|218:108,1,83.9999974365235,6|0,3:2|0:2,0:2:0:0:
198,41,178040,1,10,2:2:0:0:
125,83,178209,1,2,0:2:0:0:
48,47,178379,2,0,P|3:73|-10:122,1,83.9999974365235,10|2,2:2|3:2,0:2:0:0:
32,174,178718,1,10,2:2:0:0:
115,168,178887,6,0,L|132:264,1,83.9999974365235,2|8,3:2|2:2,0:2:0:0:
200,177,179226,2,0,L|213:84,1,83.9999974365235,2|8,0:2|2:2,0:2:0:0:
262,231,179565,2,0,P|310:249|358:239,1,83.9999974365235,2|8,3:2|2:2,0:2:0:0:
423,226,179904,2,0,P|441:270|439:322,2,83.9999974365235,2|10|2,3:2|2:2|3:2,0:2:0:0:
378,154,180412,6,0,B|320:106|312:55|362:16|388:49,1,167.999994873047,14|10,2:2|2:2,0:2:0:0:
307,110,180921,1,0,3:2:0:0:
307,110,181006,1,0,3:2:0:0:
307,110,181090,2,0,P|261:124|217:112,1,83.9999974365235,14|2,2:2|3:2,0:2:0:0:
175,50,181429,1,10,2:2:0:0:
100,117,181599,6,0,B|158:157|183:221|159:269,1,167.999994873047,6|0,3:2|1:2,0:2:0:0:
198,336,182107,2,0,P|252:300|289:305,1,83.9999974365235,2|8,1:2|2:2,0:2:0:0:
345,347,182446,2,0,P|291:383|254:378,1,83.9999974365235,10|8,2:2|2:2,0:2:0:0:
205,322,182785,2,0,P|259:286|296:291,1,83.9999974365235,8|8,2:2|2:2,0:2:0:0:
325,218,183124,6,0,P|383:237|436:227,1,83.9999974365235,2|0,3:2|0:2,0:2:0:0:
496,278,183463,2,0,P|501:234|507:181,1,83.9999974365235,14|0,2:2|0:2,0:2:0:0:
470,123,183802,1,2,3:2:0:0:
470,123,183972,2,0,P|426:145|370:143,1,83.9999974365235,2|10,3:2|2:2,0:2:0:0:
352,72,184311,2,0,B|246:26|246:26|193:52,1,167.999994873047,2|2,3:2|3:2,0:2:0:0:
126,92,184819,1,8,2:2:0:0:
49,56,184989,1,2,3:2:0:0:
49,139,185158,6,0,B|40:175|78:212|78:212|28:222|14:263,1,167.999994873047,8|8,0:1|2:1,0:2:0:0:
90,299,185667,1,0,0:2:0:0:
160,253,185836,6,0,P|205:260|244:285,1,83.9999974365235,2|0,3:2|0:2,0:2:0:0:
295,362,186175,2,0,P|359:338|391:341,1,83.9999974365235,14|0,2:2|0:2,0:2:0:0:
429,275,186514,1,2,3:2:0:0:
429,275,186684,2,0,P|371:252|338:254,1,83.9999974365235,0|10,3:2|2:2,0:2:0:0:
282,201,187023,2,0,P|297:145|300:106,1,83.9999974365235,2|0,3:2|0:2,0:2:0:0:
385,135,187362,2,0,P|370:79|367:40,1,83.9999974365235,2|8,3:2|2:2,0:2:0:0:
301,0,187701,1,2,3:2:0:0:
236,77,187870,6,0,B|193:67|171:27|171:27|144:69|102:79,1,167.999994873047,8|8,0:1|2:1,0:2:0:0:
25,100,188379,1,8,2:2:0:0:
71,169,188548,6,0,P|88:216|86:268,1,83.9999974365235,2|0,3:2|0:2,0:2:0:0:
73,352,188887,2,0,P|136:327|166:325,1,83.9999974365235,14|0,2:2|0:2,0:2:0:0:
201,257,189226,1,2,3:2:0:0:
201,257,189396,2,0,L|294:284,1,83.9999974365235,2|10,3:2|2:2,0:2:0:0:
343,337,189735,6,0,P|370:301|365:256,1,83.9999974365235,2|0,3:2|0:2,0:2:0:0:
315,198,190074,2,0,P|288:162|293:117,1,83.9999974365235,2|8,3:2|2:2,0:2:0:0:
299,24,190412,2,0,B|241:27|204:74|204:74|186:51|147:41,1,167.999994873047,2|2,3:2|3:2,0:2:0:0:
72,51,190921,1,10,2:2:0:0:
122,130,191090,1,2,3:2:0:0:
122,130,191175,1,0,3:2:0:0:
122,130,191260,6,0,P|134:179|124:225,1,83.9999974365235,14|0,2:2|3:2,0:2:0:0:
44,211,191599,2,0,P|32:260|42:306,1,83.9999974365235,10|0,2:2|3:2,0:2:0:0:
117,318,191938,2,0,L|104:370,2,41.9999987182618,14|8|0,2:2|2:2|3:2,0:2:0:0:
190,276,192277,1,10,2:2:0:0:
259,348,192446,6,0,B|335:374|351:342|364:312|431:333,1,167.999994873047,6|0,3:2|3:2,0:2:0:0:
497,284,192955,2,0,P|469:254|429:245,1,83.9999974365235,8|8,2:2|2:2,0:2:0:0:
322,175,193294,6,0,B|284:178|258:213|258:213|225:135|171:199|116:138|146:34|232:50|244:90,1,335.999989746094,10|4,2:2|3:2,0:2:0:0:
