osu file format v14

[General]
AudioFilename: audio1.ogg
AudioLeadIn: 0
PreviewTime: 568
Countdown: 0
SampleSet: Soft
StackLeniency: 0.7
Mode: 0
LetterboxInBreaks: 0
WidescreenStoryboard: 0

[Editor]
Bookmarks: 147871
DistanceSpacing: 0.8
BeatDivisor: 4
GridSize: 4
TimelineZoom: 2

[Metadata]
Title:Koakuma datte Kamawanai!
TitleUnicode:小悪魔だってかまわない!
Artist:Meychan
ArtistUnicode:めいちゃん
Creator:YamYA
Version:Bakkyun!
Source:
Tags:HoneyWorks japanese jpop j-pop pop utaite male vocal hatsune miku 初音ミク cover i don't mind if you are a little minx! dont youre you're
BeatmapID:3206920
BeatmapSetID:1570458

[Difficulty]
HPDrainRate:6
CircleSize:4.3
OverallDifficulty:7.5
ApproachRate:9
SliderMultiplier:1.8
SliderTickRate:1

[Events]
//Background and Video events
Video,0,"y2mate (2).mp4"
0,0,"BG2.jpg",0,0
//Break Periods
2,80275,89983
//Storyboard Layer 0 (Background)
//Storyboard Layer 1 (Fail)
//Storyboard Layer 2 (Pass)
//Storyboard Layer 3 (Foreground)
//Storyboard Layer 4 (Overlay)
//Storyboard Sound Samples

[TimingPoints]
75,338.983050847458,4,2,1,70,1,0
752,-200,4,2,1,60,0,0
1430,338.983050847458,4,2,1,70,1,0
1430,-100,4,2,1,70,0,0
12278,-100,4,2,1,70,0,0
23125,-125,4,2,1,70,0,0
33803,-166.666666666667,4,2,2,60,0,0
34142,-166.666666666667,4,2,1,60,0,0
42108,-125,4,2,1,70,0,0
44820,-111.111111111111,4,2,1,70,0,0
46854,-166.666666666667,4,2,1,60,0,0
47531,-90.9090909090909,4,2,1,80,0,1
58380,-100,4,2,1,80,0,1
60413,-66.6666666666667,4,2,1,80,0,1
61091,-100,4,2,1,80,0,1
63125,-66.6666666666667,4,2,1,80,0,1
63803,-100,4,2,1,80,0,1
69226,-100,4,2,1,70,0,0
80075,-125,4,2,1,60,0,0
90922,-100,4,2,1,70,0,0
99058,-111.111111111111,4,2,1,70,0,0
104480,-90.9090909090909,4,2,1,80,0,1
115329,-100,4,2,1,80,0,1
117363,-66.6666666666667,4,2,1,80,0,1
118041,-100,4,2,1,80,0,1
120075,-66.6666666666667,4,2,1,80,0,1
120752,-100,4,2,1,80,0,1
126175,-166.666666666667,4,2,1,60,0,0
129736,-166.666666666667,4,2,3,60,0,0
130244,-166.666666666667,4,2,1,60,0,0
131261,-125,4,2,1,70,0,0
134312,-111.111111111111,4,2,1,70,0,0
137024,-90.9090909090909,4,2,1,80,0,0
147871,-125,4,2,1,60,0,0
156007,-111.111111111111,4,2,1,70,0,0
161430,-125,4,2,1,60,0,0
166854,-111.111111111111,4,2,1,60,0,0
172277,-83.3333333333333,4,2,1,80,0,1
183125,-90.9090909090909,4,2,1,80,0,1
185159,-66.6666666666667,4,2,1,80,0,1
185837,-90.9090909090909,4,2,1,80,0,1
187871,-66.6666666666667,4,2,1,80,0,1
188549,-90.9090909090909,4,2,1,80,0,1
193295,-76.9230769230769,4,2,1,80,0,1
193972,-100,4,2,1,70,0,0

[Colours]
Combo1 : 254,233,209
Combo2 : 255,175,96
Combo3 : 228,118,121
Combo4 : 156,78,78

[HitObjects]
71,304,752,6,0,P|114:294|157:309,1,90,2|2,0:2|0:2,0:2:0:0:
223,251,1261,1,2,0:2:0:0:
133,111,1430,6,0,P|127:137|156:197,1,90,6|0,3:2|0:2,0:2:0:0:
229,123,1769,2,0,B|274:158|328:137|318:125|365:105|416:135,1,180,2|2,3:2|3:2,0:2:0:0:
471,202,2278,1,2,0:2:0:0:
512,123,2447,1,2,3:2:0:0:
369,208,2617,6,0,P|345:249|345:295,1,90,2|0,0:2|3:2,0:2:0:0:
255,311,2956,2,0,P|273:352|308:380,1,90,2|0,0:2|3:2,0:2:0:0:
174,262,3295,2,0,L|75:302,1,90,2|0,0:2|3:2,0:2:0:0:
105,141,3634,2,0,P|111:98|67:53,2,90,2|2|2,0:2|3:2|0:2,0:2:0:0:
20,262,4142,6,0,L|122:223,1,90,2|0,3:2|0:2,0:2:0:0:
202,173,4481,2,0,P|186:223|198:261,1,90,2|0,3:2|0:2,0:2:0:0:
256,329,4820,1,2,3:2:0:0:
293,222,4990,2,0,P|338:252|391:249,1,90,2|0,0:2|3:2,0:2:0:0:
449,142,5329,6,0,P|403:143|353:170,1,90,2|0,0:2|3:2,0:2:0:0:
340,81,5668,2,0,P|294:81|244:53,1,90,2|0,0:2|3:2,0:2:0:0:
184,0,6007,1,2,0:2:0:0:
186,125,6176,2,0,P|115:122|16:187,1,180,2|0,3:2|3:2,0:2:0:0:
24,271,6685,1,0,0:2:0:0:
149,299,6854,6,0,P|140:339|107:383,1,90,6|0,3:2|0:2,0:2:0:0:
233,328,7193,2,0,P|272:295|325:288,1,90,2|2,3:2|0:2,0:2:0:0:
435,272,7532,1,2,3:2:0:0:
379,349,7702,1,2,0:2:0:0:
286,251,7871,1,2,3:2:0:0:
197,293,8041,2,0,P|163:244|160:187,1,90,2|0,0:2|3:2,0:2:0:0:
67,114,8380,2,0,P|73:158|57:200,1,90,2|0,0:2|3:2,0:2:0:0:
136,42,8719,2,0,P|171:69|215:76,1,90,2|0,0:2|3:2,0:2:0:0:
327,15,9058,1,2,0:2:0:0:
400,66,9227,1,2,3:2:0:0:
479,36,9397,1,2,0:2:0:0:
427,150,9566,6,0,P|401:178|391:234,1,90,2|0,3:2|0:2,0:2:0:0:
363,343,9905,2,0,P|338:291|294:270,1,90,2|8,3:2|0:2,0:2:0:0:
203,213,10244,1,10,0:2:0:0:
125,264,10413,1,10,0:2:0:0:
60,189,10583,1,10,0:2:0:0:
0,333,10752,1,10,0:2:0:0:
32,108,11769,5,0,0:2:0:0:
103,157,11939,1,0,0:2:0:0:
183,126,12108,1,0,0:2:0:0:
119,13,12278,6,0,P|201:32|229:24,1,90,6|0,3:2|0:2,0:2:0:0:
275,151,12617,2,0,P|332:140|362:114,1,90,10|0,0:2|0:2,0:2:0:0:
475,16,12956,1,10,0:2:0:0:
493,115,13125,1,2,3:2:0:0:
363,38,13295,1,10,0:2:0:0:
388,137,13463,6,0,P|351:161|306:167,1,90,2|8,3:2|2:2,0:2:0:0:
163,59,13803,2,0,P|118:57|79:35,1,90,2|8,0:2|2:2,0:2:0:0:
213,161,14142,2,0,P|240:229|216:339,1,180,2|2,3:2|3:2,0:2:0:0:
331,208,14651,1,10,2:2:0:0:
262,269,14820,1,2,3:2:0:0:
130,245,14990,6,0,P|100:266|45:276,1,90,10|0,2:2|0:2,0:2:0:0:
96,132,15329,2,0,P|151:154|187:149,1,90,10|0,2:2|0:2,0:2:0:0:
335,125,15668,2,0,P|296:143|280:193,1,90,10|2,2:2|3:2,0:2:0:0:
315,279,16007,1,10,2:2:0:0:
421,299,16176,6,0,P|473:320|504:359,1,90,2|8,3:2|2:2,0:2:0:0:
393,211,16515,2,0,P|449:202|502:217,1,90,2|8,0:2|2:2,0:2:0:0:
324,292,16854,1,2,3:2:0:0:
242,223,17024,1,8,2:2:0:0:
134,298,17193,1,2,3:2:0:0:
104,302,17278,1,0,3:2:0:0:
75,293,17363,1,10,2:2:0:0:
16,225,17532,1,2,3:2:0:0:
111,197,17702,6,0,P|149:149|199:130,1,90,14|0,2:2|0:2,0:2:0:0:
154,25,18041,2,0,P|217:47|259:39,1,90,10|0,2:2|0:2,0:2:0:0:
417,121,18380,1,10,2:2:0:0:
349,45,18549,1,2,3:2:0:0:
265,129,18719,1,10,2:2:0:0:
330,199,18888,6,0,P|321:245|294:291,1,90,2|8,3:2|2:2,0:2:0:0:
405,126,19227,2,0,P|421:173|474:223,1,90,2|8,0:2|2:2,0:2:0:0:
244,128,19566,2,0,P|171:140|68:96,1,180,2|2,3:2|3:2,0:2:0:0:
105,14,20075,1,10,2:2:0:0:
162,95,20244,1,2,3:2:0:0:
240,29,20413,6,0,P|312:47|342:84,1,90,14|0,2:2|3:2,0:2:0:0:
251,148,20752,2,0,P|252:208|225:254,1,90,10|0,2:2|3:2,0:2:0:0:
222,259,21007,1,0,3:2:0:0:
200,280,21091,1,10,2:2:0:0:
139,208,21261,1,2,3:2:0:0:
52,230,21430,1,10,2:2:0:0:
104,345,21600,6,0,P|172:323|296:344,1,180,6|10,3:2|2:2,0:2:0:0:
437,299,22108,1,10,2:2:0:0:
382,375,22278,1,10,2:2:0:0:
339,264,22447,2,0,P|298:245|231:250,1,90,2|8,3:2|2:2,0:2:0:0:
224,250,22702,1,8,2:2:0:0:
199,269,22786,1,8,2:2:0:0:
169,278,22871,1,8,2:2:0:0:
139,274,22956,1,0,1:2:0:0:
101,108,23125,6,0,L|175:131,1,72,6|0,3:2|0:2,0:2:0:0:
246,71,23464,1,10,2:2:0:0:
246,71,23634,1,2,0:2:0:0:
328,126,23803,2,0,L|314:205,2,72,2|2|10,3:2|0:2|2:2,0:2:0:0:
356,23,24312,6,0,P|395:22|439:39,1,72,2|0,0:2|3:2,0:2:0:0:
456,130,24651,2,0,P|484:151|498:184,1,72,2|8,0:2|2:2,0:2:0:0:
448,284,24990,2,0,B|407:261|370:274|385:292|347:307|293:284,1,144,2|0,0:2|0:2,0:2:0:0:
226,248,25498,2,0,P|215:290|191:318,1,72,8|2,2:2|0:2,0:2:0:0:
177,329,25752,1,2,0:2:0:0:
163,339,25837,5,2,3:2:0:0:
70,253,26007,2,0,L|14:230,2,36,2|2|10,0:2|0:2|0:2,0:2:0:0:
150,204,26346,1,2,0:2:0:0:
230,159,26515,2,0,L|223:88,1,72,2|2,3:2|0:2,0:2:0:0:
312,202,26854,2,0,L|304:274,1,72,10|2,2:2|0:2,0:2:0:0:
369,122,27193,6,0,P|401:149|411:185,1,72,2|0,3:2|0:2,0:2:0:0:
390,258,27532,1,10,2:2:0:0:
374,41,27871,1,2,3:2:0:0:
269,176,28041,1,8,2:2:0:0:
269,176,28210,2,0,L|193:159,1,72,8|0,2:2|0:2,0:2:0:0:
68,30,28549,6,0,P|40:67|40:96,1,72,6|2,3:2|0:2,0:2:0:0:
33,221,28888,2,0,P|83:207|108:175,1,72,10|2,2:2|0:2,0:2:0:0:
169,59,29227,2,0,L|239:74,1,72,2|2,3:2|0:2,0:2:0:0:
314,143,29566,1,10,2:2:0:0:
424,63,29736,1,2,0:2:0:0:
424,63,29905,6,0,P|453:103|457:140,1,72,2|2,3:2|0:2,0:2:0:0:
463,279,30244,1,10,2:2:0:0:
399,204,30413,2,0,P|370:244|366:281,1,72,2|0,0:2|3:2,0:2:0:0:
366,361,30752,1,0,0:2:0:0:
269,312,30922,2,0,P|243:302|189:301,1,72,8|2,2:2|0:2,0:2:0:0:
180,307,31176,1,2,0:2:0:0:
159,316,31261,5,2,3:2:0:0:
60,315,31430,2,0,P|40:332|10:338,2,36,2|0|10,0:2|0:2|2:2,0:2:0:0:
122,225,31769,1,2,0:2:0:0:
52,136,31939,2,0,L|34:219,1,72,2|2,3:2|0:2,0:2:0:0:
120,45,32278,2,0,L|138:128,1,72,10|10,2:2|2:2,0:2:0:0:
140,131,32532,1,8,2:2:0:0:
145,148,32617,1,14,2:2:0:0:
350,82,32956,1,2,1:2:0:0:
376,350,33295,2,0,P|330:329|226:346,1,144,2|0,3:2|0:2,0:2:0:0:
23,234,33973,6,0,P|27:192|57:157,2,71.9999978027344,10|0|0,0:2|0:2|0:2,0:2:0:0:
96,302,34651,2,0,P|81:364|55:383,2,71.9999978027344,2|0|0,0:2|0:2|0:2,0:2:0:0:
128,214,35329,2,0,B|191:237|237:205|227:197|276:161|349:189,1,215.999993408203,2|2,0:2|0:2,0:2:0:0:
466,239,36346,1,0,0:2:0:0:
343,84,36685,6,0,P|377:62|415:56,2,71.9999978027344,2|0|0,0:2|0:2|0:2,0:2:0:0:
262,28,37363,2,0,P|230:45|181:48,2,71.9999978027344,2|0|0,0:2|0:2|0:2,0:2:0:0:
266,126,38041,2,0,B|291:187|276:235|254:222|232:288|284:341,1,215.999993408203,2|2,0:2|0:2,0:2:0:0:
360,304,38888,2,0,P|402:324|429:324,1,53.9999983520508
161,338,39397,6,0,P|95:323|65:336,2,71.9999978027344,2|0|0,0:2|0:2|0:2,0:2:0:0:
265,330,40075,2,0,P|331:345|359:331,2,71.9999978027344,2|0|0,0:2|0:2|0:2,0:2:0:0:
196,255,40752,2,0,B|242:176|205:106|205:106|199:143|160:168,1,215.999993408203,2|2,0:2|0:2,0:2:0:0:
43,47,41769,1,0,0:2:0:0:
8,247,42108,6,0,P|81:233|169:272,1,144,6|0,3:2|3:2,0:2:0:0:
219,322,42617,1,0,0:2:0:0:
291,267,42786,2,0,P|336:281|364:276,1,72,0|0,3:2|0:2,0:2:0:0:
449,233,43125,2,0,L|470:316,1,72,0|0,3:2|0:2,0:2:0:0:
512,100,43464,6,0,P|460:97|436:115,1,72,2|0,3:2|0:2,0:2:0:0:
444,106,43718,1,2,0:2:0:0:
444,106,43803,1,0,3:2:0:0:
367,42,43973,1,2,0:2:0:0:
338,132,44142,2,0,P|311:158|260:157,1,72,2|0,3:2|0:2,0:2:0:0:
277,162,44397,1,2,0:2:0:0:
277,162,44481,1,0,3:2:0:0:
172,120,44651,1,2,0:2:0:0:
16,175,44820,6,0,P|54:206|102:200,1,80.9999975280763,14|0,2:2|3:2,0:2:0:0:
217,220,45159,5,8,2:2:0:0:
100,280,45329,1,0,3:2:0:0:
178,147,45498,5,8,2:2:0:0:
83,273,45668,1,0,3:2:0:0:
165,117,45837,5,8,2:2:0:0:
65,357,46007,1,8,2:2:0:0:
87,346,46091,1,8,2:2:0:0:
111,334,46176,1,8,2:2:0:0:
111,334,46854,6,0,P|163:317|226:325,1,107.999996704102,2|2,0:2|0:2,0:2:0:0:
308,358,47363,1,2,0:2:0:0:
446,252,47532,6,0,P|459:300|474:350,1,99.0000030212403,6|0,3:2|0:2,0:2:0:0:
359,137,47871,2,0,P|346:184|334:232,1,99.0000030212403,10|0,2:2|0:2,0:2:0:0:
314,28,48210,1,10,2:2:0:0:
235,159,48380,1,2,3:2:0:0:
153,94,48549,1,10,2:2:0:0:
89,273,48719,6,0,P|135:239|177:245,1,99.0000030212403,2|8,3:2|2:2,0:2:0:0:
311,336,49058,2,0,P|360:338|397:307,1,99.0000030212403,2|8,0:2|2:2,0:2:0:0:
44,259,49397,2,0,P|88:222|140:218,1,99.0000030212403,2|8,3:2|2:2,0:2:0:0:
191,372,49736,1,2,3:2:0:0:
128,316,49905,1,10,2:2:0:0:
63,367,50075,1,2,3:2:0:0:
232,243,50244,6,0,P|291:261|334:250,1,99.0000030212403,10|0,2:2|0:2,0:2:0:0:
343,95,50583,2,0,P|391:88|437:105,1,99.0000030212403,10|0,2:2|0:2,0:2:0:0:
512,174,50922,1,10,2:2:0:0:
413,287,51091,2,0,P|410:339|444:398,1,99.0000030212403,2|8,3:2|2:2,0:2:0:0:
158,240,51430,6,0,P|92:270|67:248,1,99.0000030212403,2|8,3:2|2:2,0:2:0:0:
252,304,51769,2,0,P|246:375|214:387,1,99.0000030212403,2|8,0:2|2:2,0:2:0:0:
369,199,52108,1,2,3:2:0:0:
413,287,52278,1,8,2:2:0:0:
293,90,52447,1,0,3:2:0:0:
252,181,52617,1,8,2:2:0:0:
122,56,52786,1,0,3:2:0:0:
122,56,52871,1,0,3:2:0:0:
122,56,52956,6,0,B|107:155,1,99.0000030212403,14|0,2:2|0:2,0:2:0:0:
71,334,53295,1,10,2:2:0:0:
151,289,53464,1,2,0:2:0:0:
259,358,53634,1,10,2:2:0:0:
377,305,53803,1,2,3:2:0:0:
455,358,53973,1,10,2:2:0:0:
429,227,54142,6,0,P|372:209|330:225,1,99.0000030212403,2|8,3:2|2:2,0:2:0:0:
308,122,54481,2,0,P|259:156|203:162,1,99.0000030212403,2|8,0:2|2:2,0:2:0:0:
18,100,54820,2,0,L|0:217,1,99.0000030212403,2|8,3:2|2:2,0:2:0:0:
71,34,55159,1,2,0:2:0:0:
140,96,55329,1,10,2:2:0:0:
227,57,55498,1,2,3:2:0:0:
81,248,55668,6,0,P|59:315|73:344,1,99.0000030212403,14|0,2:2|3:2,0:2:0:0:
192,242,56007,2,0,P|241:275|301:276,1,99.0000030212403,10|0,2:2|3:2,0:2:0:0:
310,275,56261,1,0,3:2:0:0:
338,261,56346,1,10,2:2:0:0:
498,185,56515,1,2,3:2:0:0:
464,274,56685,1,10,2:2:0:0:
413,114,56854,6,0,B|393:105|349:98|307:137|339:139|293:176|237:160|228:153,1,198.000006042481,6|8,3:2|2:2,0:2:0:0:
11,108,57363,1,2,3:2:0:0:
100,87,57532,1,8,2:2:0:0:
131,163,57702,1,2,3:2:0:0:
10,255,57871,1,10,2:2:0:0:
101,360,58041,1,10,2:2:0:0:
206,276,58210,1,8,2:2:0:0:
206,276,58295,1,8,2:2:0:0:
206,276,58380,6,0,P|261:281|297:295,1,90,6|0,3:2|0:2,0:2:0:0:
436,204,58719,2,0,P|381:209|345:223,1,90,10|0,2:2|0:2,0:2:0:0:
265,81,59058,1,2,3:2:0:0:
183,128,59227,1,2,3:2:0:0:
100,84,59397,1,10,2:2:0:0:
54,180,59566,6,0,P|69:228|78:273,1,90,2|0,3:2|0:2,0:2:0:0:
134,384,59905,1,2,3:2:0:0:
193,320,60075,1,8,2:2:0:0:
320,369,60244,1,2,3:2:0:0:
244,166,60413,6,0,P|183:193|131:237,1,135.000005149842,8|0,0:1|3:2,0:2:0:0:
128,167,60752,2,0,P|189:194|241:238,1,135.000005149842,8|0,2:1|0:2,0:2:0:0:
422,119,61091,6,0,P|460:142|505:142,1,90,6|0,3:2|0:2,0:2:0:0:
365,48,61430,2,0,P|327:71|282:70,1,90,10|0,2:2|0:2,0:2:0:0:
173,21,61769,1,2,3:2:0:0:
78,47,61939,1,0,3:2:0:0:
153,111,62108,1,10,2:2:0:0:
248,89,62278,6,0,L|228:189,1,90,2|0,3:2|0:2,0:2:0:0:
356,52,62617,1,2,3:2:0:0:
417,116,62786,1,8,2:2:0:0:
503,37,62956,1,2,3:2:0:0:
382,204,63125,6,0,P|443:231|494:274,1,135.000005149842,8|0,0:1|3:2,0:2:0:0:
498,204,63464,2,0,P|437:231|386:274,1,135.000005149842,8|0,2:1|0:2,0:2:0:0:
359,375,63803,6,0,P|303:350|264:355,1,90,6|0,3:2|0:2,0:2:0:0:
210,287,64142,2,0,P|167:324|118:327,1,90,10|0,2:2|0:2,0:2:0:0:
0,194,64481,1,2,3:2:0:0:
33,316,64651,1,2,3:2:0:0:
131,233,64820,1,10,2:2:0:0:
231,195,64990,6,0,P|283:207|320:232,1,90,2|0,3:2|0:2,0:2:0:0:
415,107,65329,2,0,P|363:119|326:144,1,90,2|8,3:2|2:2,0:2:0:0:
82,26,65668,2,0,P|120:48|164:57,1,90,2|0,3:2|0:2,0:2:0:0:
352,34,66007,1,2,3:2:0:0:
410,94,66176,1,10,2:2:0:0:
484,59,66346,1,2,3:2:0:0:
428,209,66515,6,0,P|406:263|415:301,1,90,6|0,3:2|3:2,0:2:0:0:
304,250,66854,2,0,P|270:293|221:304,1,90,10|0,2:2|3:2,0:2:0:0:
207,304,67108,1,0,3:2:0:0:
177,300,67193,1,10,2:2:0:0:
24,224,67363,1,2,3:2:0:0:
4,308,67532,1,10,2:2:0:0:
123,200,67702,6,0,P|171:215|216:210,1,90,6|0,3:2|0:2,0:2:0:0:
315,154,68041,1,0,1:2:0:0:
387,203,68210,1,0,1:2:0:0:
512,146,68380,1,8,2:2:0:0:
512,146,68464,1,8,2:2:0:0:
512,146,68549,1,2,3:2:0:0:
441,336,68719,5,10,2:2:0:0:
369,287,68888,1,10,2:2:0:0:
251,362,69058,1,10,2:2:0:0:
251,362,69142,1,8,2:2:0:0:
251,362,69227,6,0,L|165:333,1,90,6|0,3:2|0:2,0:2:0:0:
9,291,69566,2,0,L|118:261,1,90,10|0,2:2|0:2,0:2:0:0:
319,209,69905,1,10,2:2:0:0:
280,287,70075,1,2,3:2:0:0:
182,163,70244,1,10,2:2:0:0:
112,222,70413,6,8,P|162:252|209:246,1,90,2|8,3:2|2:2,2:2:0:0:
407,161,70752,2,0,P|357:191|310:185,1,90,2|8,3:2|2:2,0:2:0:0:
76,58,71091,2,0,P|182:79|256:54,1,180,2|2,3:2|3:2,0:2:0:0:
401,35,71600,1,10,2:2:0:0:
341,104,71769,1,2,3:2:0:0:
242,51,71939,6,0,P|213:92|196:145,1,90,10|0,2:2|0:2,0:2:0:0:
96,143,72278,2,0,P|125:184|142:237,1,90,10|0,2:2|0:2,0:2:0:0:
106,328,72617,1,10,2:2:0:0:
199,299,72786,1,2,0:2:0:0:
262,362,72956,1,10,2:2:0:0:
338,230,73125,6,0,P|351:292|334:327,1,90,2|8,3:2|2:2,0:2:0:0:
377,148,73464,2,0,P|423:193|431:237,1,90,2|8,0:2|2:2,0:2:0:0:
301,92,73803,1,2,3:2:0:0:
225,141,73973,1,8,2:2:0:0:
150,91,74142,1,2,3:2:0:0:
30,208,74312,1,10,2:2:0:0:
68,197,74397,1,8,2:2:0:0:
106,208,74481,1,10,2:2:0:0:
137,227,74566,1,8,2:2:0:0:
163,250,74651,6,0,P|212:264|281:243,1,90,6|0,3:2|0:2,0:2:0:0:
397,173,74990,2,0,P|348:187|279:166,1,90,10|0,2:2|0:2,0:2:0:0:
184,65,75329,1,10,2:2:0:0:
121,133,75498,1,2,3:2:0:0:
29,58,75668,1,10,2:2:0:0:
0,142,75837,6,0,P|-5:183|17:234,1,90,2|8,3:2|2:2,0:2:0:0:
168,213,76176,2,0,P|173:254|151:305,1,90,2|8,3:2|2:2,0:2:0:0:
222,146,76515,2,0,P|306:179|416:163,1,180,2|2,3:2|3:2,0:2:0:0:
512,151,77024,1,10,2:2:0:0:
470,236,77193,1,2,3:2:0:0:
322,222,77363,6,0,P|308:266|323:308,1,90,14|0,2:2|3:2,0:2:0:0:
262,152,77702,2,0,P|252:106|218:78,1,90,10|0,2:2|3:2,0:2:0:0:
198,67,77956,1,0,3:2:0:0:
177,62,78041,1,10,2:2:0:0:
98,117,78210,1,2,3:2:0:0:
26,53,78380,1,10,2:2:0:0:
26,218,78549,6,0,B|91:183|117:221|138:251|207:219,1,180,6|10,3:2|0:2,0:2:0:0:
322,169,79058,1,2,3:2:0:0:
288,265,79227,1,10,2:2:0:0:
288,265,79312,1,8,2:2:0:0:
288,265,79397,2,0,P|286:315|325:352,1,90,10|8,2:2|0:3,0:2:0:0:
478,293,79736,1,8,0:3:0:0:
425,378,79905,1,0,3:2:0:0:
329,173,80075,5,4,3:2:0:0:
173,35,90583,5,8,2:2:0:0:
169,60,90668,1,8,2:2:0:0:
166,84,90752,1,8,2:2:0:0:
162,109,90837,1,8,2:2:0:0:
155,141,90922,6,0,P|132:187|90:200,1,90,6|8,3:2|2:2,0:2:0:0:
57,182,91176,1,2,0:2:0:0:
57,182,91261,2,0,L|84:283,1,90,0|10,3:2|2:2,0:2:0:0:
190,314,91600,2,0,P|214:269|279:253,1,90,2|8,3:2|2:2,0:2:0:0:
299,264,91854,1,2,0:2:0:0:
299,264,91939,2,0,L|333:361,1,90,0|10,3:2|2:2,0:2:0:0:
480,190,92278,5,2,3:2:0:0:
406,267,92447,1,8,2:2:0:0:
358,183,92617,2,0,P|299:159|249:181,1,90,0|8,3:2|2:2,0:2:0:0:
183,305,92956,2,0,P|145:336|79:331,1,90,2|8,3:2|2:2,0:2:0:0:
40,191,93295,1,2,3:2:0:0:
45,220,93380,1,0,3:2:0:0:
50,250,93464,1,8,2:2:0:0:
154,157,93634,6,0,P|213:178|250:170,1,90,2|8,3:2|2:2,0:2:0:0:
280,156,93888,1,2,0:2:0:0:
280,156,93973,2,0,L|253:261,1,90,0|10,3:2|2:2,0:2:0:0:
344,85,94312,2,0,P|285:64|248:72,1,90,2|8,3:2|2:2,0:2:0:0:
217,87,94566,1,2,0:2:0:0:
217,87,94651,2,0,L|244:-18,1,90,0|10,3:2|2:2,0:2:0:0:
129,42,94990,6,0,P|77:59|38:43,1,90,2|8,3:2|2:2,0:2:0:0:
33,152,95329,1,0,3:2:0:0:
40,178,95413,1,0,3:2:0:0:
47,205,95498,1,8,2:2:0:0:
84,341,95668,2,0,P|108:292|147:275,1,90,0|8,3:2|2:2,0:2:0:0:
280,194,96007,1,8,2:2:0:0:
316,193,96091,1,8,2:2:0:0:
345,204,96176,1,8,2:2:0:0:
373,225,96261,1,8,2:2:0:0:
398,245,96346,6,0,P|444:266|491:245,1,90,6|8,3:2|2:2,0:2:0:0:
507,214,96600,1,2,0:2:0:0:
507,214,96685,2,0,L|489:108,1,90,0|10,3:2|2:2,0:2:0:0:
408,16,97024,2,0,P|353:44|294:38,1,90,2|8,3:2|2:2,0:2:0:0:
278,21,97278,1,2,0:2:0:0:
278,21,97363,2,0,L|256:136,1,90,0|10,3:2|2:2,0:2:0:0:
238,257,97702,5,2,3:2:0:0:
189,151,97871,1,8,2:2:0:0:
70,211,98041,2,0,P|110:242|153:238,1,90,0|8,3:2|2:2,0:2:0:0:
288,194,98380,2,0,P|332:194|365:223,1,90,2|8,3:2|2:2,0:2:0:0:
365,223,98634,1,8,2:2:0:0:
365,223,98719,1,10,2:2:0:0:
477,189,98888,1,0,1:2:0:0:
421,348,99058,6,0,P|338:328|316:331,1,80.9999975280763,6|0,3:2|0:2,0:2:0:0:
262,369,99397,1,0,3:2:0:0:
114,289,99566,1,0,1:2:0:0:
108,381,99736,2,0,P|153:374|186:345,1,80.9999975280763,0|0,3:2|3:2,0:2:0:0:
370,183,100075,1,8,2:2:0:0:
308,246,100244,1,0,3:2:0:0:
243,107,100413,6,0,L|231:209,1,80.9999975280763,6|0,3:2|0:2,0:2:0:0:
233,187,100668,1,2,0:2:0:0:
233,187,100752,1,0,3:2:0:0:
169,45,100922,1,10,2:2:0:0:
90,112,101091,2,0,P|32:128|-1:122,1,80.9999975280763,2|8,3:2|2:2,0:2:0:0:
102,255,101430,1,10,2:2:0:0:
137,226,101515,1,8,2:2:0:0:
178,217,101600,1,10,2:2:0:0:
218,228,101685,1,8,2:2:0:0:
252,244,101769,6,0,P|302:268|349:257,1,80.9999975280763,6|0,3:2|0:2,0:2:0:0:
507,190,102108,5,8,2:2:0:0:
426,267,102278,1,0,3:2:0:0:
452,104,102447,5,8,2:2:0:0:
398,243,102617,1,0,3:2:0:0:
431,73,102786,5,8,2:2:0:0:
327,245,102956,1,0,3:2:0:0:
345,229,103041,1,0,3:2:0:0:
364,214,103125,5,8,2:2:0:0:
284,64,103295,2,0,L|274:18,2,40.4999987640381,0|8|8,3:2|2:2|2:2,0:2:0:0:
221,171,103634,1,8,0:2:0:0:
212,202,103719,1,8,0:2:0:0:
136,127,103888,1,8,0:2:0:0:
128,103,103973,1,0,1:2:0:0:
46,276,104142,1,10,2:2:0:0:
82,259,104227,1,8,2:2:0:0:
120,260,104312,1,10,2:2:0:0:
159,275,104397,1,8,2:2:0:0:
194,303,104481,6,0,P|249:329|300:315,1,99.0000030212403,6|0,3:2|0:2,0:2:0:0:
274,126,104820,2,0,B|250:185|250:185|258:229,1,99.0000030212403,10|0,2:2|0:2,0:2:0:0:
348,384,105159,1,10,2:2:0:0:
442,266,105329,1,2,3:2:0:0:
512,329,105498,1,10,2:2:0:0:
511,146,105668,6,0,P|468:174|406:171,1,99.0000030212403,2|8,3:2|2:2,0:2:0:0:
310,59,106007,2,0,P|267:31|205:34,1,99.0000030212403,2|8,0:2|2:2,0:2:0:0:
512,98,106346,2,0,P|485:144|428:162,1,99.0000030212403,2|8,3:2|2:2,0:2:0:0:
293,256,106685,1,2,3:2:0:0:
225,203,106854,1,10,2:2:0:0:
156,263,107024,1,2,3:2:0:0:
85,107,107193,6,0,P|48:139|1:146,1,99.0000030212403,10|0,2:2|0:2,0:2:0:0:
63,243,107532,2,0,P|45:300|58:353,1,99.0000030212403,10|0,2:2|0:2,0:2:0:0:
289,214,107871,1,10,2:2:0:0:
354,288,108041,1,2,3:2:0:0:
441,255,108210,1,10,2:2:0:0:
287,348,108380,6,0,P|245:330|185:349,1,99.0000030212403,2|8,3:2|2:2,0:2:0:0:
194,210,108719,2,0,P|146:240|128:283,1,99.0000030212403,2|8,0:2|2:2,0:2:0:0:
7,151,109058,1,2,3:2:0:0:
42,242,109227,1,8,2:2:0:0:
174,43,109397,1,0,3:2:0:0:
139,134,109566,1,8,2:2:0:0:
273,11,109736,1,0,3:2:0:0:
273,11,109820,1,0,3:2:0:0:
273,11,109905,6,0,L|297:118,1,99.0000030212403,14|0,2:2|0:2,0:2:0:0:
452,247,110244,2,0,P|403:218|351:235,1,99.0000030212403,10|0,2:2|0:2,0:2:0:0:
304,304,110583,1,10,2:2:0:0:
184,178,110752,1,2,3:2:0:0:
83,295,110922,1,10,2:2:0:0:
0,173,111091,6,0,P|49:205|101:203,1,99.0000030212403,2|8,3:2|2:2,0:2:0:0:
259,78,111430,2,0,P|317:91|356:118,1,99.0000030212403,2|8,0:2|2:2,0:2:0:0:
488,6,111769,2,0,P|430:19|391:46,1,99.0000030212403,2|8,3:2|2:2,0:2:0:0:
351,210,112108,1,2,3:2:0:0:
436,160,112278,1,10,2:2:0:0:
499,230,112447,1,2,3:2:0:0:
276,164,112617,6,0,P|233:179|169:195,1,99.0000030212403,14|0,2:2|3:2,0:2:0:0:
133,350,112956,2,0,P|176:335|240:319,1,99.0000030212403,10|0,2:2|3:2,0:2:0:0:
249,337,113210,1,0,3:2:0:0:
272,356,113295,1,10,2:2:0:0:
410,258,113464,1,2,3:2:0:0:
497,290,113634,1,10,2:2:0:0:
430,167,113803,6,0,B|443:123|470:97|489:146|528:67|493:25|454:21|421:31|413:65|426:74,1,198.000006042481,6|8,3:2|0:2,0:2:0:0:
343,205,114312,1,2,3:2:0:0:
268,157,114481,1,8,2:2:0:0:
204,218,114651,1,2,3:2:0:0:
129,91,114820,1,8,2:2:0:0:
0,157,114990,1,10,2:2:0:0:
83,288,115159,1,10,2:2:0:0:
83,288,115244,1,8,2:2:0:0:
83,288,115329,6,0,P|81:340|48:382,1,90,6|0,3:2|0:2,0:2:0:0:
167,312,115668,2,0,P|203:276|254:265,1,90,10|0,2:2|0:2,0:2:0:0:
376,282,116007,1,2,3:2:0:0:
297,337,116176,1,2,3:2:0:0:
276,182,116346,1,10,2:2:0:0:
385,285,116515,6,0,P|423:316|473:325,1,90,2|0,3:2|0:2,0:2:0:0:
439,192,116854,2,0,P|467:157|508:141,1,90,2|8,3:2|2:2,0:2:0:0:
512,255,117193,1,2,3:2:0:0:
377,44,117363,6,0,P|325:87|264:114,1,135.000005149842,8|0,0:1|3:2,0:2:0:0:
271,42,117702,2,0,P|322:85|383:112,1,135.000005149842,8|0,2:1|0:2,0:2:0:0:
281,224,118041,6,0,P|269:273|289:324,1,90,6|0,3:2|0:2,0:2:0:0:
179,291,118380,2,0,P|142:337|99:348,1,90,10|0,2:2|0:2,0:2:0:0:
14,208,118719,1,2,3:2:0:0:
100,256,118888,1,0,3:2:0:0:
183,199,119058,1,10,2:2:0:0:
279,310,119227,6,0,L|376:275,1,90,2|0,3:2|0:2,0:2:0:0:
509,226,119566,1,2,3:2:0:0:
440,329,119736,1,8,2:2:0:0:
337,202,119905,1,2,3:2:0:0:
175,266,120075,6,0,P|123:309|62:336,1,135.000005149842,8|0,0:1|3:2,0:2:0:0:
69,264,120414,2,0,P|120:307|181:334,1,135.000005149842,8|0,2:1|0:2,0:2:0:0:
81,160,120752,6,0,P|23:164|-8:198,1,90,6|0,3:2|0:2,0:2:0:0:
158,89,121091,2,0,P|216:93|247:127,1,90,10|0,2:2|0:2,0:2:0:0:
226,189,121430,1,2,3:2:0:0:
365,118,121600,1,2,3:2:0:0:
428,186,121769,1,10,2:2:0:0:
512,99,121939,6,0,P|469:68|416:65,1,90,2|0,3:2|0:2,0:2:0:0:
311,224,122278,2,0,P|276:262|223:275,1,90,2|8,3:2|2:2,0:2:0:0:
357,307,122617,2,0,P|392:345|445:358,1,90,2|0,3:2|0:2,0:2:0:0:
433,256,122956,1,2,3:2:0:0:
286,344,123125,1,10,2:2:0:0:
208,254,123295,1,2,3:2:0:0:
208,254,123380,1,0,3:2:0:0:
208,254,123464,6,0,P|169:274|105:284,1,90,14|0,2:2|3:2,0:2:0:0:
18,234,123803,1,10,2:2:0:0:
114,91,123973,1,0,3:2:0:0:
114,91,124058,1,0,3:2:0:0:
114,91,124142,2,0,L|103:206,1,90,14|2,2:2|3:2,0:2:0:0:
239,271,124481,1,10,2:2:0:0:
196,164,124651,6,0,B|243:144|292:155|282:186|340:204|378:178,1,180,6|0,3:2|3:2,0:2:0:0:
490,111,125159,5,8,2:2:0:0:
512,166,125272,5,8,2:2:0:0:
481,212,125385,5,8,2:2:0:0:
429,238,125498,6,0,L|444:304,2,60,2|0|0,1:2|1:2|1:2,0:2:0:0:
383,206,125837,6,0,L|368:140,2,60,0|0|0,3:2|3:2|3:2,0:2:0:0:
275,316,126176,6,0,B|227:286|162:319|189:325|133:353|71:304|71:304|81:257|127:243|158:254,1,323.999990112305,6|0,3:2|0:2,0:2:0:0:
391,350,127532,6,0,B|408:304|398:243|358:220|338:276|263:172|331:88|425:118|416:172,1,323.999990112305,6|10,3:2|0:2,0:2:0:0:
217,43,128888,6,0,B|166:77|102:61|117:38|55:9|-7:47,1,215.999993408203,6|2,3:2|0:2,0:2:0:0:
48,112,129736,2,0,L|31:157,2,26.9999991760254,8|8|10,0:2|0:2|0:2,0:2:0:0:
357,61,130244,6,0,P|292:83|266:126,1,107.999996704102,6|0,3:2|0:2,0:2:0:0:
276,227,130752,1,8,0:2:0:0:
276,227,130837,1,8,0:2:0:0:
276,227,130922,1,2,1:2:0:0:
363,164,131091,1,0,3:2:0:0:
444,231,131261,2,0,P|493:225|534:193,1,72,8|0,2:2|0:2,0:2:0:0:
399,346,131600,6,0,P|326:320|309:321,1,72,6|2,3:2|0:2,0:2:0:0:
256,258,131939,2,0,P|221:298|182:312,1,72,10|2,2:2|0:2,0:2:0:0:
191,312,132193,1,0,3:2:0:0:
176,313,132278,1,2,3:2:0:0:
157,215,132447,1,2,0:2:0:0:
22,238,132617,2,0,P|60:268|106:272,1,72,10|0,2:2|0:2,0:2:0:0:
199,98,132956,5,2,3:2:0:0:
244,175,133125,2,0,P|277:187|313:186,1,72,2|8,0:2|3:2,0:2:0:0:
403,81,133464,2,0,P|395:124|422:232,1,144,2|0,0:2|0:2,0:2:0:0:
373,322,133973,2,0,P|335:279|305:268,1,72,8|0,3:2|0:2,0:2:0:0:
241,313,134227,1,8,2:2:0:0:
241,313,134312,6,0,P|197:333|159:335,1,80.9999975280763,2|2,3:2|0:2,0:2:0:0:
55,348,134651,2,0,P|82:291|80:254,1,80.9999975280763,10|2,2:2|0:2,0:2:0:0:
71,182,134990,1,10,2:2:0:0:
168,235,135159,1,10,2:2:0:0:
212,125,135329,1,10,2:2:0:0:
325,223,135498,1,8,2:2:0:0:
462,92,135668,6,0,P|504:118|507:172,1,80.9999975280763,10|2,2:2|0:2,0:2:0:0:
507,179,135922,1,8,2:2:0:0:
492,200,136007,1,10,2:2:0:0:
373,127,136176,1,10,2:2:0:0:
345,108,136261,1,8,2:2:0:0:
314,102,136346,1,0,3:2:0:0:
281,110,136430,1,8,2:2:0:0:
248,133,136515,1,10,2:2:0:0:
200,154,136600,1,8,2:2:0:0:
148,153,136685,1,2,1:2:0:0:
107,125,136769,1,0,1:2:0:0:
81,85,136854,1,2,3:2:0:0:
307,208,137024,5,6,3:2:0:0:
206,295,137193,1,0,0:2:0:0:
109,184,137363,1,10,2:2:0:0:
20,299,137532,2,0,P|75:279|127:264,1,99.0000030212403,2|8,0:2|2:2,0:2:0:0:
212,293,137871,1,0,3:2:0:0:
400,113,138041,2,0,P|345:133|293:148,1,99.0000030212403,10|0,2:2|3:2,0:2:0:0:
217,111,138380,5,8,2:2:0:0:
398,225,138549,1,2,0:2:0:0:
299,235,138719,2,0,P|298:306|342:342,1,99.0000030212403,10|0,2:2|3:2,0:2:0:0:
409,220,139058,2,0,P|410:149|366:113,1,99.0000030212403,10|0,2:2|3:2,0:2:0:0:
260,14,139397,1,10,2:2:0:0:
178,67,139566,1,2,3:2:0:0:
16,27,139736,6,0,B|25:83|25:83|11:96|4:112|4:112|22:225,1,198.000006042481,14|8,2:2|2:2,0:2:0:0:
206,298,140244,2,0,P|203:327|192:357,2,49.5000015106202,2|2|10,0:2|0:2|2:2,0:2:0:0:
160,219,140583,1,2,3:2:0:0:
88,274,140752,1,10,2:2:0:0:
150,77,140922,1,2,3:2:0:0:
251,190,141091,6,0,L|315:203,3,49.5000015106202,14|2|2|2,2:2|0:2|0:2|0:2,0:2:0:0:
318,279,141430,2,0,L|384:292,3,49.5000015106202,10|2|2|2,2:2|0:2|3:2|0:2,0:2:0:0:
406,360,141769,2,0,L|477:374,3,49.5000015106202,10|2|2|2,2:2|0:2|3:2|0:2,0:2:0:0:
503,268,142108,2,0,P|522:221|501:159,1,99.0000030212403,10|8,2:2|2:2,0:2:0:0:
482,108,142363,1,8,2:2:0:0:
482,108,142447,6,0,P|418:140|362:134,1,99.0000030212403,6|0,3:2|0:2,0:2:0:0:
271,36,142786,1,8,2:2:0:0:
231,119,142956,1,2,0:2:0:0:
141,0,143125,1,8,2:2:0:0:
157,86,143295,1,0,3:2:0:0:
35,81,143464,1,10,2:2:0:0:
101,145,143634,1,0,3:2:0:0:
0,265,143803,6,0,P|82:248|113:265,1,99.0000030212403,10|0,2:2|0:2,0:2:0:0:
60,343,144142,2,0,P|108:350|152:330,1,99.0000030212403,10|0,2:2|3:2,0:2:0:0:
451,270,144481,5,10,2:2:0:0:
394,350,144651,1,2,3:2:0:0:
205,244,144820,1,10,2:2:0:0:
263,324,144990,1,2,3:2:0:0:
375,210,145159,6,0,P|352:149|353:100,1,99.0000030212403,14|8,2:2|2:2,0:2:0:0:
360,71,145413,1,8,2:2:0:0:
333,98,145498,1,2,3:2:0:0:
301,113,145583,1,8,2:2:0:0:
268,116,145668,1,10,2:2:0:0:
232,104,145752,1,8,2:2:0:0:
192,80,145837,2,0,P|187:52|169:33,3,49.5000015106202,6|0|2|0,1:2|1:2|1:2|1:2,0:2:0:0:
146,144,146176,1,2,3:2:0:0:
34,83,146346,6,0,B|1:141|1:141|8:184,1,99.0000030212403,4|2,3:2|0:2,0:2:0:0:
62,270,146685,1,8,2:2:0:0:
152,151,146854,1,2,3:2:0:0:
226,271,147024,1,10,2:2:0:0:
379,148,147193,1,14,2:2:0:0:
457,271,147871,6,0,P|443:216|461:167,2,96,2|2|2,3:2|0:2|0:2,0:2:0:0:
381,138,148549,2,0,P|316:157|276:149,1,96,10|0,2:2|0:2,0:2:0:0:
219,104,148888,2,0,L|210:175,1,72,2|2,3:2|0:2,0:2:0:0:
144,235,149227,1,2,3:2:0:0:
144,235,149736,5,0,3:2:0:0:
231,261,149905,2,0,P|280:236|312:231,2,72,8|0|0,2:2|0:2|0:2,0:2:0:0:
310,347,150583,6,0,P|359:375|419:386,2,96,2|2|2,3:2|0:2|0:2,0:2:0:0:
225,384,151261,2,0,P|182:355|123:354,1,96,10|2,2:2|0:2,0:2:0:0:
49,351,151600,2,0,L|72:269,1,72,0|2,3:2|0:2,0:2:0:0:
88,204,151939,1,2,3:2:0:0:
88,204,152447,5,0,3:2:0:0:
157,262,152617,2,0,P|198:246|243:246,2,72,8|0|0,2:2|0:2|0:2,0:2:0:0:
384,209,153295,6,0,P|348:203|289:160,2,96,2|2|2,3:2|0:2|0:2,0:2:0:0:
512,254,153973,2,0,L|414:279,1,96,10|0,2:2|0:2,0:2:0:0:
366,338,154312,2,0,L|274:312,1,72,0|2,3:2|0:2,0:2:0:0:
218,362,154651,1,2,3:2:0:0:
218,362,155159,5,0,3:2:0:0:
182,273,155329,2,0,P|139:294|90:297,1,72,10|0,2:2|0:2,0:2:0:0:
34,242,155668,1,2,0:2:0:0:
155,72,156007,6,0,P|240:118|323:102,1,161.999995056153,2|0,3:2|3:2,0:2:0:0:
395,69,156515,1,0,0:2:0:0:
478,179,156685,2,0,P|425:159|385:157,1,80.9999975280763,0|0,3:2|0:2,0:2:0:0:
426,266,157024,2,0,P|373:246|333:244,1,80.9999975280763,0|0,3:2|0:2,0:2:0:0:
201,302,157363,6,0,P|146:333|117:334,1,80.9999975280763,2|0,3:2|0:2,0:2:0:0:
129,334,157617,1,2,0:2:0:0:
129,334,157702,1,0,3:2:0:0:
37,280,157871,1,2,0:2:0:0:
136,234,158041,2,0,P|161:168|159:131,1,80.9999975280763,2|0,3:2|0:2,0:2:0:0:
161,158,158295,1,2,0:2:0:0:
161,158,158380,1,0,3:2:0:0:
265,247,158549,1,2,0:2:0:0:
287,93,158719,5,10,2:2:0:0:
345,221,158888,1,0,3:2:0:0:
366,55,159058,5,8,2:2:0:0:
364,215,159227,1,0,3:2:0:0:
440,14,159397,5,8,2:2:0:0:
512,182,159566,1,8,2:2:0:0:
485,173,159651,1,8,2:2:0:0:
457,165,159736,1,8,2:2:0:0:
429,156,159820,1,8,2:2:0:0:
396,147,159905,2,0,L|343:176,1,40.4999987640381,8|8,0:2|0:2,0:2:0:0:
500,88,160075,1,8,0:2:0:0:
326,312,161430,6,0,P|295:335|245:326,1,72,2|0,3:2|0:2,0:2:0:0:
211,260,161769,2,0,B|167:238|132:268|108:293|62:267,1,144,2|2,3:2|3:2,0:2:0:0:
0,225,162278,1,2,0:2:0:0:
22,141,162447,1,2,3:2:0:0:
99,168,162617,2,0,L|176:146,1,72,2|0,0:2|3:2,0:2:0:0:
220,218,162956,2,0,L|295:194,1,72,2|0,0:2|3:2,0:2:0:0:
363,104,163295,2,0,B|428:136|428:136|480:161|516:125,1,144,2|2,0:2|0:2,0:2:0:0:
494,8,163803,1,2,3:2:0:0:
425,46,163973,1,2,0:2:0:0:
313,28,164142,6,0,P|280:67|279:92,1,72,2|0,3:2|0:2,0:2:0:0:
350,197,164481,2,0,B|297:178|279:210|261:237|183:202,1,144,2|2,3:2|3:2,0:2:0:0:
200,127,164990,1,2,0:2:0:0:
115,235,165159,1,2,3:2:0:0:
39,189,165329,2,0,L|24:260,1,72,2|0,0:2|3:2,0:2:0:0:
92,63,165668,2,0,L|107:133,1,72,2|0,0:2|3:2,0:2:0:0:
177,12,166007,1,2,0:2:0:0:
271,80,166176,2,0,B|328:69|345:97|361:121|424:104,1,144,0|0,3:2|3:2,0:2:0:0:
478,343,166854,6,0,L|402:314,1,80.9999975280763,6|0,3:2|0:2,0:2:0:0:
340,242,167193,2,0,L|238:270,1,80.9999975280763,2|0,3:2|3:2,0:2:0:0:
261,263,167447,1,8,2:2:0:0:
261,263,167532,1,10,2:2:0:0:
188,199,167702,2,0,L|135:213,2,40.4999987640381,2|8|10,3:2|0:2|0:2,0:0:0:0:
52,159,168041,1,2,3:2:0:0:
52,159,168125,1,8,2:2:0:0:
52,159,168210,6,0,P|31:220|37:242,1,80.9999975280763,8|2,2:2|3:2,0:2:0:0:
60,319,168464,1,8,2:2:0:0:
60,319,168549,2,0,L|147:293,1,80.9999975280763,8|2,2:2|3:2,0:2:0:0:
173,218,168803,1,8,2:2:0:0:
173,218,168888,2,0,L|261:236,1,80.9999975280763,8|2,2:2|1:2,0:2:0:0:
252,234,169142,1,0,1:2:0:0:
252,234,169227,1,2,1:2:0:0:
217,329,169397,1,2,3:2:0:0:
345,295,169566,6,0,P|361:259|356:220,1,80.9999975280763,2|0,3:2|0:2,0:2:0:0:
430,164,169905,2,0,P|413:122|423:82,1,80.9999975280763,2|8,3:2|2:2,0:2:0:0:
443,63,170159,1,8,2:2:0:0:
467,38,170244,2,0,P|477:11|476:-14,1,40.4999987640381,10|8,0:2|0:2,0:0:0:0:
329,94,170413,1,10,0:2:0:0:
294,114,170497,1,8,0:2:0:0:
254,121,170582,1,10,0:2:0:0:
215,113,170667,1,8,0:2:0:0:
182,90,170751,1,0,3:2:0:0:
512,56,172278,6,0,P|468:86|410:78,1,107.999996704102,6|0,3:2|0:2,0:2:0:0:
272,9,172617,2,0,P|206:25|181:65,1,107.999996704102,10|0,2:2|0:2,0:2:0:0:
309,269,172956,1,10,2:2:0:0:
234,228,173125,1,2,3:2:0:0:
168,282,173295,1,10,2:2:0:0:
47,162,173464,5,2,3:2:0:0:
51,246,173634,1,8,2:2:0:0:
138,143,173803,2,0,P|194:156|251:132,1,107.999996704102,2|8,0:2|2:2,0:2:0:0:
458,103,174142,2,0,P|444:149|434:228,1,107.999996704102,2|8,3:2|2:2,0:2:0:0:
454,358,174481,1,2,3:2:0:0:
389,307,174651,1,10,2:2:0:0:
320,355,174820,1,2,3:2:0:0:
229,181,174990,6,0,P|196:241|141:261,1,107.999996704102,10|0,2:2|0:2,0:2:0:0:
48,249,175329,1,10,2:2:0:0:
110,357,175498,1,0,0:2:0:0:
301,243,175668,1,10,2:2:0:0:
335,328,175836,2,0,P|384:347|437:341,1,107.999996704102,2|8,3:2|2:2,0:2:0:0:
474,124,176176,6,0,B|485:166|445:194|445:194|426:181|433:163,1,107.999996704102,2|8,3:2|2:2,0:2:0:0:
361,43,176515,2,0,B|350:85|301:90|301:90|291:69|306:56,1,107.999996704102,2|8,0:2|2:2,0:2:0:0:
219,0,176854,1,2,3:2:0:0:
88,125,177024,1,8,2:2:0:0:
18,63,177193,1,0,3:2:0:0:
0,263,177363,1,8,2:2:0:0:
34,250,177447,1,8,2:2:0:0:
72,236,177532,1,8,2:2:0:0:
111,221,177617,1,8,2:2:0:0:
150,246,177702,6,0,P|202:263|256:244,1,107.999996704102,6|0,3:2|0:2,0:2:0:0:
360,153,178041,1,10,2:2:0:0:
398,228,178210,1,2,0:2:0:0:
248,83,178380,1,10,2:2:0:0:
210,158,178549,1,2,3:2:0:0:
365,12,178719,1,10,2:2:0:0:
511,120,178888,6,0,P|477:93|402:90,1,107.999996704102,2|8,3:2|2:2,0:2:0:0:
335,282,179227,2,0,P|296:314|215:315,1,107.999996704102,2|8,0:2|2:2,0:2:0:0:
51,214,179566,1,2,3:2:0:0:
54,317,179736,2,0,P|108:285|168:283,1,107.999996704102,8|2,2:2|3:2,0:2:0:0:
265,221,180075,1,10,2:2:0:0:
336,276,180244,1,2,3:2:0:0:
414,230,180413,6,0,P|426:289|400:342,1,107.999996704102,14|0,2:2|3:2,0:2:0:0:
493,184,180752,2,0,L|514:69,1,107.999996704102,10|0,2:2|3:2,0:2:0:0:
503,59,181007,1,0,3:2:0:0:
495,46,181091,1,14,2:2:0:0:
401,139,181261,1,2,3:2:0:0:
319,67,181430,1,10,2:2:0:0:
200,138,181600,6,0,P|143:174|93:175,1,107.999996704102,6|0,3:2|0:2,0:2:0:0:
34,121,181939,1,0,1:2:0:0:
0,241,182108,1,2,1:2:0:0:
131,79,182278,1,8,2:2:0:0:
125,61,182363,1,8,2:2:0:0:
119,43,182447,1,10,2:2:0:0:
226,179,182617,1,8,2:2:0:0:
217,210,182702,1,8,2:2:0:0:
208,241,182786,1,8,2:2:0:0:
291,75,182956,1,8,2:2:0:0:
449,146,183125,6,0,B|417:120|378:125|378:125|352:167|291:154,1,148.50000453186,2|0,3:2|0:2,0:2:0:0:
258,227,183464,2,0,P|245:170|209:136,1,99.0000030212403,14|0,2:2|2:2,2:2:0:0:
69,58,183803,1,2,3:2:0:0:
69,58,183973,1,2,3:2:0:0:
0,152,184142,1,10,2:2:0:0:
126,125,184312,6,0,P|176:136|209:176,1,99.0000030212403,2|0,3:2|0:2,0:2:0:0:
318,27,184651,2,0,P|268:38|235:78,1,99.0000030212403,2|8,3:2|2:2,0:2:0:0:
301,205,184990,1,2,3:2:0:0:
510,48,185159,6,0,P|452:82|387:100,1,135.000005149842,8|0,0:1|3:2,0:2:0:0:
405,29,185498,2,0,P|448:79|505:116,1,135.000005149842,8|0,2:1|0:2,0:2:0:0:
497,240,185837,6,0,B|482:271|432:275|432:275|408:233|348:238,1,148.50000453186,2|0,3:2|0:2,0:2:0:0:
338,163,186176,2,0,P|286:185|232:174,1,99.0000030212403,14|0,2:2|0:0,0:0:0:0:
194,319,186515,1,2,3:2:0:0:
194,319,186685,1,0,3:2:0:0:
117,250,186854,1,10,2:2:0:0:
0,384,187024,6,0,P|57:350|102:355,1,99.0000030212403,2|0,3:2|0:2,0:2:0:0:
194,319,187363,2,0,P|251:353|296:348,1,99.0000030212403,2|8,3:2|2:2,0:2:0:0:
385,335,187702,1,2,3:2:0:0:
297,120,187871,6,0,P|253:170|196:207,1,135.000005149842,8|0,0:1|3:2,0:2:0:0:
191,134,188210,2,0,P|248:168|313:186,1,135.000005149842,8|8,2:1|2:2,0:2:0:0:
417,141,188464,1,8,2:2:0:0:
417,141,188549,6,0,B|389:170|389:207|389:207|431:236|418:284,1,148.50000453186,2|0,3:2|0:2,0:2:0:0:
512,284,188888,2,0,P|487:334|492:384,1,99.0000030212403,14|0,2:2|0:0,0:0:0:0:
314,279,189227,1,2,3:2:0:0:
314,279,189397,1,2,3:2:0:0:
235,335,189566,1,10,2:2:0:0:
61,312,189736,6,0,P|36:258|57:211,1,99.0000030212403,2|0,3:2|0:2,0:2:0:0:
24,115,190075,2,0,P|84:141|141:153,1,99.0000030212403,2|8,3:2|2:2,0:2:0:0:
240,236,190413,2,0,P|284:215|332:201,1,99.0000030212403,2|0,3:2|0:2,0:2:0:0:
482,272,190752,1,2,3:2:0:0:
420,334,190922,1,10,2:2:0:0:
330,210,191091,1,2,3:2:0:0:
330,210,191176,1,0,3:2:0:0:
330,210,191261,6,0,P|318:268|346:304,1,99.0000030212403,14|0,2:2|3:2,0:2:0:0:
443,153,191600,2,0,P|455:95|427:59,1,99.0000030212403,10|0,2:2|3:2,0:2:0:0:
335,22,191939,1,14,2:2:0:0:
297,48,192024,1,8,2:2:0:0:
251,51,192108,1,0,3:2:0:0:
161,1,192278,1,10,2:2:0:0:
197,131,192447,6,0,P|148:126|90:152,1,99.0000030212403,6|0,3:2|0:2,0:2:0:0:
60,331,192786,1,0,3:2:0:0:
160,227,192956,1,8,2:2:0:0:
289,312,193125,1,8,2:2:0:0:
308,310,193210,1,8,2:2:0:0:
330,306,193295,6,0,B|329:270|331:224|375:209|391:237|441:231|472:195|462:110|391:104|362:135|362:135|348:78|291:65|249:105|247:151|301:173,1,467.999978576661,10|4,2:2|3:2,0:2:0:0:
