osu file format v14

[General]
AudioFilename: audio.mp3
AudioLeadIn: 0
PreviewTime: 110454
Countdown: 0
SampleSet: Soft
StackLeniency: 0.7
Mode: 0
LetterboxInBreaks: 0
WidescreenStoryboard: 0

[Editor]
Bookmarks: -16,22138,44207,66276,88345,132483,154552,176621,220759
DistanceSpacing: 1
BeatDivisor: 4
GridSize: 4
TimelineZoom: 1.7

[Metadata]
Title:Into The Cold
TitleUnicode:Into The Cold
Artist:Mewone!
ArtistUnicode:Mewone!
Creator:vanucik
Version:Winter
Source:
Tags:neuropunk mewone roman smirnov chalwa
BeatmapID:1428943
BeatmapSetID:675488

[Difficulty]
HPDrainRate:6.5
CircleSize:4
OverallDifficulty:8.5
ApproachRate:9.3
SliderMultiplier:2
SliderTickRate:1

[Events]
//Background and Video events
0,0,"MewOne.jpg",0,0
//Break Periods
//Storyboard Layer 0 (Background)
//Storyboard Layer 1 (Fail)
//Storyboard Layer 2 (Pass)
//Storyboard Layer 3 (Foreground)
//Storyboard Sound Samples

[TimingPoints]
110,344.827586206897,4,2,1,10,1,0
22178,-250,4,2,1,10,0,0
30454,-250,4,2,1,9,0,0
31144,-250,4,2,1,8,0,0
31834,-250,4,2,1,7,0,0
32523,-250,4,2,1,6,0,0
33213,-250,4,2,1,10,0,0
41489,-250,4,2,1,8,0,0
42178,-250,4,2,1,6,0,0
42868,-250,4,2,1,10,0,0
44161,-250,4,2,1,5,0,0
44247,-200,4,2,1,20,0,0
66316,-166.666666666667,4,2,1,30,0,0
88385,-83.3333333333333,4,2,1,90,0,0
89161,-100,4,2,1,5,0,0
89247,-100,4,2,1,90,0,0
89765,-100,4,2,1,90,0,0
91144,-66.6666666666667,4,2,1,90,0,0
93903,-83.3333333333333,4,2,1,90,0,0
94678,-66.6666666666667,4,2,1,5,0,0
94765,-100,4,2,1,90,0,0
95282,-100,4,2,1,90,0,0
96661,-66.6666666666667,4,2,1,90,0,0
100799,-100,4,2,1,90,0,0
101144,-66.6666666666667,4,2,1,90,0,0
104937,-83.3333333333333,4,2,1,90,0,0
105713,-83.3333333333333,4,2,1,5,0,0
105799,-83.3333333333333,4,2,1,90,0,0
107696,-76.9230769230769,4,2,1,90,0,0
110368,-83.3333333333333,4,2,1,5,0,0
110454,-66.6666666666667,4,2,1,90,0,0
122868,-100,4,2,1,90,0,0
123213,-66.6666666666667,4,2,1,90,0,0
127006,-111.111111111111,4,2,1,90,0,0
131058,-111.111111111111,4,2,1,5,0,0
131144,-111.111111111111,4,2,1,90,0,0

[Colours]
Combo1 : 0,255,255
Combo2 : 0,128,255

[HitObjects]
132,124,22178,6,0,B|185:97|185:97|177:204,1,160,2|0,0:0|0:0,0:0:0:0:
164,357,23558,2,0,L|178:192,1,160,2|0,0:0|0:0,0:0:0:0:
306,102,24937,6,0,B|332:137|316:177|316:177|339:211|326:254,1,160,2|0,0:0|0:0,0:0:0:0:
253,224,25972,1,2,0:0:0:0:
406,214,26316,2,0,B|400:182|410:153|410:153|389:124|389:124|401:92|393:59,1,160,2|0,0:0|0:0,0:0:0:0:
219,40,27696,6,0,B|190:77|187:129|219:178|219:178|175:121|114:110|53:151|53:151|78:190|120:205|120:205|130:248|130:248|178:239|178:239|209:271|252:276,1,600,2|0,0:2|0:0,0:0:0:0:
290,279,30454,6,0,P|304:237|299:199,1,80,2|0,0:0|0:0,0:0:0:0:
376,223,31144,2,0,P|374:178|357:144,1,80,2|0,0:0|0:0,0:0:0:0:
413,160,31834,2,0,P|396:118|368:92,1,80,2|0,0:0|0:0,0:0:0:0:
420,105,32523,2,0,P|390:71|355:57,1,80,2|0,0:0|0:0,0:0:0:0:
269,287,33213,6,0,B|228:299|195:277|195:277|148:304|115:276|115:276|94:258|88:229|103:197,1,240,2|0,0:0|0:0,0:0:0:0:
146,131,34592,2,0,P|193:145|276:74,1,160,2|2,0:0|0:0,0:0:0:0:
194,61,35627,1,2,0:0:0:0:
353,61,35972,6,0,B|375:99|359:138|359:138|393:164|394:213,1,160,2|0,0:0|0:0,0:0:0:0:
313,207,37006,1,2,0:0:0:0:
286,282,37351,2,0,P|252:269|190:269,1,80,2|0,0:0|0:0,0:0:0:0:
136,302,38041,1,2,0:0:0:0:
203,81,38730,6,0,B|258:109|343:121|408:106|420:60|385:-9|329:6|289:28|297:91|330:149|330:149|320:174|320:174|338:202|334:241,1,480,2|0,0:0|0:0,0:0:0:0:
266,280,41144,1,2,0:0:0:0:
204,229,41489,6,0,P|197:189|201:139,1,80,2|0,0:0|0:0,0:0:0:0:
274,181,42178,2,0,P|275:139|291:96,1,80,2|0,0:0|0:0,0:0:0:0:
346,50,42868,1,2,0:0:0:0:
256,192,43213,12,0,44161,0:0:0:0:
194,279,44247,6,2,P|150:284|78:263,1,100,4|0,2:2|0:0,0:0:0:0:
274,196,44937,1,2,0:0:0:0:
274,207,45282,1,0,0:0:0:0:
109,153,45627,2,0,P|69:109|52:56,1,100
280,89,46316,1,2,0:0:0:0:
280,101,46661,1,0,0:0:0:0:
213,276,47006,6,0,P|157:301|104:295,1,100,0|0,0:2|0:0,0:0:0:0:
221,171,47696,1,2,0:0:0:0:
222,160,48041,1,0,0:0:0:0:
353,242,48385,2,0,P|370:293|366:353,1,100
178,257,49075,1,2,0:0:0:0:
176,244,49420,1,0,0:0:0:0:
345,155,49765,6,0,P|295:135|239:132,1,100,0|0,1:2|0:0,0:0:0:0:
424,259,50454,1,2,0:0:0:0:
438,256,50799,1,0,0:0:0:0:
280,268,51144,2,0,P|227:249|177:252,1,100,0|0,1:2|0:0,0:0:0:0:
376,354,51834,1,2,0:0:0:0:
392,349,52178,1,0,0:0:0:0:
311,180,52523,6,0,L|308:77,1,100,0|0,1:2|0:0,0:0:0:0:
407,152,53213,1,2,0:0:0:0:
405,174,53558,1,0,0:0:0:0:
210,214,53903,2,0,L|207:106,1,100,0|0,1:2|0:0,0:0:0:0:
311,180,54592,1,2,0:0:0:0:
307,202,54937,1,0,0:0:0:0:
151,297,55282,6,0,P|101:275|49:271,1,100
250,357,55972,1,2,0:0:0:0:
217,204,56316,1,0,0:0:0:0:
346,276,56661,2,0,P|391:265|449:262,1,100
217,190,57351,1,2,0:0:0:0:
248,343,57696,1,0,0:0:0:0:
333,166,58041,6,0,P|334:105|309:52,1,100
255,253,58730,1,2,0:0:0:0:
419,219,59075,1,0,0:0:0:0:
260,267,59420,2,0,P|206:248|152:245,1,100
428,232,60110,1,2,0:0:0:0:
318,355,60454,1,0,0:0:0:0:
343,161,60799,6,0,P|380:131|439:118,1,100,0|0,1:2|0:0,0:0:0:0:
294,245,61489,1,2,0:0:0:0:
217,81,61834,1,0,0:0:0:0:
109,219,62178,5,0,1:2:0:0:
206,186,62523,1,0,0:0:0:0:
90,314,62868,1,2,0:0:0:0:
106,206,63213,1,0,0:0:0:0:
262,313,63558,5,0,1:2:0:0:
285,196,63903,1,0,0:0:0:0:
174,250,64247,1,2,0:0:0:0:
379,254,64592,1,0,0:0:0:0:
264,133,64937,5,0,1:2:0:0:
254,247,65282,1,0,0:0:0:0:
388,144,65627,1,2,0:0:0:0:
182,304,65972,2,0,L|126:298,2,33.3333333333333,2|2|2,0:0|0:0|0:0,0:0:0:0:
277,318,66316,6,0,P|326:291|394:291,1,119.999996337891,2|0,3:2|0:0,0:0:0:0:
479,327,66834,1,2,0:0:0:0:
314,205,67178,2,0,P|281:205|231:219,1,59.9999981689454,2|0,0:0|0:0,0:0:0:0:
135,122,67696,2,0,P|156:158|168:192,1,59.9999981689454,2|0,3:2|0:0,0:0:0:0:
243,29,68213,2,0,P|254:86|255:101,2,59.9999981689454,2|0|0,0:0|0:0|0:0,0:0:0:0:
370,57,68730,1,2,0:0:0:0:
290,176,68903,1,0,0:0:0:0:
490,204,69075,6,0,P|493:158|443:93,1,119.999996337891,10|0,0:3|0:0,0:0:0:0:
370,57,69592,1,2,0:0:0:0:
290,176,69937,2,0,P|298:224|298:252,1,59.9999981689454,2|0,0:0|0:0,0:0:0:0:
146,235,70454,2,0,P|182:219|206:214,1,59.9999981689454,2|0,0:0|0:0,0:0:0:0:
258,328,70972,2,0,P|288:325|319:326,2,59.9999981689454,2|0|0,0:0|0:0|0:0,0:0:0:0:
403,360,71489,1,2,0:0:0:0:
288,169,71834,6,0,P|244:142|166:148,1,119.999996337891,2|0,3:2|0:0,0:0:0:0:
213,235,72351,1,2,0:0:0:0:
389,205,72696,2,0,P|430:199|451:199,1,59.9999981689454,2|0,0:0|0:0,0:0:0:0:
317,122,73213,2,0,P|354:102|377:94,1,59.9999981689454,2|0,3:2|0:0,0:0:0:0:
217,86,73730,2,0,P|232:57|252:30,2,59.9999981689454,2|0|0,0:0|0:0|0:0,0:0:0:0:
123,150,74247,1,2,0:0:0:0:
191,259,74420,1,2,0:0:0:0:
191,259,74506,1,2,0:0:0:0:
191,259,74592,6,0,P|226:237|311:234,1,119.999996337891,10|0,0:3|0:0,0:0:0:0:
388,271,75110,1,2,0:0:0:0:
370,99,75454,2,0,P|334:79|302:71,1,59.9999981689454,2|0,0:0|0:0,0:0:0:0:
214,151,75972,2,0,P|158:141|129:142,1,59.9999981689454,2|0,0:0|0:0,0:0:0:0:
80,246,76489,2,0,P|37:245|14:247,2,59.9999981689454,2|0|0,0:0|0:0|0:0,0:0:0:0:
171,300,77006,1,2,0:0:0:0:
411,211,77351,6,0,P|418:154|366:88,1,119.999996337891,2|0,3:2|0:0,0:0:0:0:
295,61,77868,1,2,0:0:0:0:
284,244,78213,2,0,P|291:283|292:317,1,59.9999981689454,2|0,0:0|0:0,0:0:0:0:
175,178,78730,2,0,P|193:214|201:245,1,59.9999981689454,2|0,3:2|0:0,0:0:0:0:
56,131,79247,2,0,P|78:157|92:191,2,59.9999981689454,2|0|0,0:0|0:0|0:0,0:0:0:0:
75,254,79765,1,2,0:0:0:0:
175,178,79937,1,0,0:0:0:0:
233,329,80110,6,0,P|180:358|116:346,1,119.999996337891,10|0,0:3|0:0,0:0:0:0:
164,270,80627,1,2,0:0:0:0:
328,301,80972,2,0,P|340:343|343:368,1,59.9999981689454,2|0,0:0|0:0,0:0:0:0:
364,198,81489,2,0,P|392:235|403:256,1,59.9999981689454,2|0,0:0|0:0,0:0:0:0:
358,93,82006,2,0,P|385:108|412:132,2,59.9999981689454,2|0|0,0:0|0:0|0:0,0:0:0:0:
263,59,82523,1,2,0:0:0:0:
121,199,82868,6,0,L|127:325,1,119.999996337891,2|8,3:2|0:0,0:0:0:0:
360,293,83730,2,0,P|372:236|349:180,1,119.999996337891,2|8,0:0|0:0,0:0:0:0:
273,115,84247,5,2,3:2:0:0:
261,202,84420,1,2,3:2:0:0:
365,92,84592,1,8,0:0:0:0:
171,300,85110,2,0,P|121:292|99:291,1,59.9999981689454,2|8,0:0|0:0,0:0:0:0:
273,344,85454,1,2,3:2:0:0:
273,344,85541,1,2,3:2:0:0:
273,344,85627,6,0,P|312:333|350:333,1,59.9999981689454,2|8,3:2|0:0,0:0:0:0:
201,201,86144,2,0,P|219:169|238:146,1,59.9999981689454,2|8,3:2|0:0,0:0:0:0:
74,176,86575,1,2,2:2:0:0:
74,176,86661,2,0,P|71:117|76:96,1,59.9999981689454,2|2,3:2|0:0,0:0:0:0:
195,300,87006,6,0,P|150:290|118:291,1,59.9999981689454,2|2,3:2|0:0,0:0:0:0:
287,216,87351,1,8,0:0:0:0:
71,116,87868,2,0,P|29:104|4:102,1,59.9999981689454,2|8,3:2|0:0,0:0:0:0:
191,374,88385,6,0,P|269:299|345:323,1,179.999994506836,2|0,0:0|0:0,0:0:0:0:
355,337,88730,2,0,B|351:265|351:265|377:211|377:211|343:163|343:163|335:36,1,299.999990844727
312,74,89247,6,0,L|319:186,1,100
425,100,89592,1,0,0:0:0:0:
202,118,89765,6,0,P|150:111|101:31,1,150,2|0,0:0|0:0,0:0:0:0:
113,13,90110,6,0,P|109:66|78:117,1,100
37,205,90454,1,0,0:0:0:0:
250,206,90627,5,0,0:0:0:0:
212,204,90713,1,0,0:0:0:0:
171,202,90799,2,0,B|170:138,1,50,8|0,0:1|0:0,0:0:0:0:
258,316,90972,2,0,B|259:378,1,50
401,219,91144,6,0,B|398:177|398:177|386:165|386:165|403:147|403:147|394:-39,1,225.000008583069,2|0,0:0|0:0,0:0:0:0:
423,26,91489,6,0,P|386:48|342:46,1,75.0000028610231,12|0,0:0|0:0,0:0:0:0:
262,31,91661,1,0,0:0:0:0:
226,20,91747,1,0,0:0:0:0:
189,27,91834,1,0,0:0:0:0:
162,53,91920,1,0,0:0:0:0:
153,89,92006,2,0,L|162:171,1,75.0000028610231,8|0,0:0|0:0,0:0:0:0:
265,234,92178,2,0,L|255:157,1,75.0000028610231
346,67,92351,2,0,L|356:144,1,75.0000028610231
384,314,92523,5,2,0:0:0:0:
144,225,92696,1,2,0:0:0:0:
346,67,92868,2,0,P|416:34|489:60,1,150.000005722046,12|0,0:0|0:0,0:0:0:0:
421,133,93127,1,0,0:0:0:0:
421,133,93213,2,0,P|372:155|335:151,1,75.0000028610231
194,172,93385,2,0,P|230:180|261:203,1,75.0000028610231,8|0,0:1|0:0,0:0:0:0:
250,65,93558,1,0,0:0:0:0:
221,54,93644,1,0,0:0:0:0:
187,53,93730,2,0,P|211:41|266:50,1,75.0000028610231,2|0,0:0|0:0,0:0:0:0:
212,257,93903,6,0,P|105:192|126:116,1,179.999994506836,2|0,0:0|0:0,0:0:0:0:
194,172,94247,2,0,B|124:232|124:232|163:272|212:257|212:257|313:186,1,299.999990844727
331,174,94765,6,0,L|339:283,1,100
326,63,95110,1,0,0:0:0:0:
449,247,95282,5,2,0:0:0:0:
388,307,95454,1,0,0:0:0:0:
223,234,95627,1,0,0:0:0:0:
277,302,95799,1,0,0:0:0:0:
333,239,95972,1,0,0:0:0:0:
164,297,96144,1,0,0:0:0:0:
235,95,96316,6,0,L|275:90,2,25,8|0|0,0:1|0:0|0:0,0:0:0:0:
132,193,96489,2,0,L|88:199,2,25
284,173,96661,6,0,P|338:120|318:32,1,150.000005722046,2|0,0:0|0:0,0:0:0:0:
88,271,97006,6,0,L|94:374,1,75.0000028610231,12|0,0:0|0:0,0:0:0:0:
195,281,97178,1,0,0:0:0:0:
192,243,97265,1,0,0:0:0:0:
175,209,97351,1,0,0:0:0:0:
144,186,97437,1,0,0:0:0:0:
107,178,97523,2,0,P|139:184|193:175,1,75.0000028610231,8|0,0:0|0:0,0:0:0:0:
276,119,97696,1,0,0:0:0:0:
313,121,97782,1,0,0:0:0:0:
346,138,97868,1,0,0:0:0:0:
364,170,97954,1,0,0:0:0:0:
361,207,98041,6,0,B|347:134|347:134|462:25,1,225.000008583069,2|0,0:0|0:0,0:0:0:0:
464,45,98385,6,0,P|426:54|372:47,1,75.0000028610231,12|0,0:0|0:0,0:0:0:0:
250,18,98558,2,0,P|288:9|342:16,1,75.0000028610231
216,163,98730,2,0,P|175:153|118:157,1,75.0000028610231,2|0,0:0|0:0,0:0:0:0:
383,265,98903,2,0,L|468:252,1,75.0000028610231,8|0,0:0|0:0,0:0:0:0:
237,285,99075,2,0,B|199:289|199:289|168:271,1,75.0000028610231
361,143,99247,1,2,0:0:0:0:
80,81,99420,6,0,B|6:87|6:87|191:176,1,225.000008583069,2|0,0:0|0:0,0:0:0:0:
171,174,99765,6,0,P|180:125|162:77,1,75.0000028610231,12|0,0:0|0:0,0:0:0:0:
71,200,99937,1,0,0:0:0:0:
80,236,100023,1,0,0:0:0:0:
104,264,100110,1,0,0:0:0:0:
137,280,100196,1,0,0:0:0:0:
174,283,100282,2,0,B|210:265|210:265|252:282,1,75.0000028610231,8|0,0:0|0:0,0:0:0:0:
335,338,100454,1,0,0:0:0:0:
323,301,100541,1,0,0:0:0:0:
329,264,100627,1,0,0:0:0:0:
353,235,100713,1,0,0:0:0:0:
388,224,100799,6,0,L|383:277,3,50,2|0|0|0,0:0|0:0|0:0|0:0,0:0:0:0:
340,135,101144,6,0,L|349:44,1,75.0000028610231,12|0,0:0|0:0,0:0:0:0:
233,123,101316,1,0,0:0:0:0:
232,160,101403,1,0,0:0:0:0:
244,195,101489,1,0,0:0:0:0:
270,221,101575,1,0,0:0:0:0:
305,233,101661,2,0,P|248:224|195:238,1,75.0000028610231,8|0,0:1|0:0,0:0:0:0:
123,314,101834,1,0,0:0:0:0:
155,331,101920,1,0,0:0:0:0:
188,347,102006,2,0,P|228:339|269:345,1,75.0000028610231,2|0,0:0|0:0,0:0:0:0:
384,231,102178,6,0,B|383:197|357:171|357:171|440:223|429:322,1,225.000008583069,2|0,0:0|0:0,0:0:0:0:
427,333,102523,6,0,P|453:323|507:324,1,75.0000028610231,12|0,0:0|0:0,0:0:0:0:
305,233,102696,1,0,0:0:0:0:
269,243,102782,1,0,0:0:0:0:
242,269,102868,1,0,0:0:0:0:
232,305,102954,1,0,0:0:0:0:
242,341,103041,2,0,P|265:308|269:269,1,75.0000028610231,8|0,0:0|0:0,0:0:0:0:
201,184,103213,2,0,P|191:144|197:105,1,75.0000028610231
141,277,103385,2,0,P|104:222|102:185,1,75.0000028610231
285,139,103558,5,2,0:0:0:0:
320,149,103644,1,0,0:0:0:0:
355,161,103730,2,0,L|418:156,2,50.0000019073487
366,140,103903,2,0,L|359:47,1,75.0000028610231,12|0,0:0|0:0,0:0:0:0:
355,248,104075,1,0,0:0:0:0:
384,270,104161,1,0,0:0:0:0:
420,276,104247,2,0,P|368:305|339:302,1,75.0000028610231
263,270,104420,5,8,0:1:0:0:
462,366,104592,1,0,0:0:0:0:
430,151,104765,1,2,0:0:0:0:
189,319,104937,6,0,B|120:343|52:304|52:304|79:307|111:291,1,179.999994506836,2|0,0:0|0:0,0:0:0:0:
63,230,105282,2,0,B|47:182|17:153|17:153|111:229|235:173,1,299.999990844727
221,155,105799,6,0,P|151:179|89:168,1,119.999996337891
314,226,106144,1,0,0:0:0:0:
296,58,106316,5,2,0:0:0:0:
350,135,106489,1,0,0:0:0:0:
200,68,106661,1,0,0:0:0:0:
296,58,106834,1,0,0:0:0:0:
253,148,107006,1,0,0:0:0:0:
447,122,107178,1,0,0:0:0:0:
314,226,107351,1,8,0:1:0:0:
389,45,107523,1,0,0:0:0:0:
196,214,107696,6,0,B|127:247|53:198|53:198|94:171,1,194.999991073609,2|0,0:0|0:0,0:0:0:0:
108,157,108041,1,0,0:0:0:0:
78,330,108213,2,0,B|156:365|208:305|208:305|318:336,1,194.999991073609
287,327,108558,1,0,0:0:0:0:
196,214,108730,2,0,B|106:203|106:203|60:251,1,139.999995727539
396,239,109075,5,2,0:0:0:0:
256,192,109161,12,0,110368,0:0:0:0:
286,125,110454,6,0,B|256:122|222:130|222:130|294:70|409:124,1,225.000008583069,2|0,0:0|0:0,0:0:0:0:
442,144,110799,6,0,P|455:101|448:62,1,75.0000028610231,12|0,0:0|0:0,0:0:0:0:
358,217,110972,1,0,0:0:0:0:
353,254,111058,1,0,0:0:0:0:
365,289,111144,1,0,0:0:0:0:
393,313,111230,1,0,0:0:0:0:
429,320,111316,2,0,P|463:306|517:304,1,75.0000028610231,8|0,0:0|0:0,0:0:0:0:
281,266,111489,1,0,0:0:0:0:
246,252,111575,1,0,0:0:0:0:
208,251,111661,1,0,0:0:0:0:
173,265,111747,1,0,0:0:0:0:
154,298,111834,6,0,B|157:220|157:220|166:198|166:198|156:176|156:176|158:141|158:141|165:127|165:127|158:118|158:118|160:73,1,225.000008583069,2|0,0:0|0:0,0:0:0:0:
163,53,112178,6,0,P|137:76|116:128,1,75.0000028610231,12|0,0:0|0:0,0:0:0:0:
263,148,112351,1,0,0:0:0:0:
291,123,112437,1,0,0:0:0:0:
304,88,112523,1,0,0:0:0:0:
300,50,112610,1,0,0:0:0:0:
274,22,112696,1,8,0:1:0:0:
152,182,112868,1,0,0:0:0:0:
178,207,112954,1,0,0:0:0:0:
206,231,113041,2,0,L|292:233,1,75.0000028610231,2|0,0:0|0:0,0:0:0:0:
451,128,113213,6,0,B|394:127|394:127|378:142|378:142|308:140|308:140|293:124|293:124|232:122,1,225.000008583069,2|0,0:0|0:0,0:0:0:0:
200,118,113558,6,0,P|193:80|202:31,1,75.0000028610231,12|0,0:0|0:0,0:0:0:0:
280,232,113730,1,0,0:0:0:0:
248,252,113816,1,0,0:0:0:0:
210,257,113903,1,0,0:0:0:0:
173,250,113989,1,0,0:0:0:0:
146,224,114075,2,0,P|185:204|224:205,1,75.0000028610231,8|0,0:0|0:0,0:0:0:0:
348,166,114247,2,0,P|312:143|258:140,1,75.0000028610231
437,225,114420,2,0,P|447:180|437:137,1,75.0000028610231
280,232,114592,6,0,B|269:293|269:293|283:307|283:307|270:383,1,150.000005722046,8|0,0:0|0:0,0:0:0:0:
195,338,114851,1,0,0:0:0:0:
195,338,114937,2,0,P|157:331|93:345,1,75.0000028610231
358,265,115110,2,0,P|395:270|442:253,1,75.0000028610231,8|0,0:0|0:0,0:0:0:0:
297,144,115282,1,0,0:0:0:0:
259,139,115368,1,0,0:0:0:0:
222,148,115454,1,0,0:0:0:0:
193,172,115541,1,0,0:0:0:0:
182,207,115627,2,0,P|237:163|230:66,1,150.000005722046,8|0,0:1|0:0,0:0:0:0:
227,15,115885,1,0,0:0:0:0:
227,15,115972,6,0,B|195:16|175:45|175:45|79:21|39:127,1,225.000008583069,2|0,0:0|0:0,0:0:0:0:
37,148,116316,6,0,P|75:139|112:141,1,75.0000028610231,12|0,0:0|0:0,0:0:0:0:
220,198,116489,1,0,0:0:0:0:
257,201,116575,1,0,0:0:0:0:
290,185,116661,1,0,0:0:0:0:
312,155,116747,1,0,0:0:0:0:
318,117,116834,2,0,P|292:106|245:102,1,75.0000028610231,8|0,0:0|0:0,0:0:0:0:
379,216,117006,2,0,P|415:228|459:226,1,75.0000028610231
436,320,117178,2,0,P|473:317|516:294,1,75.0000028610231
425,135,117351,5,2,0:0:0:0:
425,135,117696,6,0,P|387:142|322:131,1,75.0000028610231,12|0,0:0|0:0,0:0:0:0:
230,97,117868,1,0,0:0:0:0:
194,83,117954,1,0,0:0:0:0:
156,84,118041,1,0,0:0:0:0:
124,103,118127,1,0,0:0:0:0:
105,135,118213,2,0,P|97:91|112:36,1,75.0000028610231,8|0,0:1|0:0,0:0:0:0:
177,205,118385,2,0,P|215:199|258:207,1,75.0000028610231
42,273,118558,2,0,P|25:222|28:186,1,75.0000028610231,2|0,0:0|0:0,0:0:0:0:
222,300,118730,6,0,B|268:284|268:284|296:309|296:309|363:276|441:305,1,225.000008583069,2|0,0:0|0:0,0:0:0:0:
461,316,119075,6,0,P|460:270|436:224,1,75.0000028610231,12|0,0:0|0:0,0:0:0:0:
352,156,119247,1,0,0:0:0:0:
314,149,119334,1,0,0:0:0:0:
278,159,119420,1,0,0:0:0:0:
250,183,119506,1,0,0:0:0:0:
241,219,119592,2,0,P|279:211|322:218,1,75.0000028610231,8|0,0:0|0:0,0:0:0:0:
225,319,119765,1,0,0:0:0:0:
189,308,119851,1,0,0:0:0:0:
161,283,119937,1,0,0:0:0:0:
144,249,120023,1,0,0:0:0:0:
142,211,120110,6,0,B|139:179|148:153|148:153|84:233|122:319,1,225.000008583069,2|0,0:0|0:0,0:0:0:0:
127,346,120454,6,0,P|103:329|42:312,1,75.0000028610231,8|0,0:0|0:0,0:0:0:0:
225,319,120627,2,0,P|248:287|279:269,1,75.0000028610231
433,276,120799,2,0,P|393:272|362:254,1,75.0000028610231,2|0,0:0|0:0,0:0:0:0:
292,116,120972,2,0,P|308:151|308:187,1,75.0000028610231,8|0,0:0|0:0,0:0:0:0:
363,52,121144,2,0,P|385:83|395:130,1,75.0000028610231
211,171,121316,2,0,P|196:127|206:76,1,75.0000028610231,2|0,0:0|0:0,0:0:0:0:
83,44,121489,6,0,B|85:80|85:80|90:91|90:91|86:101|86:101|89:153|89:153|101:161|101:161|93:184|93:184|97:270,1,225.000008583069,2|0,0:0|0:0,0:0:0:0:
98,290,121834,6,0,P|142:272|181:273,1,75.0000028610231,12|0,0:0|0:0,0:0:0:0:
278,295,122006,1,0,0:0:0:0:
312,309,122092,1,0,0:0:0:0:
349,309,122178,1,0,0:0:0:0:
382,290,122265,1,0,0:0:0:0:
401,258,122351,2,0,P|362:241|315:241,1,75.0000028610231,8|0,0:0|0:0,0:0:0:0:
246,144,122523,1,0,0:0:0:0:
280,159,122610,1,0,0:0:0:0:
317,157,122696,1,0,0:0:0:0:
350,139,122782,1,0,0:0:0:0:
367,105,122868,6,0,L|365:56,3,50,2|0|0|0,0:0|0:0|0:0|0:0,0:0:0:0:
183,86,123213,6,0,P|163:135|168:171,1,75.0000028610231,12|0,0:0|0:0,0:0:0:0:
232,227,123385,1,0,0:0:0:0:
250,260,123472,1,0,0:0:0:0:
249,297,123558,1,0,0:0:0:0:
231,330,123644,1,0,0:0:0:0:
198,349,123730,2,0,P|154:333|111:335,1,75.0000028610231,8|0,0:1|0:0,0:0:0:0:
324,289,123903,2,0,P|360:274|409:273,1,75.0000028610231
174,168,124075,2,0,P|128:155|81:155,1,75.0000028610231,2|0,0:0|0:0,0:0:0:0:
332,90,124247,6,0,B|370:77|392:52|392:52|338:103|363:198,1,225.000008583069,2|0,0:0|0:0,0:0:0:0:
372,220,124592,6,0,P|399:180|407:142,1,75.0000028610231,12|0,0:0|0:0,0:0:0:0:
271,189,124765,1,0,0:0:0:0:
263,225,124851,1,0,0:0:0:0:
269,261,124937,1,0,0:0:0:0:
291,291,125023,1,0,0:0:0:0:
323,310,125110,2,0,P|364:319|413:307,1,75.0000028610231,8|0,0:0|0:0,0:0:0:0:
217,349,125282,1,0,0:0:0:0:
187,325,125368,1,0,0:0:0:0:
172,290,125454,1,0,0:0:0:0:
169,252,125541,1,0,0:0:0:0:
185,218,125627,6,0,P|152:204|109:197,1,75.0000028610231,2|0,0:0|0:0,0:0:0:0:
271,189,125799,2,0,L|328:183,2,50.0000019073487
279,170,125972,2,0,P|285:122|273:79,1,75.0000028610231,8|0,0:0|0:0,0:0:0:0:
362,265,126144,1,0,0:0:0:0:
399,261,126230,1,0,0:0:0:0:
436,257,126316,2,0,P|409:292|371:306,1,75.0000028610231
197,289,126489,2,0,P|234:295|267:313,1,75.0000028610231,8|0,0:1|0:0,0:0:0:0:
328,377,126661,5,0,0:0:0:0:
271,189,126834,1,2,0:0:0:0:
102,346,127006,6,0,P|57:320|6:311,1,89.9999972534181,2|0,0:0|0:0,0:0:0:0:
110,236,127351,2,0,P|70:200|20:178,2,89.9999972534181
187,302,127868,1,0,0:0:0:0:
191,177,128041,2,0,P|177:125|139:78,1,89.9999972534181
293,244,128385,6,0,P|343:257|399:244,1,89.9999972534181,2|0,0:0|0:0,0:0:0:0:
396,88,128730,2,0,P|355:129|346:185,1,89.9999972534181
442,174,129075,1,0,0:0:0:0:
290,73,129247,1,0,0:0:0:0:
274,257,129420,1,8,0:1:0:0:
396,88,129592,1,0,0:0:0:0:
183,234,129765,6,0,B|125:251|91:258|41:247|7:241|-4:201|0:146|33:125|88:121|111:136|136:180|131:259|71:321|71:321|133:317|172:353|172:353|210:324|270:335,1,674.999979400635,2|0,0:0|0:0,0:0:0:0:
342,352,131144,5,2,0:0:0:0:
256,192,131230,12,6,132523,0:0:0:0:
