osu file format v14

[General]
AudioFilename: audio.mp3
AudioLeadIn: 0
PreviewTime: -1
Countdown: 0
SampleSet: Normal
StackLeniency: 0.2
Mode: 0
LetterboxInBreaks: 0
WidescreenStoryboard: 0

[Editor]
DistanceSpacing: 0.8
BeatDivisor: 4
GridSize: 4
TimelineZoom: 1.7

[Metadata]
Title:Keseran Pasaran
TitleUnicode:ケセランパサラン
Artist:Mewhan
ArtistUnicode:みゆはん
Creator:- Vanilla -
Version:Fluffy
Source:Jiko Schema
Tags:cute kawaii jpop monster
BeatmapID:1374676
BeatmapSetID:648889

[Difficulty]
HPDrainRate:5.5
CircleSize:4
OverallDifficulty:8.6
ApproachRate:9.2
SliderMultiplier:1.8
SliderTickRate:1

[Events]
//Background and Video events
0,0,"EAWSz1b.jpg",0,0
//Break Periods
2,182463,192071
//Storyboard Layer 0 (Background)
//Storyboard Layer 1 (Fail)
//Storyboard Layer 2 (Pass)
//Storyboard Layer 3 (Foreground)
//Storyboard Sound Samples

[TimingPoints]
16209,324.324324324324,4,1,0,100,1,0
26181,-100,4,1,0,5,0,0
26263,-133.333333333333,4,1,0,100,0,0
26587,-100,4,1,0,100,0,0
32749,-133.333333333333,4,1,0,100,0,0
32992,-133.333333333333,4,1,0,5,0,0
33073,-133.333333333333,4,1,0,100,0,0
33317,-133.333333333333,4,1,0,5,0,0
33398,-133.333333333333,4,1,0,100,0,0
33641,-133.333333333333,4,1,0,5,0,0
33722,-133.333333333333,4,1,0,100,0,0
33965,-133.333333333333,4,1,0,5,0,0
34046,-133.333333333333,4,1,0,100,0,0
34290,-133.333333333333,4,1,0,5,0,0
34371,-133.333333333333,4,1,0,100,0,0
38263,-100,4,1,0,100,0,0
48965,-133.333333333333,4,1,0,100,0,0
56425,-100,4,1,0,100,0,0
59506,-200,4,1,0,20,0,0
60317,-100,4,1,0,100,0,1
79776,-133.333333333333,4,1,0,100,0,0
81073,-100,4,1,0,100,0,0
84317,-133.333333333333,4,1,0,100,0,0
84560,-133.333333333333,4,1,0,5,0,0
84641,-100,4,1,0,100,0,0
91452,-133.333333333333,4,1,0,100,0,0
91857,-133.333333333333,4,1,0,5,0,0
91938,-133.333333333333,4,1,0,100,0,0
92992,-133.333333333333,4,1,0,5,0,0
93073,-133.333333333333,4,1,0,100,0,0
93317,-133.333333333333,4,1,0,5,0,0
93398,-133.333333333333,4,1,0,100,0,0
96641,-100,4,1,0,100,0,0
107019,-133.333333333333,4,1,0,100,0,0
117398,-100,4,1,0,100,0,1
137100,-100,4,1,0,5,0,1
137181,-100,4,1,0,100,0,1
137425,-100,4,1,0,5,0,1
137506,-100,4,1,0,100,0,1
137749,-100,4,1,0,5,0,1
137830,-100,4,1,0,100,0,1
138154,-133.333333333333,4,1,0,100,0,0
146587,-100,4,1,0,100,0,0
147236,-80,4,1,0,100,0,0
147884,-100,4,1,0,100,0,0
153722,-133.333333333333,4,1,0,100,0,0
158911,-100,4,1,0,100,0,0
161100,-100,4,1,0,5,0,0
161181,-100,4,1,0,100,0,0
161425,-100,4,1,0,5,0,0
161506,-100,4,1,0,100,0,0
161749,-100,4,1,0,5,0,0
161830,-111.111111111111,4,1,0,100,0,0
162073,-111.111111111111,4,1,0,5,0,0
162154,-125,4,1,0,100,0,0
162398,-125,4,1,0,5,0,0
162479,-142.857142857143,4,1,0,100,0,0
162722,-142.857142857143,4,1,0,5,0,0
162803,-100,4,1,0,100,0,0
163046,-100,4,1,0,5,0,0
163127,-100,4,1,0,100,0,0
163371,-100,4,1,0,5,0,0
163452,-100,4,1,0,100,0,0
163695,-100,4,1,0,5,0,0
163776,-100,4,1,0,100,0,0
182100,-100,4,1,0,5,0,0
182263,-100,4,1,0,100,0,0
192641,-100,4,1,0,100,0,0
193290,-100,4,1,0,100,0,1
216641,-133.333333333333,4,1,0,100,0,1
219236,-100,4,1,0,100,0,0
235371,-100,4,1,0,5,0,0

[Colours]
Combo1 : 168,34,168
Combo2 : 232,79,83
Combo3 : 0,95,210
Combo4 : 234,216,113

[HitObjects]
41,316,16208,5,0,0:0:0:0:
41,316,16533,1,0,0:0:0:0:
41,316,16857,1,0,0:0:0:0:
41,316,17181,1,0,0:0:0:0:
148,258,17506,6,0,P|186:199|178:144,1,90
159,44,17992,1,0,0:0:0:0:
277,143,18154,1,0,0:0:0:0:
284,21,18317,1,0,0:0:0:0:
152,169,18479,1,0,0:0:0:0:
359,74,18641,1,0,0:0:0:0:
89,107,18803,6,0,P|53:133|33:178,2,90
215,94,19290,1,0,0:0:0:0:
215,332,19614,1,0,0:0:0:0:
82,235,19776,1,0,0:0:0:0:
263,178,19938,1,0,0:0:0:0:
298,168,20019,1,0,0:0:0:0:
334,158,20100,6,0,P|377:165|410:213,1,90
406,199,20587,1,0,0:0:0:0:
279,312,20749,1,0,0:0:0:0:
425,238,20911,1,0,0:0:0:0:
259,272,21073,1,0,0:0:0:0:
312,110,21236,1,0,0:0:0:0:
363,327,21398,5,0,0:0:0:0:
229,174,21560,1,0,0:0:0:0:
428,134,21722,1,0,0:0:0:0:
428,134,21884,1,0,0:0:0:0:
267,333,22208,1,0,0:0:0:0:
216,237,22371,1,0,0:0:0:0:
124,294,22533,1,0,0:0:0:0:
118,186,22695,6,0,P|120:123|145:79,1,90
256,0,23019,2,0,L|256:120,1,90
381,99,23344,2,0,P|396:141|394:186,1,90
256,352,23668,1,0,0:0:0:0:
256,252,23830,1,0,0:0:0:0:
256,216,23911,1,0,0:0:0:0:
256,180,23992,6,0,L|256:60,1,90
96,0,24317,2,0,L|199:60,1,90
416,0,24641,2,0,L|313:60,1,90
115,193,24965,1,0,0:0:0:0:
390,285,25290,5,0,0:0:0:0:
258,137,25452,1,0,0:0:0:0:
318,309,25614,1,0,0:0:0:0:
329,112,25776,1,0,0:0:0:0:
250,276,25938,2,0,P|231:299|142:299,1,90
38,223,26263,2,0,P|74:195|113:187,1,67.5000025749208,0|0,3:0|3:0,3:0:0:0:
176,229,26506,1,0,0:0:0:0:
176,229,26587,6,0,P|214:195|262:187,1,90,0|0,3:0|3:0,3:0:0:0:
428,199,26911,1,0,0:0:0:0:
250,276,27073,1,0,0:0:0:0:
366,99,27236,1,0,0:0:0:0:
334,326,27398,1,0,0:0:0:0:
176,229,27560,1,0,0:0:0:0:
127,78,27722,1,0,0:0:0:0:
139,44,27803,1,0,0:0:0:0:
168,24,27884,6,0,P|240:37|271:83,1,90
419,127,28208,2,0,P|345:121|303:157,1,90
151,265,28533,6,0,P|182:198|235:180,1,90
300,137,28857,1,0,0:0:0:0:
419,127,29019,1,0,0:0:0:0:
450,143,29100,1,0,0:0:0:0:
475,169,29181,6,0,P|500:206|512:249,1,90
428,335,29506,2,0,P|465:361|509:373,2,90
280,30,30154,2,0,P|324:32|364:52,1,90
443,144,30479,5,0,0:0:0:0:
386,297,30641,1,0,0:0:0:0:
281,171,30803,1,0,0:0:0:0:
219,304,30965,1,0,0:0:0:0:
181,277,31046,1,0,0:0:0:0:
156,241,31127,2,0,P|138:177|146:125,1,90
47,7,31452,2,0,P|111:24|152:57,1,90
310,169,31776,6,0,L|213:186,1,90
143,201,32019,1,0,0:0:0:0:
143,201,32100,1,0,0:0:0:0:
200,118,32263,1,0,0:0:0:0:
65,141,32425,1,0,0:0:0:0:
90,275,32587,1,0,0:0:0:0:
198,327,32749,2,0,L|227:208,1,101.250003862381
150,136,33073,6,0,P|206:100|265:93,1,101.250003862381
362,248,33398,2,0,P|306:284|247:291,1,101.250003862381
312,86,33722,2,0,P|348:142|355:201,1,101.250003862381
200,298,34046,2,0,P|164:242|157:183,1,101.250003862381
82,100,34371,5,0,0:0:0:0:
347,18,34695,1,0,0:0:0:0:
429,283,35019,2,0,L|351:321,1,67.5000025749208
164,365,35344,2,0,L|127:287,1,67.5000025749208
64,128,35668,5,0,0:0:0:0:
416,192,35992,1,0,0:0:0:0:
187,346,36317,1,0,0:0:0:0:
150,235,36479,1,0,0:0:0:0:
221,141,36641,2,0,P|279:127|309:134,1,67.5000025749208
431,280,36965,6,0,P|373:294|343:287,1,67.5000025749208
190,110,37290,2,0,P|248:96|278:103,1,67.5000025749208
400,249,37614,2,0,P|342:263|312:256,1,67.5000025749208
175,211,37938,1,0,0:0:0:0:
337,173,38100,1,0,0:0:0:0:
288,332,38263,5,0,0:0:0:0:
175,211,38425,1,0,0:0:0:0:
239,68,38587,1,0,0:0:0:0:
266,243,38749,1,0,0:0:0:0:
107,287,38911,2,0,P|78:251|75:183,1,90
88,91,39236,1,0,0:0:0:0:
197,41,39398,1,0,0:0:0:0:
232,36,39479,1,0,0:0:0:0:
267,39,39560,6,0,P|310:47|348:78,1,90
434,29,39803,1,0,0:0:0:0:
434,29,39884,2,0,P|449:90|444:134,1,90
372,303,40208,1,0,0:0:0:0:
74,309,40533,5,0,0:0:0:0:
280,189,40695,1,0,0:0:0:0:
84,172,40857,5,0,0:0:0:0:
217,341,41019,1,0,0:0:0:0:
380,304,41181,2,0,P|397:261|397:216,1,90
512,139,41506,2,0,P|489:100|452:74,1,90
287,32,41830,2,0,L|266:125,1,90
212,340,42154,5,0,0:0:0:0:
361,236,42317,1,0,0:0:0:0:
153,178,42479,1,0,0:0:0:0:
311,338,42641,1,0,0:0:0:0:
283,136,42803,1,0,0:0:0:0:
136,292,42965,1,0,0:0:0:0:
41,107,43127,1,0,0:0:0:0:
202,30,43290,1,0,0:0:0:0:
237,36,43371,1,0,0:0:0:0:
265,57,43452,6,0,P|315:119|323:222,1,180
112,298,44100,2,0,P|140:223|225:165,1,180
439,116,44749,5,0,0:0:0:0:
251,294,45073,1,0,0:0:0:0:
243,73,45398,1,0,0:0:0:0:
410,281,45722,1,0,0:0:0:0:
512,167,46046,6,0,P|439:121|323:139,1,180
0,167,46695,2,0,P|73:121|189:139,1,180
208,336,47344,6,0,P|256:272|304:336,1,180
451,334,47830,1,0,0:0:0:0:
424,310,47911,1,0,0:0:0:0:
397,286,47992,2,0,P|371:225|380:196,1,90
434,58,48317,1,0,0:0:0:0:
297,113,48479,1,0,0:0:0:0:
263,126,48560,1,0,0:0:0:0:
234,148,48641,5,0,0:0:0:0:
57,340,48965,6,0,P|32:300|32:261,1,67.5000025749208
111,132,49614,1,0,0:0:0:0:
198,336,49938,6,0,P|242:324|277:297,1,67.5000025749208
210,219,50263,2,0,P|239:202|272:195,1,67.5000025749208
362,266,50587,2,0,P|384:226|390:182,1,67.5000025749208
333,87,50911,1,0,0:0:0:0:
26,34,51236,6,0,P|67:26|165:58,1,135.000005149842
265,156,51722,1,0,0:0:0:0:
456,337,52208,1,0,0:0:0:0:
461,164,52533,6,0,P|382:156|332:116,1,135.000005149842
441,31,53019,1,0,0:0:0:0:
199,138,53506,1,0,0:0:0:0:
103,275,53830,5,0,0:0:0:0:
145,170,54154,1,0,0:0:0:0:
222,293,54479,1,0,0:0:0:0:
236,169,54803,1,0,0:0:0:0:
358,297,54965,1,0,0:0:0:0:
337,159,55127,5,0,0:0:0:0:
334,125,55290,1,0,0:0:0:0:
333,91,55452,2,0,L|326:1,1,67.5000025749208
435,37,55776,2,0,P|457:73|464:122,1,67.5000025749208
339,191,56100,2,0,P|317:155|310:106,1,67.5000025749208
116,41,56425,6,0,P|100:97|113:164,1,90
86,339,56749,2,0,P|114:288|170:249,1,90
396,41,57073,2,0,P|412:97|399:164,1,90
426,339,57398,2,0,P|397:288|341:249,1,90
256,48,57722,6,0,L|256:144,1,90
118,351,58046,1,0,0:0:0:0:
122,309,58208,1,0,0:0:0:0:
394,351,58371,1,0,0:0:0:0:
390,309,58533,1,0,0:0:0:0:
256,138,58695,1,0,0:0:0:0:
256,174,58857,1,0,0:0:0:0:
256,280,59019,5,0,0:0:0:0:
416,208,59506,2,0,P|436:222|448:240,4,45
136,325,60317,6,0,P|104:295|91:244,1,90
115,81,60641,1,0,0:0:0:0:
260,33,60803,1,0,0:0:0:0:
404,81,60965,2,0,P|453:111|476:174,1,90
255,193,61290,2,0,P|256:135|299:84,1,90
426,265,61614,6,0,P|376:293|310:281,1,90
178,241,61938,1,0,0:0:0:0:
117,68,62100,1,0,0:0:0:0:
296,93,62263,2,0,P|340:148|354:181,1,90
397,336,62587,1,0,0:0:0:0:
397,336,62749,1,0,0:0:0:0:
137,233,62911,5,0,0:0:0:0:
137,233,63073,1,0,0:0:0:0:
313,363,63236,2,0,P|383:345|418:316,1,90
512,129,63560,2,0,P|494:198|465:233,1,90
332,284,63884,1,0,0:0:0:0:
426,148,64046,1,0,0:0:0:0:
241,287,64208,5,0,0:0:0:0:
361,86,64371,1,0,0:0:0:0:
155,291,64533,1,0,0:0:0:0:
301,25,64695,1,0,0:0:0:0:
52,58,64857,2,0,P|57:109|78:152,1,90
136,332,65181,2,0,P|181:309|215:274,1,90
168,112,65506,6,0,P|256:97|335:192,1,180
437,302,66154,2,0,P|381:330|336:330,1,90
149,296,66479,1,0,0:0:0:0:
355,197,66641,1,0,0:0:0:0:
473,34,66803,6,0,P|400:47|312:122,1,180
232,287,67290,1,0,0:0:0:0:
277,0,67452,2,0,P|234:60|225:176,1,180
285,349,67938,1,0,0:0:0:0:
408,233,68100,5,0,0:0:0:0:
148,263,68263,1,0,0:0:0:0:
366,320,68425,1,0,0:0:0:0:
294,144,68587,1,0,0:0:0:0:
211,314,68749,2,0,P|156:343|116:337,1,90
0,184,69073,1,0,0:0:0:0:
93,21,69236,1,0,0:0:0:0:
52,279,69398,5,0,0:0:0:0:
150,84,69560,1,0,0:0:0:0:
293,270,69722,1,0,0:0:0:0:
31,175,69884,1,0,0:0:0:0:
73,162,69965,1,0,0:0:0:0:
115,149,70046,1,0,0:0:0:0:
296,133,70208,1,0,0:0:0:0:
331,138,70290,1,0,0:0:0:0:
363,153,70371,1,0,0:0:0:0:
390,176,70452,1,0,0:0:0:0:
411,205,70533,1,0,0:0:0:0:
423,238,70614,1,0,0:0:0:0:
425,273,70695,6,0,P|412:336|367:376,1,90
128,340,71019,2,0,P|105:302|101:258,1,90
118,168,71263,1,0,0:0:0:0:
118,168,71344,1,0,0:0:0:0:
336,288,71506,1,0,0:0:0:0:
461,153,71668,2,0,P|391:151|341:168,1,90
51,153,71992,6,0,P|121:151|171:168,1,90
249,356,72317,2,0,P|247:286|264:236,1,90
285,195,72560,1,0,0:0:0:0:
285,195,72641,1,0,0:0:0:0:
435,292,72803,1,0,0:0:0:0:
458,102,72965,2,0,P|496:138|511:190,1,90
427,305,73208,1,0,0:0:0:0:
427,305,73290,6,0,P|389:269|374:217,1,90
316,53,73614,1,0,0:0:0:0:
152,25,73776,1,0,0:0:0:0:
116,27,73857,1,0,0:0:0:0:
86,48,73938,2,0,P|71:89|85:132,1,90
134,284,74263,2,0,P|175:272|209:243,1,90
314,67,74587,5,0,0:0:0:0:
314,67,74749,1,0,0:0:0:0:
86,48,74911,1,0,0:0:0:0:
134,284,75073,1,0,0:0:0:0:
134,284,75154,1,0,0:0:0:0:
134,284,75236,1,0,0:0:0:0:
337,339,75398,1,0,0:0:0:0:
76,268,75560,1,0,0:0:0:0:
337,104,75722,1,0,0:0:0:0:
362,137,75803,1,0,0:0:0:0:
379,168,75884,6,0,P|365:218|327:255,1,90
194,339,76208,1,0,0:0:0:0:
34,250,76371,1,0,0:0:0:0:
55,220,76452,1,0,0:0:0:0:
84,197,76533,2,0,P|149:162|184:165,1,90
367,218,76857,1,0,0:0:0:0:
152,242,77019,1,0,0:0:0:0:
383,138,77181,6,0,P|312:159|289:186,1,90
59,339,77506,2,0,P|79:298|109:265,1,90
304,123,77749,1,0,0:0:0:0:
304,123,77830,2,0,P|247:143|209:175,1,90
108,265,78154,1,0,0:0:0:0:
108,265,78317,1,0,0:0:0:0:
361,285,78479,6,0,P|329:234|280:202,1,90
123,108,78803,1,0,0:0:0:0:
123,108,78965,1,0,0:0:0:0:
295,303,79127,2,0,P|309:244|297:187,1,90
221,39,79452,1,0,0:0:0:0:
221,39,79614,1,0,0:0:0:0:
182,304,79776,2,0,B|218:252|218:252|189:208|189:164|233:120|277:120|321:164|321:208|292:252|292:252|341:320,1,405.000015449525
455,150,81073,6,0,P|420:108|367:91,1,90
248,227,81398,2,0,P|302:231|351:206,1,90
306,39,81722,2,0,P|264:74|247:127,1,90
206,270,82046,1,0,0:0:0:0:
357,335,82208,1,0,0:0:0:0:
380,308,82290,1,0,0:0:0:0:
397,276,82371,6,0,P|414:201|404:155,1,90
389,38,82695,1,0,0:0:0:0:
330,216,82857,1,0,0:0:0:0:
257,49,83019,2,0,P|204:70|170:119,1,90
105,263,83344,1,0,0:0:0:0:
182,93,83506,1,0,0:0:0:0:
239,296,83668,5,0,0:0:0:0:
253,133,83830,1,0,0:0:0:0:
386,303,83992,1,0,0:0:0:0:
330,131,84154,1,0,0:0:0:0:
197,44,84317,2,0,P|134:49|87:76,1,101.250003862381
11,80,84641,2,0,P|63:146|104:152,1,90
219,155,84884,1,0,0:0:0:0:
219,155,84965,6,0,P|261:142|294:112,1,90
382,0,85290,1,0,0:0:0:0:
382,0,85452,1,0,0:0:0:0:
449,138,85614,2,0,P|470:178|475:223,1,90
429,355,85938,1,0,0:0:0:0:
390,200,86100,1,0,0:0:0:0:
369,170,86181,1,0,0:0:0:0:
340,147,86263,6,0,P|287:129|236:137,1,90
90,173,86587,1,0,0:0:0:0:
288,210,86749,1,0,0:0:0:0:
121,88,86911,2,0,L|185:163,1,90
314,287,87236,2,0,P|358:256|368:202,1,90
431,85,87479,1,0,0:0:0:0:
431,85,87560,6,0,P|489:122|500:166,1,90
495,280,87803,1,0,0:0:0:0:
495,280,87884,2,0,P|461:333|404:353,1,90
259,343,88208,1,0,0:0:0:0:
488,23,88533,2,0,P|438:15|362:35,1,90
208,112,88857,5,0,0:0:0:0:
352,240,89019,1,0,0:0:0:0:
160,240,89181,1,0,0:0:0:0:
304,112,89344,1,0,0:0:0:0:
256,304,89506,1,0,0:0:0:0:
128,160,89668,1,0,0:0:0:0:
128,160,89830,2,0,P|91:190|74:227,1,90
72,351,90154,5,0,0:0:0:0:
160,240,90317,1,0,0:0:0:0:
256,304,90479,1,0,0:0:0:0:
304,112,90641,1,0,0:0:0:0:
352,240,90803,1,0,0:0:0:0:
352,240,90965,1,0,0:0:0:0:
375,62,91127,2,0,P|342:33|298:28,1,90
55,266,91452,6,0,P|88:297|216:287,1,168.750006437302
352,240,91938,1,0,0:0:0:0:
352,240,92100,2,0,P|322:181|256:165,1,135.000005149842
114,189,92587,1,0,0:0:0:0:
43,97,92749,6,0,P|88:73|151:77,1,101.250003862381
272,49,93073,2,0,P|270:99|239:150,1,101.250003862381
183,257,93398,2,0,P|139:230|117:193,2,67.5000025749208
401,269,93884,1,0,0:0:0:0:
280,186,94046,6,0,P|327:145|404:136,1,135.000005149842
491,286,94533,1,0,0:0:0:0:
491,286,94695,2,0,P|428:281|367:233,1,135.000005149842
319,96,95181,1,0,0:0:0:0:
287,106,95344,5,0,0:0:0:0:
178,232,95506,1,0,0:0:0:0:
146,242,95668,1,0,0:0:0:0:
338,305,95830,1,0,0:0:0:0:
353,310,95911,1,0,0:0:0:0:
370,315,95992,2,0,P|410:300|436:262,1,67.5000025749208
346,220,96317,2,0,P|336:187|313:163,1,67.5000025749208
229,83,96641,5,0,0:0:0:0:
229,83,96803,1,0,0:0:0:0:
229,83,96965,1,0,0:0:0:0:
229,83,97127,1,0,0:0:0:0:
176,156,97290,1,0,0:0:0:0:
125,229,97452,1,0,0:0:0:0:
125,229,97614,1,0,0:0:0:0:
125,229,97776,1,0,0:0:0:0:
125,229,97938,5,0,0:0:0:0:
125,229,98100,1,0,0:0:0:0:
125,229,98263,1,0,0:0:0:0:
125,229,98425,1,0,0:0:0:0:
260,228,98587,1,0,0:0:0:0:
293,349,98749,1,0,0:0:0:0:
299,355,99073,1,0,0:0:0:0:
299,355,99154,1,0,0:0:0:0:
299,355,99236,6,0,P|355:333|372:304,1,90
257,144,99560,2,0,P|248:203|264:232,1,90
443,215,99884,2,0,P|395:177|362:177,1,90
180,211,100208,1,0,0:0:0:0:
180,211,100371,1,0,0:0:0:0:
377,249,100533,5,0,0:0:0:0:
244,31,100695,1,0,0:0:0:0:
244,31,100776,1,0,0:0:0:0:
244,31,100857,1,0,0:0:0:0:
368,175,101019,1,0,0:0:0:0:
156,114,101181,1,0,3:0:0:0:
99,184,101344,1,0,3:0:0:0:
135,266,101506,2,0,P|180:232|186:197,1,90
71,101,101830,6,0,P|145:32|231:73,1,180
61,238,102479,2,0,P|142:208|158:124,1,180
262,258,103127,5,0,0:0:0:0:
96,345,103452,1,0,0:0:0:0:
180,139,103776,1,0,0:0:0:0:
20,30,104100,1,0,0:0:0:0:
70,226,104425,6,0,P|131:271|244:268,1,180
403,180,105073,2,0,P|342:134|296:131,1,90,0|0,3:0|3:0,3:0:0:0:
437,34,105398,2,0,P|498:79|543:82,1,90,0|0,3:0|3:0,3:0:0:0:
512,207,105722,6,0,P|499:251|458:288,1,90
304,343,106046,1,0,0:0:0:0:
289,182,106208,1,0,0:0:0:0:
334,182,106290,1,0,0:0:0:0:
375,199,106371,2,0,P|414:236|429:274,1,90
243,323,106695,1,0,0:0:0:0:
108,194,106857,1,0,0:0:0:0:
139,162,106938,1,0,0:0:0:0:
179,141,107019,6,0,P|239:132|291:205,1,135.000005149842
179,141,107506,1,0,0:0:0:0:
21,215,107992,1,0,0:0:0:0:
28,355,108317,6,0,P|101:347|138:295,1,135.000005149842
28,355,108803,1,0,0:0:0:0:
292,223,109290,1,0,0:0:0:0:
403,165,109614,6,0,P|343:172|288:229,1,135.000005149842
403,165,110100,1,0,0:0:0:0:
387,344,110587,1,0,0:0:0:0:
271,307,110911,6,0,P|321:298|387:344,1,135.000005149842
271,307,111398,1,0,0:0:0:0:
77,310,111884,1,0,0:0:0:0:
176,242,112208,6,0,P|114:252|76:322,1,135.000005149842
133,149,112857,2,0,P|195:139|233:69,1,135.000005149842
99,11,113344,1,0,0:0:0:0:
48,177,113506,6,0,P|69:215|109:237,1,67.5000025749208
223,111,113830,2,0,P|270:144|288:216,1,135.000005149842
267,332,114317,1,0,0:0:0:0:
350,271,114479,1,0,0:0:0:0:
391,369,114641,1,0,0:0:0:0:
471,309,114803,6,0,P|501:267|497:233,1,67.5000025749208
434,65,115127,2,0,P|410:88|403:121,1,67.5000025749208
427,309,115452,2,0,P|457:267|453:233,1,67.5000025749208
390,65,115776,2,0,P|366:88|359:121,1,67.5000025749208
256,192,116100,5,0,0:0:0:0:
256,53,116425,5,0,0:0:0:0:
117,192,116749,5,0,0:0:0:0:
256,330,117073,5,0,0:0:0:0:
394,192,117398,2,0,P|355:121|321:107,1,90
118,192,117722,2,0,P|157:263|191:277,1,90
327,280,117965,1,0,0:0:0:0:
327,280,118046,2,0,L|266:203,1,90
176,80,118371,2,0,P|244:45|292:48,1,90
415,69,118695,5,0,0:0:0:0:
415,69,118857,1,0,0:0:0:0:
252,141,119019,2,0,P|282:196|320:227,1,90
438,260,119263,1,0,0:0:0:0:
438,260,119344,2,0,P|391:330|349:344,1,90
220,344,119668,1,0,0:0:0:0:
252,141,119830,1,0,0:0:0:0:
232,110,119911,1,0,0:0:0:0:
205,85,119992,6,0,P|168:53|124:40,1,90
84,189,120317,2,0,P|52:226|39:270,1,90
172,338,120560,1,0,0:0:0:0:
172,338,120641,2,0,P|204:301|217:257,1,90
205,85,120965,2,0,P|251:94|305:128,1,90
457,201,121290,5,0,0:0:0:0:
296,328,121452,1,0,0:0:0:0:
492,278,121614,1,0,0:0:0:0:
404,113,121776,1,0,0:0:0:0:
375,88,121857,1,0,0:0:0:0:
345,67,121938,2,0,P|290:45|243:40,1,90
95,49,122263,1,0,0:0:0:0:
55,186,122425,1,0,0:0:0:0:
54,222,122506,1,0,0:0:0:0:
59,258,122587,6,0,P|72:300|102:333,1,90
230,252,122911,2,0,P|217:209|187:177,1,90
118,82,123154,1,0,0:0:0:0:
118,82,123236,2,0,P|179:58|212:62,1,90
417,85,123560,2,0,P|356:111|336:137,1,90
214,227,123884,6,0,P|244:266|294:293,1,90
466,287,124208,2,0,P|437:249|394:228,1,90
303,202,124452,1,0,0:0:0:0:
303,202,124533,2,0,P|272:158|229:136,1,90
48,75,124857,1,0,0:0:0:0:
81,242,125019,1,0,0:0:0:0:
101,270,125100,1,0,0:0:0:0:
121,299,125181,6,0,P|203:350|305:299,1,180
400,253,125668,1,0,0:0:0:0:
410,218,125749,1,0,0:0:0:0:
422,183,125830,2,0,P|416:122|394:81,1,90
239,28,126154,2,0,P|264:83|266:130,1,90
278,315,126479,5,0,0:0:0:0:
182,93,126641,1,0,0:0:0:0:
188,349,126803,1,0,0:0:0:0:
77,117,126965,1,0,0:0:0:0:
111,144,127046,1,0,0:0:0:0:
146,172,127127,1,0,0:0:0:0:
346,310,127289,1,0,0:0:0:0:
317,331,127371,1,0,0:0:0:0:
284,343,127452,1,0,0:0:0:0:
249,346,127533,1,0,0:0:0:0:
213,340,127614,1,0,0:0:0:0:
181,325,127695,1,0,0:0:0:0:
155,302,127776,6,0,P|119:248|123:188,1,90
357,82,128100,6,0,P|392:135|388:195,1,90
256,303,128425,1,0,0:0:0:0:
256,303,128587,1,0,0:0:0:0:
256,80,128749,1,0,0:0:0:0:
256,80,128911,1,0,0:0:0:0:
400,192,129073,6,0,P|361:245|321:261,1,90
256,128,129398,2,0,P|219:152|196:191,1,90
180,293,129641,1,0,0:0:0:0:
180,293,129722,1,0,0:0:0:0:
324,250,129884,1,0,0:0:0:0:
413,129,130046,1,0,0:0:0:0:
441,306,130208,1,0,0:0:0:0:
427,272,130290,1,0,0:0:0:0:
408,241,130371,6,0,P|368:187|337:169,1,90
137,84,130695,2,0,P|204:92|235:110,1,90
241,234,130938,1,0,0:0:0:0:
241,234,131019,2,0,P|188:275|153:285,1,90
49,357,131344,2,0,P|22:295|22:259,1,90
99,127,131668,5,0,0:0:0:0:
359,89,131830,1,0,0:0:0:0:
159,201,131992,1,0,0:0:0:0:
414,237,132154,1,0,0:0:0:0:
89,268,132317,1,0,0:0:0:0:
328,364,132479,1,0,0:0:0:0:
264,52,132641,1,0,0:0:0:0:
169,283,132803,1,0,0:0:0:0:
146,310,132884,1,0,0:0:0:0:
114,328,132965,6,0,P|61:346|11:347,1,90
39,184,133290,2,0,P|89:127|141:105,1,90
247,75,133533,1,0,0:0:0:0:
247,75,133614,2,0,P|265:128|266:178,1,90
247,330,133938,1,0,0:0:0:0:
386,214,134100,1,0,0:0:0:0:
407,185,134181,1,0,0:0:0:0:
431,158,134263,6,0,P|394:125|352:112,1,90
87,250,134587,2,0,P|102:202|132:170,1,90
303,73,134830,1,0,0:0:0:0:
303,73,134911,2,0,P|258:73|218:93,1,90
87,250,135236,1,0,0:0:0:0:
218,319,135398,1,0,0:0:0:0:
252,330,135479,1,0,0:0:0:0:
287,331,135560,6,0,P|346:325|373:303,1,90
506,188,135884,2,0,P|478:153|436:138,1,90
351,140,136127,1,0,0:0:0:0:
351,140,136208,1,0,0:0:0:0:
320,264,136371,1,0,0:0:0:0:
441,243,136533,2,0,P|466:201|461:161,1,90
470,32,136857,6,0,P|380:68|334:120,1,135
350,213,137181,2,0,P|273:153|205:139,1,135
247,248,137506,2,0,P|156:284|110:336,1,135
230,348,137830,1,0,0:0:0:0:
375,338,137992,1,0,0:0:0:0:
410,333,138073,1,0,0:0:0:0:
436,329,138154,6,0,P|454:299|451:252,1,67.5000025749208
352,164,138479,1,0,0:0:0:0:
356,277,138641,1,0,0:0:0:0:
260,214,138803,2,0,P|237:188|230:156,1,67.5000025749208
224,55,139127,1,0,0:0:0:0:
149,124,139290,1,0,0:0:0:0:
107,216,139452,5,0,0:0:0:0:
85,117,139614,1,0,0:0:0:0:
27,34,139776,1,0,0:0:0:0:
122,67,139938,1,0,0:0:0:0:
224,55,140100,1,0,0:0:0:0:
107,216,140263,1,0,0:0:0:0:
27,34,140425,1,0,0:0:0:0:
162,135,140587,1,0,0:0:0:0:
190,153,140668,1,0,0:0:0:0:
219,168,140749,6,0,P|255:188|299:193,1,67.5000025749208
472,167,141073,2,0,P|436:147|392:142,2,67.5000025749208
449,297,141560,1,0,0:0:0:0:
330,360,141722,2,0,P|315:339|298:296,1,67.5000025749208
270,153,142046,5,0,0:0:0:0:
353,209,142208,1,0,0:0:0:0:
225,248,142371,1,0,0:0:0:0:
186,120,142533,1,0,0:0:0:0:
314,81,142695,1,0,0:0:0:0:
186,120,142857,1,0,0:0:0:0:
225,248,143019,2,0,P|269:288|298:293,1,67.5000025749208
394,240,143344,6,0,P|350:200|321:195,1,67.5000025749208
170,179,143668,1,0,0:0:0:0:
270,186,143830,1,0,0:0:0:0:
222,96,143992,2,0,L|220:28,2,67.5000025749208
363,133,144479,1,0,0:0:0:0:
219,28,144641,6,0,P|186:29|158:46,1,67.5000025749208
93,134,144965,1,0,0:0:0:0:
45,29,145127,1,0,0:0:0:0:
158,46,145290,1,0,0:0:0:0:
63,174,145452,1,0,0:0:0:0:
105,80,145614,1,0,0:0:0:0:
211,57,145776,1,0,0:0:0:0:
227,55,145857,1,0,0:0:0:0:
242,60,145938,6,0,P|274:105|282:146,1,67.5000025749208
244,309,146263,2,0,P|212:264|204:223,1,67.5000025749208
305,48,146587,6,0,P|331:116|327:172,1,90
206,335,146911,2,0,P|180:265|183:209,1,90
378,64,147236,6,0,P|387:154|364:220,1,112.5
133,319,147560,2,0,P|124:228|147:162,1,112.5
194,99,147803,1,0,0:0:0:0:
194,99,147884,2,0,P|226:144|234:201,1,90
318,285,148127,1,0,0:0:0:0:
318,285,148208,2,0,P|286:240|278:183,1,90
340,73,148452,1,0,0:0:0:0:
340,73,148533,6,0,P|411:103|438:202,1,180
439,195,149181,1,0,0:0:0:0:
439,195,149506,1,0,0:0:0:0:
259,167,149668,1,0,0:0:0:0:
388,269,149830,5,0,0:0:0:0:
323,95,149992,1,0,0:0:0:0:
266,303,150154,2,0,P|273:256|253:215,1,90
136,119,150479,2,0,P|188:78|242:82,1,90
349,134,150722,1,0,0:0:0:0:
349,134,150803,2,0,P|297:175|243:171,1,90
131,189,151046,1,0,0:0:0:0:
131,189,151127,6,0,P|185:270|280:307,1,180
257,304,151776,1,0,0:0:0:0:
257,304,152100,1,0,0:0:0:0:
454,215,152263,1,0,0:0:0:0:
312,159,152425,5,0,0:0:0:0:
401,356,152587,1,0,0:0:0:0:
214,231,152749,2,0,P|264:226|310:240,1,90
387,286,152992,1,0,0:0:0:0:
387,286,153073,1,0,0:0:0:0:
405,116,153236,1,0,0:0:0:0:
454,215,153398,1,0,0:0:0:0:
205,103,153722,5,0,0:0:0:0:
109,177,154046,1,0,0:0:0:0:
80,295,154371,1,0,0:0:0:0:
205,103,154857,5,0,0:0:0:0:
109,177,155019,1,0,0:0:0:0:
80,295,155344,1,0,0:0:0:0:
205,103,155668,5,0,0:0:0:0:
109,177,155830,1,0,0:0:0:0:
80,295,155992,1,0,0:0:0:0:
205,103,156317,5,0,0:0:0:0:
205,103,156479,1,0,0:0:0:0:
205,103,156803,1,0,0:0:0:0:
205,103,157127,1,0,0:0:0:0:
205,103,157452,5,0,0:0:0:0:
205,103,157776,1,0,0:0:0:0:
205,103,158100,1,0,0:0:0:0:
336,58,158425,2,0,L|335:28,1,16.8750006437302
367,83,158506,2,0,L|374:54,1,16.8750006437302
392,115,158587,2,0,L|406:89,1,16.8750006437302
407,153,158668,2,0,L|427:131,1,16.8750006437302
412,194,158749,2,0,L|437:178,1,16.8750006437302
406,234,158830,2,0,L|434:225,1,16.8750006437302
390,272,158911,6,0,P|347:320|232:320,1,180
171,120,159560,2,0,P|254:147|291:226,1,180
149,374,160208,6,0,P|131:288|181:216,1,180
359,348,160857,2,0,P|337:284|280:248,1,135
439,229,161181,2,0,P|378:199|312:214,1,135
412,89,161506,6,0,P|348:111|312:168,1,135
293,8,161830,2,0,P|263:69|278:135,1,121.499996292114
153,36,162154,2,0,P|175:100|232:136,1,108
72,154,162479,2,0,P|125:180|183:167,1,94.499997116089
282,248,162803,6,0,P|337:285|359:348,1,135
314,213,163127,2,0,P|379:199|439:229,1,135
312,165,163452,2,0,P|349:110|412:89,1,135
277,133,163776,1,0,0:0:0:0:
197,273,163938,1,0,0:0:0:0:
197,273,164019,1,0,0:0:0:0:
197,273,164100,5,0,0:0:0:0:
315,111,164263,1,0,0:0:0:0:
337,251,164425,1,0,0:0:0:0:
175,133,164587,1,0,0:0:0:0:
185,289,164749,5,0,0:0:0:0:
326,94,164912,1,0,0:0:0:0:
353,262,165074,1,0,0:0:0:0:
158,121,165236,1,0,0:0:0:0:
409,169,165398,5,0,0:0:0:0:
398,315,165560,1,0,0:0:0:0:
257,356,165722,1,0,0:0:0:0:
409,209,165884,1,0,0:0:0:0:
361,347,166046,1,0,0:0:0:0:
214,350,166208,1,0,0:0:0:0:
409,209,166371,1,0,0:0:0:0:
214,350,166533,1,0,0:0:0:0:
33,297,166695,6,0,P|98:231|185:194,1,180
376,269,167344,2,0,P|385:223|347:89,1,180
98,29,167992,5,0,0:0:0:0:
352,96,168154,1,0,0:0:0:0:
112,127,168317,1,0,0:0:0:0:
317,191,168479,1,0,0:0:0:0:
131,225,168641,1,0,0:0:0:0:
286,292,168803,1,0,0:0:0:0:
152,324,168965,1,0,0:0:0:0:
170,334,169046,1,0,0:0:0:0:
189,344,169127,1,0,0:0:0:0:
207,353,169208,1,0,0:0:0:0:
226,364,169290,6,0,P|286:366|373:259,1,180
384,135,169776,1,0,0:0:0:0:
369,102,169857,1,0,0:0:0:0:
348,72,169938,2,0,P|289:32|234:37,1,90
109,82,170263,2,0,P|157:141|239:133,1,135
348,72,170587,6,0,P|370:110|371:155,1,90
391,309,170911,2,0,P|316:301|284:282,1,90
217,218,171154,1,0,0:0:0:0:
217,218,171236,2,0,P|158:208|95:227,1,90
20,321,171560,1,0,0:0:0:0:
35,40,171884,6,0,P|56:112|173:168,1,180
284,52,172533,2,0,P|328:83|337:120,2,90
116,95,173181,1,0,0:0:0:0:
206,196,173344,1,0,0:0:0:0:
337,224,173506,6,0,P|391:232|417:293,1,90
333,349,173749,1,0,0:0:0:0:
333,349,173830,2,0,P|279:341|253:280,1,90
249,162,174154,1,0,0:0:0:0:
401,109,174317,1,0,0:0:0:0:
381,78,174398,1,0,0:0:0:0:
359,49,174479,6,0,P|222:19|147:35,1,180
33,118,175127,1,0,0:0:0:0:
107,241,175290,1,0,0:0:0:0:
243,286,175452,1,0,0:0:0:0:
252,84,175776,6,0,P|311:103|329:151,2,90
383,254,176425,1,0,0:0:0:0:
233,232,176587,1,0,0:0:0:0:
286,368,176749,1,0,0:0:0:0:
205,158,177073,5,0,0:0:0:0:
299,49,177398,1,0,0:0:0:0:
400,150,177722,2,0,P|434:202|439:248,2,90
283,65,178208,1,0,0:0:0:0:
351,224,178371,5,0,0:0:0:0:
341,239,178695,1,0,0:0:0:0:
331,254,179019,1,0,0:0:0:0:
321,269,179344,1,0,0:0:0:0:
283,65,179668,5,0,0:0:0:0:
147,175,179992,2,0,P|177:208|218:224,1,90
366,226,180317,1,0,0:0:0:0:
315,91,180479,1,0,0:0:0:0:
173,63,180641,1,0,0:0:0:0:
48,135,180803,1,0,0:0:0:0:
15,275,180965,1,0,0:0:0:0:
256,192,181127,12,0,182181,0:0:0:0:
320,266,182263,5,0,0:0:0:0:
248,28,192641,5,0,0:0:0:0:
38,58,192803,2,0,L|47:114,1,45
197,173,192965,2,0,L|188:229,1,45
67,345,193127,2,0,L|76:289,1,45
116,147,193290,2,0,P|153:93|210:76,1,90
326,6,193614,2,0,P|355:66|341:120,1,90
319,271,193938,6,0,P|279:250|254:214,1,90
242,49,194263,1,0,0:0:0:0:
366,143,194425,1,0,0:0:0:0:
315,338,194587,2,0,P|266:305|248:273,1,90
58,226,194911,2,0,P|136:242|172:225,1,90
303,157,195236,5,0,0:0:0:0:
108,126,195398,1,0,0:0:0:0:
277,65,195560,1,0,0:0:0:0:
151,218,195722,1,0,0:0:0:0:
279,336,195884,2,0,P|331:322|374:274,1,90
420,98,196208,2,0,P|368:112|325:160,1,90
228,265,196533,5,0,0:0:0:0:
442,297,196695,1,0,0:0:0:0:
231,128,196857,1,0,0:0:0:0:
324,333,197019,1,0,0:0:0:0:
461,198,197181,1,0,0:0:0:0:
151,196,197344,1,0,0:0:0:0:
405,367,197506,2,0,P|439:341|428:277,1,90
340,68,197830,5,0,0:0:0:0:
340,68,197992,1,0,0:0:0:0:
461,198,198154,2,0,P|412:238|360:256,1,90
355,374,198479,2,0,P|279:327|242:247,1,180
222,47,198965,1,0,0:0:0:0:
126,283,199127,5,0,0:0:0:0:
378,150,199290,1,0,0:0:0:0:
99,178,199452,1,0,0:0:0:0:
234,331,199614,1,0,0:0:0:0:
312,88,199776,2,0,P|391:63|427:70,1,90
479,226,200100,2,0,P|417:210|386:175,1,90
234,41,200425,6,0,P|174:65|141:116,2,90
398,86,200911,1,0,0:0:0:0:
251,160,201073,2,0,P|276:211|319:227,1,90
422,156,201398,2,0,P|458:204|455:239,1,90
398,351,201722,5,0,0:0:0:0:
303,224,201884,1,0,0:0:0:0:
422,156,202046,1,0,0:0:0:0:
263,89,202208,1,0,0:0:0:0:
263,89,202371,1,0,0:0:0:0:
421,263,202533,1,0,0:0:0:0:
264,341,202695,1,0,0:0:0:0:
266,160,202857,1,0,0:0:0:0:
221,168,202938,1,0,0:0:0:0:
177,178,203019,5,0,0:0:0:0:
52,344,203181,1,0,0:0:0:0:
32,303,203263,1,0,0:0:0:0:
24,258,203344,1,0,0:0:0:0:
94,84,203506,1,0,0:0:0:0:
137,73,203587,1,0,0:0:0:0:
180,62,203668,2,0,P|226:54|281:59,1,90
410,115,203992,1,0,0:0:0:0:
463,253,204154,1,0,0:0:0:0:
451,296,204236,1,0,0:0:0:0:
426,332,204317,6,0,P|384:353|340:358,1,90
164,335,204641,1,0,0:0:0:0:
341,358,204803,1,0,0:0:0:0:
102,260,204965,2,0,P|85:199|106:137,1,90
279,160,205290,2,0,P|277:102|258:55,1,90
223,1,205533,1,0,0:0:0:0:
223,1,205614,5,0,0:0:0:0:
108,109,205776,1,0,0:0:0:0:
212,221,205938,1,0,0:0:0:0:
343,96,206100,1,0,0:0:0:0:
384,78,206181,1,0,0:0:0:0:
428,67,206263,2,0,P|475:86|506:132,1,90
491,277,206587,2,0,P|447:274|380:227,1,90
343,199,206830,1,0,0:0:0:0:
343,199,206911,5,0,0:0:0:0:
255,354,207073,1,0,0:0:0:0:
133,251,207236,2,0,P|107:207|103:161,1,90
119,30,207560,1,0,0:0:0:0:
331,54,207722,1,0,0:0:0:0:
355,141,207884,1,0,0:0:0:0:
66,123,208046,1,0,0:0:0:0:
55,166,208127,1,0,0:0:0:0:
45,209,208208,6,0,P|55:264|76:298,1,90
196,370,208533,2,0,P|220:320|214:275,1,90
182,120,208776,1,0,0:0:0:0:
182,120,208857,2,0,P|145:163|126:227,1,90
59,283,209181,2,0,P|125:307|177:309,1,90
201,206,209425,1,0,0:0:0:0:
201,206,209506,6,0,P|232:154|293:131,1,90
402,237,209830,2,0,P|441:185|442:143,1,90
428,24,210154,1,0,0:0:0:0:
220,57,210317,1,0,0:0:0:0:
404,146,210479,2,0,P|392:189|361:221,1,90
441,303,210722,1,0,0:0:0:0:
441,303,210803,6,0,P|385:339|335:348,1,90
200,328,211127,1,0,0:0:0:0:
255,175,211290,1,0,0:0:0:0:
224,141,211371,1,0,0:0:0:0:
189,112,211452,2,0,P|138:85|97:84,1,90
18,270,211776,2,0,P|56:246|100:240,1,90
278,271,212019,1,0,0:0:0:0:
278,271,212100,6,0,P|329:240|351:207,1,90
294,7,212425,2,0,P|243:38|221:71,1,90
299,292,212749,2,0,P|350:261|372:228,1,90
413,82,213073,1,0,0:0:0:0:
250,29,213236,1,0,0:0:0:0:
208,47,213317,1,0,0:0:0:0:
174,78,213398,6,0,P|159:122|161:165,1,90
51,166,213722,2,0,P|53:210|40:253,1,90
129,334,214046,2,0,P|206:360|304:314,1,180
205,218,214533,1,0,0:0:0:0:
114,108,214695,6,0,P|194:72|279:98,1,180
432,122,215344,2,0,P|399:204|321:245,1,180
239,244,215830,1,0,0:0:0:0:
321,244,215992,5,0,0:0:0:0:
399,202,216154,1,0,0:0:0:0:
432,122,216317,1,0,0:0:0:0:
293,121,216479,1,0,0:0:0:0:
367,8,216641,2,0,L|288:128,1,135.000005149842
177,283,217127,1,0,0:0:0:0:
76,207,217290,6,0,L|16:169,2,67.5000025749208
207,173,217776,1,0,0:0:0:0:
217,139,217857,1,0,0:0:0:0:
227,105,217938,2,0,P|243:60|268:28,1,67.5000025749208
351,123,218425,5,0,0:0:0:0:
85,212,218911,5,0,0:0:0:0:
177,17,219236,2,0,P|233:25|265:49,1,90
391,117,219560,2,0,P|344:170|308:176,1,90
194,264,219884,6,0,P|171:191|199:89,1,180
377,37,220371,1,0,0:0:0:0:
406,57,220452,1,0,0:0:0:0:
428,85,220533,2,0,P|451:135|455:182,1,90
366,319,220857,2,0,P|358:274|338:234,1,90
183,102,221181,6,0,P|206:152|210:199,1,90
212,353,221506,1,0,0:0:0:0:
65,277,221668,1,0,0:0:0:0:
42,248,221749,1,0,0:0:0:0:
31,213,221830,1,0,0:0:0:0:
185,45,221992,1,0,0:0:0:0:
29,180,222154,1,0,0:0:0:0:
246,152,222317,1,0,0:0:0:0:
54,66,222479,6,0,P|120:100|149:182,1,135
94,276,222803,2,0,P|158:293|220:271,1,135
307,198,223127,1,0,0:0:0:0:
157,191,223290,1,0,0:0:0:0:
224,357,223452,2,0,P|286:321|311:273,1,90
323,122,223776,6,0,P|392:146|421:180,2,90
131,117,224263,1,0,0:0:0:0:
148,148,224344,1,0,0:0:0:0:
169,175,224425,2,0,P|231:225|278:232,1,90
427,77,224749,2,0,P|377:139|370:186,1,90
490,334,225073,6,0,P|428:284|381:278,1,90
278,370,225398,2,0,P|239:315|235:257,1,90
326,117,225722,2,0,P|279:93|228:104,1,90,0|0,3:0|3:0,3:0:0:0:
100,203,226046,2,0,P|68:171|56:128,1,90
204,98,226371,6,0,P|246:69|363:156,1,180
392,268,226857,1,0,0:0:0:0:
275,154,227019,1,0,0:0:0:0:
199,350,227181,1,0,0:0:0:0:
142,209,227344,1,0,0:0:0:0:
338,285,227506,1,0,0:0:0:0:
199,350,227668,6,0,P|122:342|87:327,2,90
384,318,228317,2,0,P|348:265|356:208,1,90
375,141,228560,1,0,0:0:0:0:
375,141,228641,1,0,0:0:0:0:
185,157,228803,1,0,0:0:0:0:
391,27,228965,5,0,0:0:0:0:
140,43,229127,1,0,0:0:0:0:
284,255,229290,1,0,0:0:0:0:
134,140,229614,5,0,0:0:0:0:
378,244,229776,1,0,0:0:0:0:
198,291,230100,5,0,0:0:0:0:
256,128,230263,1,0,0:0:0:0:
331,284,230425,1,0,0:0:0:0:
219,160,230587,5,0,0:0:0:0:
294,317,230750,1,0,0:0:0:0:
364,156,230912,1,0,0:0:0:0:
364,156,231073,1,0,0:0:0:0:
186,85,231236,1,0,0:0:0:0:
186,85,231398,1,0,0:0:0:0:
311,298,231722,5,0,0:0:0:0:
201,86,231884,1,0,0:0:0:0:
201,298,232046,1,0,0:0:0:0:
311,86,232208,1,0,0:0:0:0:
256,192,232371,12,0,235452,0:0:0:0:
