osu file format v14

[General]
AudioFilename: audio.mp3
AudioLeadIn: 0
PreviewTime: 209847
Countdown: 0
SampleSet: Drum
StackLeniency: 0.4
Mode: 0
LetterboxInBreaks: 0
WidescreenStoryboard: 1

[Editor]
DistanceSpacing: 0.6
BeatDivisor: 4
GridSize: 4
TimelineZoom: 1.4

[Metadata]
Title:Boku no Friend
TitleUnicode:ぼくのフレンド
Artist:Mewhan
ArtistUnicode:みゆはん
Creator:Vanilla
Version:v2
Source:けものフレンズ
Tags:kemono friends ed ending スナネコ full kaban bag serval everlasting friendship
BeatmapID:2152606
BeatmapSetID:603999

[Difficulty]
HPDrainRate:6
CircleSize:4.2
OverallDifficulty:8
ApproachRate:9
SliderMultiplier:2.2
SliderTickRate:1

[Events]
//Background and Video events
0,0,"this is cute.jpg",0,0
//Break Periods
//Storyboard Layer 0 (Background)
//Storyboard Layer 1 (Fail)
//Storyboard Layer 2 (Pass)
//Storyboard Layer 3 (Foreground)
//Storyboard Layer 4 (Overlay)
//Storyboard Sound Samples

[TimingPoints]
768,368.098159509202,4,3,0,60,1,0
1504,-100,4,3,0,60,0,0
1780,-100,4,3,0,60,0,0
13283,-133.333333333333,4,3,0,40,0,0
14019,-133.333333333333,4,3,0,40,0,0
25430,-100,4,3,0,60,0,0
34541,-100,4,3,0,5,0,0
34633,-100,4,3,0,60,0,0
37577,-133.333333333333,4,3,0,60,0,0
53958,-133.333333333333,4,3,0,5,0,0
54050,-133.333333333333,4,3,0,60,0,0
61136,-100,4,3,0,70,0,1
78804,-133.333333333333,4,3,0,70,0,1
81749,-100,4,3,0,70,0,0
102271,-100,4,3,0,5,0,0
102363,-100,4,3,0,60,0,0
114050,-100,4,3,0,5,0,0
114142,-100,4,3,0,60,0,0
140645,-100,4,3,0,70,0,1
158314,-133.333333333333,4,3,0,70,0,1
161258,-133.333333333333,4,3,0,60,0,0
166780,-100,4,3,0,60,0,0
167148,-100,4,3,0,60,0,0
170093,-100,4,3,0,60,0,0
184817,-133.333333333333,4,3,0,60,0,0
187393,-200,4,3,0,60,0,0
187761,-133.333333333333,4,3,0,60,0,0
193283,-200,4,3,0,60,0,0
193651,-133.333333333333,4,3,0,60,0,0
202485,-100,4,3,0,60,0,0
209847,-100,4,3,0,70,0,1
227516,-133.333333333333,4,3,0,70,0,1
228988,-133.333333333333,4,2,0,70,0,1
230093,-100,4,3,0,70,0,1
230461,-100,4,3,0,70,0,0
241504,-133.333333333333,4,3,0,60,0,0
242240,-100,4,2,0,40,0,0
242424,-100,4,3,0,40,0,0
242792,-100,4,2,0,40,0,0
243528,-100,4,3,0,40,0,0
243896,-100,4,2,0,40,0,0
244264,-100,4,3,0,40,0,0
244448,-100,4,2,0,40,0,0

[HitObjects]
311,273,767,5,0,0:0:0:0:
311,273,1136,1,0,0:0:0:0:
311,273,1504,2,0,P|347:214|314:129,1,165
201,111,1872,1,0,0:0:0:0:
162,125,1964,1,0,0:0:0:0:
135,156,2056,1,0,0:0:0:0:
126,196,2148,1,0,0:0:0:0:
137,235,2240,6,0,P|172:281|248:292,1,110
376,249,2608,1,4,0:0:0:0:
223,205,2792,1,0,0:0:0:0:
223,205,2884,1,0,0:0:0:0:
223,205,2976,2,0,P|214:151|239:103,1,110
382,38,3344,1,4,0:0:0:0:
376,249,3528,1,0,0:0:0:0:
317,88,3712,6,0,P|287:42|236:22,1,110
67,57,4080,1,4,0:0:0:0:
146,156,4264,1,0,0:0:0:0:
146,156,4356,1,0,0:0:0:0:
146,156,4448,2,0,P|209:108|266:104,1,110
321,241,4817,2,0,P|257:193|200:189,1,110,4|0,3:0|3:0,3:0:0:0:
154,245,5093,1,0,0:0:0:0:
154,245,5185,6,0,P|114:282|61:297,1,110,0|0,3:0|3:0,3:0:0:0:
51,171,5553,1,4,0:0:0:0:
114,85,5737,1,0,0:0:0:0:
129,67,5829,1,0,0:0:0:0:
145,49,5921,2,0,P|218:79|250:126,1,110
374,152,6289,2,0,P|300:182|268:229,1,110,4|0,0:0|0:0,0:0:0:0:
221,314,6565,1,0,0:0:0:0:
221,314,6657,6,0,P|274:301|327:314,1,110
433,361,7025,1,4,0:0:0:0:
464,251,7209,1,0,0:0:0:0:
464,228,7301,1,0,0:0:0:0:
465,205,7393,2,0,P|402:157|345:153,1,110
229,189,7761,1,4,0:0:0:0:
315,35,7945,2,0,L|288:83,1,55
229,189,8129,6,0,P|189:226|136:241,1,110,4|0,2:0|0:0,0:0:0:0:
0,218,8498,1,4,0:0:0:0:
49,96,8682,1,0,0:0:0:0:
49,96,8774,1,0,0:0:0:0:
49,96,8866,2,0,P|88:133|140:149,1,110
322,181,9234,1,4,0:0:0:0:
220,94,9418,1,0,0:0:0:0:
161,265,9602,6,0,P|211:216|268:198,1,110
434,192,9970,1,4,0:0:0:0:
353,334,10154,1,0,0:0:0:0:
353,334,10246,1,0,0:0:0:0:
353,334,10338,1,0,0:0:0:0:
372,125,10522,1,0,0:0:0:0:
275,283,10706,1,4,0:0:0:0:
294,74,10890,1,0,0:0:0:0:
294,74,10982,1,0,0:0:0:0:
294,74,11074,6,0,P|350:36|405:32,1,110,4|0,2:0|0:0,0:0:0:0:
284,166,11442,1,0,0:0:0:0:
414,222,11626,6,0,P|376:165|372:110,1,110,4|0,2:0|3:0,3:0:0:0:
506,232,11994,1,0,3:0:0:0:
284,166,12179,6,0,P|280:97|303:48,1,110,4|0,2:0|3:0,3:0:0:0:
462,96,12547,1,0,3:0:0:0:
492,179,12731,1,0,0:0:0:0:
414,222,12915,1,0,0:0:0:0:
487,271,13099,1,0,0:0:0:0:
400,307,13283,2,0,P|366:335|344:380,2,82.5000031471254
472,362,13835,1,0,0:0:0:0:
414,222,14019,6,0,P|372:206|322:210,1,82.5000031471254
237,232,14387,2,0,P|252:190|248:140,1,82.5000031471254
165,22,14755,2,0,P|150:64|154:114,1,82.5000031471254
175,179,15123,1,0,0:0:0:0:
175,179,15307,1,0,0:0:0:0:
217,304,15491,6,0,P|159:294|118:258,1,82.5000031471254
70,337,15860,2,0,P|49:281|60:228,1,82.5000031471254
84,151,16228,1,0,0:0:0:0:
89,144,16412,1,0,0:0:0:0:
201,221,16596,1,0,0:0:0:0:
203,212,16780,1,0,0:0:0:0:
190,339,16964,6,0,P|245:318|298:329,1,82.5000031471254
371,319,17332,2,0,P|412:321|450:339,2,82.5000031471254
268,319,17884,1,0,0:0:0:0:
319,229,18068,2,0,P|315:188|296:151,1,82.5000031471254
212,127,18436,5,0,0:0:0:0:
232,212,18620,1,0,0:0:0:0:
148,186,18804,2,0,P|113:163|90:130,1,82.5000031471254
153,65,19172,5,0,0:0:0:0:
212,127,19356,1,0,0:0:0:0:
232,212,19541,1,0,0:0:0:0:
206,295,19725,1,0,0:0:0:0:
291,277,19909,2,0,P|331:268|371:275,1,82.5000031471254
389,194,20277,2,0,P|429:201|470:193,2,82.5000031471254
343,119,20829,1,0,0:0:0:0:
431,123,21013,2,0,P|438:82|429:42,1,82.5000031471254
343,119,21381,5,0,0:0:0:0:
261,92,21565,1,0,0:0:0:0:
343,119,21749,1,0,0:0:0:0:
389,194,21933,2,0,P|358:221|320:235,1,82.5000031471254
209,241,22301,1,0,0:0:0:0:
209,241,22485,1,0,0:0:0:0:
170,121,22669,1,0,0:0:0:0:
78,215,22853,6,0,P|64:176|36:146,1,82.5000031471254
74,42,23221,1,0,0:0:0:0:
74,42,23406,1,0,0:0:0:0:
170,121,23590,1,0,0:0:0:0:
259,28,23774,2,0,P|251:68|260:108,1,82.5000031471254
320,207,24142,1,0,0:0:0:0:
397,63,24326,5,4,0:0:0:0:
397,63,24510,1,0,0:0:0:0:
389,262,24694,1,4,0:0:0:0:
476,126,24878,1,0,0:0:0:0:
281,169,25062,1,4,0:0:0:0:
479,225,25246,1,0,0:0:0:0:
361,275,25430,1,0,0:0:0:0:
331,288,25522,1,0,0:0:0:0:
300,302,25614,1,0,0:0:0:0:
269,312,25706,1,0,0:0:0:0:
237,323,25798,6,0,P|161:315|113:291,1,110,4|0,2:0|0:0,0:0:0:0:
39,204,26166,1,4,0:0:0:0:
201,244,26534,1,0,0:0:0:0:
201,244,26718,1,0,0:0:0:0:
155,84,26902,2,0,P|89:127|69:189,1,110,4|0,0:0|0:0,0:0:0:0:
59,297,27271,5,0,0:0:0:0:
59,297,27455,1,0,0:0:0:0:
201,244,27639,2,0,P|267:201|287:139,1,110,4|0,0:0|0:0,0:0:0:0:
305,33,28007,1,0,0:0:0:0:
365,164,28191,1,0,0:0:0:0:
181,147,28375,1,4,0:0:0:0:
181,147,28743,6,0,P|211:102|260:78,1,110
280,175,29111,2,0,P|329:151|383:155,1,110,4|0,0:0|0:0,0:0:0:0:
497,211,29479,1,0,0:0:0:0:
344,233,29663,1,0,0:0:0:0:
260,78,29847,2,0,P|229:123|225:177,1,110,4|0,0:0|0:0,0:0:0:0:
255,306,30215,5,0,0:0:0:0:
344,233,30399,1,0,0:0:0:0:
353,118,30583,2,0,P|328:69|284:38,1,110,4|0,0:0|0:0,0:0:0:0:
141,12,30952,1,0,0:0:0:0:
141,12,31136,1,0,0:0:0:0:
122,185,31320,1,4,0:0:0:0:
95,39,31688,5,0,0:0:0:0:
95,39,31872,1,0,0:0:0:0:
234,88,32056,2,0,P|288:93|341:80,1,110,4|0,0:3|0:3,0:3:0:0:
449,14,32424,1,0,0:0:0:0:
442,129,32608,1,0,0:0:0:0:
352,201,32792,2,0,P|319:245|304:297,1,110,4|0,0:3|0:3,0:3:0:0:
417,296,33160,5,0,0:0:0:0:
252,226,33344,1,0,0:0:0:0:
429,159,33528,2,0,P|384:126|332:111,1,110,4|0,0:3|0:3,0:3:0:0:
206,108,33896,1,0,0:0:0:0:
206,108,34080,1,0,0:0:0:0:
77,337,34264,6,0,B|161:354|161:354|256:327,1,165,4|0,0:0|0:0,0:0:0:0:
237,332,34633,5,0,0:0:0:0:
158,269,34817,1,0,0:0:0:0:
345,298,35001,2,0,P|286:271|254:228,1,110,4|0,0:0|0:0,0:0:0:0:
206,108,35369,1,0,0:0:0:0:
359,79,35553,1,0,3:0:0:0:
340,211,35737,1,4,0:0:0:0:
271,41,35921,1,0,0:0:0:0:
408,156,36105,6,0,P|427:206|415:259,2,110,4|0|4,2:0|0:0|0:0,0:0:0:0:
253,187,36657,1,0,0:0:0:0:
218,197,36749,1,0,0:0:0:0:
181,193,36841,1,0,0:0:0:0:
149,176,36933,1,0,0:0:0:0:
126,148,37025,1,0,0:0:0:0:
115,114,37117,1,0,0:0:0:0:
118,77,37209,1,0,0:0:0:0:
47,175,37393,5,0,0:0:0:0:
57,209,37485,1,0,0:0:0:0:
54,246,37577,2,0,P|56:317|145:353,1,165.000006294251
132,355,38129,1,0,0:0:0:0:
127,275,38314,1,4,0:0:0:0:
205,312,38498,2,0,P|255:300|294:258,1,82.5000031471254
479,347,39050,6,0,P|412:331|362:273,2,123.750004720688
335,225,39786,1,0,0:0:0:0:
50,79,40154,1,0,0:0:0:0:
140,107,40338,1,0,0:0:0:0:
225,127,40522,6,0,P|276:185|356:167,1,165.000006294251,4|0,2:0|0:0,0:0:0:0:
375,267,41074,1,0,0:0:0:0:
249,336,41258,1,4,0:0:0:0:
257,201,41442,2,0,P|235:142|198:100,1,82.5000031471254
33,347,41994,6,0,P|100:331|150:273,2,123.750004720688
177,225,42730,1,4,0:0:0:0:
53,267,43099,1,0,0:0:0:0:
88,92,43283,1,0,0:0:0:0:
138,294,43467,6,0,P|220:296|250:193,1,165.000006294251,4|0,2:0|0:0,0:0:0:0:
260,109,44019,1,0,0:0:0:0:
177,225,44203,1,4,0:0:0:0:
131,73,44387,2,0,P|156:122|203:162,1,82.5000031471254
479,37,44939,6,0,P|412:53|362:111,2,123.750004720688
335,159,45675,1,4,0:0:0:0:
442,359,46044,1,0,0:0:0:0:
442,359,46228,1,0,0:0:0:0:
442,359,46412,6,8,P|417:282|338:244,1,165.000006294251,4|0,2:0|0:0,0:0:0:0:
240,246,46964,1,0,0:0:0:0:
202,328,47148,1,4,0:0:0:0:
149,254,47332,2,0,P|113:217|67:195,1,82.5000031471254
33,37,47884,6,0,P|100:53|150:111,2,123.750004720688
177,159,48620,1,4,0:0:0:0:
50,132,48988,1,0,0:0:0:0:
218,87,49172,1,0,0:0:0:0:
172,254,49356,6,0,P|238:195|345:185,1,165.000006294251,0|0,2:0|0:0,0:0:0:0:
409,187,49909,1,0,0:0:0:0:
386,286,50093,1,4,0:0:0:0:
307,351,50277,2,0,P|295:305|268:257,1,82.5000031471254,0|0,3:0|3:0,3:0:0:0:
147,308,50829,2,0,P|173:252|183:191,2,123.750004720688,0|0|0,3:0|3:0|3:0,3:0:0:0:
179,100,51565,1,4,0:0:0:0:
67,249,51933,1,0,0:0:0:0:
147,308,52117,1,0,0:0:0:0:
147,308,52301,6,0,P|199:237|288:217,1,165.000006294251,4|0,3:0|3:0,3:0:0:0:
397,310,52853,1,0,0:0:0:0:
372,216,53037,1,4,0:0:0:0:
317,356,53221,2,0,P|270:334|237:288,1,82.5000031471254,0|0,3:0|0:0,0:0:0:0:
220,205,53590,1,0,0:0:0:0:
120,331,53774,6,0,P|149:288|154:232,1,82.5000031471254,0|0,3:0|0:0,0:0:0:0:
74,265,54050,1,0,0:0:0:0:
74,265,54142,1,0,0:0:0:0:
144,153,54326,1,0,0:0:0:0:
39,58,54510,2,0,P|88:63|141:38,1,82.5000031471254,0|0,3:0|0:0,0:0:0:0:
301,13,54878,1,0,3:0:0:0:
270,39,54970,1,0,3:0:0:0:
247,73,55062,1,0,3:0:0:0:
234,112,55154,1,0,3:0:0:0:
232,153,55246,6,0,P|253:216|285:250,1,82.5000031471254,4|0,3:0|3:0,3:0:0:0:
381,328,55614,1,4,0:0:0:0:
328,153,55798,1,0,0:0:0:0:
214,331,55982,6,0,P|279:344|325:333,1,82.5000031471254,4|0,3:3|3:3,3:3:0:0:
479,273,56350,1,4,0:0:0:0:
348,231,56534,1,0,0:0:0:0:
348,231,56626,1,0,0:0:0:0:
348,231,56718,5,4,0:0:0:0:
398,358,56902,1,0,0:0:0:0:
472,183,57087,1,4,0:0:0:0:
484,361,57271,1,0,0:0:0:0:
371,134,57455,1,4,0:0:0:0:
310,351,57639,1,0,0:0:0:0:
152,189,57823,1,4,0:0:0:0:
326,153,58007,5,0,0:0:0:0:
326,153,58099,1,0,0:0:0:0:
326,153,58191,5,4,2:0:0:0:
218,243,58375,1,0,0:0:0:0:
253,91,58559,1,4,0:0:0:0:
319,247,58743,1,0,0:0:0:0:
159,151,58927,1,4,2:0:0:0:
362,133,59111,1,0,0:0:0:0:
193,279,59295,1,4,0:0:0:0:
250,38,59479,1,0,0:0:0:0:
353,288,59663,5,4,2:0:0:0:
99,133,59847,1,0,0:0:0:0:
427,105,60031,1,4,0:0:0:0:
152,341,60215,1,0,0:0:0:0:
20,166,60583,5,8,0:0:0:0:
485,249,60767,1,8,0:0:0:0:
357,27,61136,5,4,2:0:0:0:
395,208,61320,1,0,0:0:0:0:
253,121,61504,1,4,0:0:0:0:
457,161,61688,1,0,0:0:0:0:
457,161,61780,1,0,0:0:0:0:
457,161,61872,2,0,P|446:267|409:287,1,110
362,367,62240,2,0,P|322:311|264:283,1,110,4|0,0:0|0:0,0:0:0:0:
124,267,62608,5,0,0:0:0:0:
222,138,62792,1,0,0:0:0:0:
198,334,62976,1,4,0:0:0:0:
348,233,63160,1,0,0:0:0:0:
348,233,63252,1,0,0:0:0:0:
348,233,63344,2,0,P|286:205|222:209,1,110,0|0,3:0|0:0,0:0:0:0:
124,267,63712,1,4,0:0:0:0:
24,41,64080,6,0,P|31:94|73:152,1,110
197,247,64448,1,4,0:0:0:0:
228,66,64633,1,0,0:0:0:0:
228,66,64725,1,0,0:0:0:0:
228,66,64817,2,0,P|136:58|97:87,1,110
26,228,65185,1,4,0:0:0:0:
175,132,65369,1,0,0:0:0:0:
31,93,65553,5,0,0:0:0:0:
124,267,65737,1,0,0:0:0:0:
258,139,65921,1,4,0:0:0:0:
313,316,66105,1,0,3:0:0:0:
313,316,66197,1,0,3:0:0:0:
313,316,66289,2,0,P|309:262|328:210,1,110,0|0,3:0|3:0,3:0:0:0:
452,282,66657,1,4,0:0:0:0:
166,316,67025,6,0,P|207:280|232:232,1,110,4|0,2:0|0:0,0:0:0:0:
258,81,67393,1,4,0:0:0:0:
415,212,67577,1,0,0:0:0:0:
415,212,67669,1,0,0:0:0:0:
415,212,67761,6,0,P|361:202|315:172,1,110
249,0,68129,1,4,0:0:0:0:
232,232,68314,1,0,0:0:0:0:
127,43,68498,5,0,0:0:0:0:
144,275,68683,1,0,0:0:0:0:
315,172,68866,1,4,0:0:0:0:
141,76,69050,1,0,0:0:0:0:
141,76,69142,1,0,0:0:0:0:
141,76,69234,2,0,P|96:107|65:170,1,110
185,259,69602,2,0,P|180:204|141:146,1,110,4|0,0:0|0:0,0:0:0:0:
4,205,69970,6,0,P|53:228|123:223,1,110,0|0,0:0|3:0,3:0:0:0:
279,168,70338,1,4,0:0:0:0:
235,341,70522,1,0,0:0:0:0:
235,341,70614,1,0,0:0:0:0:
235,341,70706,2,0,P|207:293|203:239,1,110,0|0,3:0|3:0,3:0:0:0:
230,73,71074,1,4,0:0:0:0:
334,258,71258,1,0,0:0:0:0:
334,258,71442,5,4,2:0:0:0:
343,83,71626,1,0,0:0:0:0:
304,288,71810,1,4,0:0:0:0:
309,61,71994,1,0,0:0:0:0:
279,35,72087,1,0,0:0:0:0:
244,18,72179,2,4,P|188:4|127:19,1,110,4|0,2:0|0:0,2:0:0:0:
44,164,72547,1,4,0:0:0:0:
79,179,72639,1,0,0:0:0:0:
115,194,72731,1,0,0:0:0:0:
151,209,72823,1,0,0:0:0:0:
188,221,72915,6,0,P|220:176|264:143,1,110
407,96,73283,1,4,0:0:0:0:
390,262,73467,1,0,0:0:0:0:
390,262,73559,1,0,0:0:0:0:
390,262,73651,2,0,P|335:256|284:234,1,110
115,194,74019,2,0,P|164:171|219:164,1,110,4|0,0:0|0:0,0:0:0:0:
388,182,74387,5,0,0:0:0:0:
168,86,74571,1,0,0:0:0:0:
285,297,74755,1,4,0:0:0:0:
408,92,74939,1,0,0:0:0:0:
408,92,75031,1,0,0:0:0:0:
408,92,75123,2,0,P|452:123|485:167,1,110,0|0,0:0|3:0,3:0:0:0:
512,302,75491,1,4,0:0:0:0:
196,268,75860,6,0,P|155:219|146:138,1,110
300,163,76228,1,4,0:0:0:0:
209,357,76412,1,0,0:0:0:0:
209,357,76504,1,0,0:0:0:0:
209,357,76596,2,0,P|141:332|99:260,1,110
52,136,76964,1,4,0:0:0:0:
230,188,77148,1,0,0:0:0:0:
277,36,77332,5,0,0:0:0:0:
346,284,77516,1,0,0:0:0:0:
166,163,77700,1,4,0:0:0:0:
435,177,77884,1,0,0:0:0:0:
435,177,77976,1,0,0:0:0:0:
435,177,78068,2,0,P|369:241|317:253,1,110
222,262,78436,1,4,0:0:0:0:
169,64,78804,6,0,P|219:45|267:47,1,82.5000031471254,4|0,2:0|0:0,0:0:0:0:
360,65,79172,1,0,0:0:0:0:
457,124,79356,1,0,0:0:0:0:
276,140,79541,5,4,0:0:0:0:
219,231,79725,1,0,0:0:0:0:
116,263,79909,1,0,0:0:0:0:
29,199,80093,1,0,0:0:0:0:
170,121,80277,5,4,2:0:0:0:
276,140,80461,1,0,0:0:0:0:
327,233,80645,2,4,L|314:281,1,41.2500015735627
154,344,81013,5,4,0:0:0:0:
137,310,81105,1,4,0:0:0:0:
120,276,81197,1,4,0:0:0:0:
90,143,81381,1,0,0:0:0:0:
227,133,81565,1,0,0:0:0:0:
264,135,81657,1,0,0:0:0:0:
300,139,81749,6,0,P|356:153|390:191,1,110,4|0,2:0|0:0,0:0:0:0:
411,324,82117,1,4,0:0:0:0:
286,334,82301,1,0,0:0:0:0:
286,334,82393,1,0,0:0:0:0:
286,334,82485,2,0,P|277:280|303:232,1,110
429,141,82853,1,4,0:0:0:0:
411,324,83037,1,0,0:0:0:0:
300,139,83221,6,0,P|245:141|202:176,1,110
140,290,83590,1,4,0:0:0:0:
203,174,83774,1,0,0:0:0:0:
203,174,83866,1,0,0:0:0:0:
203,174,83958,6,0,P|201:119|166:76,1,110
17,181,84326,2,0,P|64:154|119:153,1,110,4|0,0:0|0:0,3:0:0:0:
90,235,84602,1,0,0:0:0:0:
90,235,84694,5,4,2:0:0:0:
80,39,84878,1,0,0:0:0:0:
209,102,85062,1,4,0:0:0:0:
238,262,85246,1,0,0:0:0:0:
238,262,85338,1,0,0:0:0:0:
238,262,85430,2,0,P|278:207|278:148,1,110
430,224,85798,2,0,P|402:139|419:85,1,110,4|0,0:0|0:0,3:0:0:0:
340,26,86074,1,0,0:0:0:0:
321,7,86166,6,0,P|248:-4|180:44,1,110
114,89,86534,1,4,0:0:0:0:
276,85,86718,1,0,0:0:0:0:
276,85,86810,1,0,0:0:0:0:
276,85,86902,2,0,P|203:94|150:158,1,110
110,223,87271,1,4,0:0:0:0:
252,178,87455,2,0,P|273:208|279:249,1,55
191,326,87639,6,0,P|245:325|293:350,1,110,4|0,2:0|0:0,3:0:0:0:
403,363,88007,1,4,0:0:0:0:
409,221,88191,1,0,0:0:0:0:
409,221,88283,1,0,0:0:0:0:
409,221,88375,2,0,P|364:191|338:143,1,110
321,5,88743,1,4,0:0:0:0:
278,225,88927,1,0,0:0:0:0:
205,42,89111,6,0,P|228:90|227:145,1,110,0|0,3:0|3:0,3:0:0:0:
165,292,89479,1,4,0:0:0:0:
54,182,89663,1,0,0:0:0:0:
54,182,89755,1,0,0:0:0:0:
54,182,89847,1,0,0:0:0:0:
151,109,90031,1,0,0:0:0:0:
72,285,90215,1,4,0:0:0:0:
250,176,90399,1,0,0:0:0:0:
250,176,90491,1,0,0:0:0:0:
250,176,90583,6,0,B|283:105|283:105|227:136,1,110,4|0,2:0|0:0,0:0:0:0:
72,285,90952,1,0,0:0:0:0:
158,126,91136,6,0,B|114:61|114:61|112:126,1,110,4|0,2:0|0:0,0:0:0:0:
163,334,91505,1,0,0:0:0:0:
69,180,91688,6,0,B|-9:186|-9:186|46:220,1,110,4|0,2:0|0:0,0:0:0:0:
252,280,92056,1,4,0:0:0:0:
73,285,92240,1,0,0:0:0:0:
215,175,92424,1,4,0:0:0:0:
163,334,92608,1,0,0:0:0:0:
163,334,92700,1,0,0:0:0:0:
163,334,92792,1,4,0:0:0:0:
69,180,92976,1,0,0:0:0:0:
163,334,93160,1,4,3:0:0:0:
200,345,93252,1,0,3:0:0:0:
241,340,93344,1,0,3:0:0:0:
275,316,93436,1,0,3:0:0:0:
299,281,93528,6,0,P|316:219|305:173,2,110,4|0|4,2:0|0:0|0:0,3:0:0:0:
210,263,94080,1,0,0:0:0:0:
210,263,94172,1,0,0:0:0:0:
210,263,94264,1,0,0:0:0:0:
182,136,94448,1,0,0:0:0:0:
132,315,94633,1,4,0:0:0:0:
80,185,94817,1,0,0:0:0:0:
137,58,95001,6,0,P|198:52|268:101,1,110,0|0,3:0|3:0,3:0:0:0:
382,135,95369,2,0,P|321:144|266:210,1,110,4|0,3:0|3:0,3:0:0:0:
364,221,95645,1,0,0:0:0:0:
364,221,95737,1,0,0:0:0:0:
403,43,95921,1,0,0:0:0:0:
448,196,96105,1,4,0:0:0:0:
381,306,96473,5,0,0:0:0:0:
282,261,96657,1,0,0:0:0:0:
382,135,96841,1,4,0:0:0:0:
218,172,97025,1,0,0:0:0:0:
218,172,97117,1,0,0:0:0:0:
218,172,97209,1,0,0:0:0:0:
364,221,97393,1,0,0:0:0:0:
281,98,97577,2,0,P|207:74|140:107,1,110,4|0,0:0|0:0,0:0:0:0:
53,148,97945,5,0,0:0:0:0:
102,37,98129,1,0,0:0:0:0:
218,172,98314,2,0,P|292:196|359:163,1,110,4|0,0:0|0:0,0:0:0:0:
405,156,98590,1,0,0:0:0:0:
405,156,98682,1,0,0:0:0:0:
304,278,98866,1,0,0:0:0:0:
281,98,99050,1,4,0:0:0:0:
492,56,99418,5,4,2:0:0:0:
405,156,99602,1,0,0:0:0:0:
361,31,99786,1,4,0:0:0:0:
274,131,99970,1,0,0:0:0:0:
274,131,100062,1,0,0:0:0:0:
274,131,100154,1,0,0:0:0:0:
421,81,100338,1,0,0:0:0:0:
360,237,100522,2,0,P|297:260|247:244,1,110,4|0,0:0|0:0,0:0:0:0:
147,146,100890,5,0,0:0:0:0:
195,292,101074,1,0,0:0:0:0:
301,180,101258,2,0,P|362:155|412:171,1,110,4|0,0:0|0:0,0:0:0:0:
473,224,101534,1,0,0:0:0:0:
473,224,101626,1,0,0:0:0:0:
360,237,101994,2,0,P|348:150|341:74,1,165,4|0,0:0|0:0,0:0:0:0:
340,73,102363,5,0,0:0:0:0:
480,138,102547,1,0,0:0:0:0:
360,237,102731,2,0,P|311:260|256:256,1,110,4|0,0:0|0:0,0:0:0:0:
298,183,103007,1,0,0:0:0:0:
298,183,103099,1,0,0:0:0:0:
132,193,103283,1,0,0:0:0:0:
206,44,103467,1,4,0:0:0:0:
256,256,103651,1,0,0:0:0:0:
340,73,103835,5,0,0:0:0:0:
213,195,104019,1,0,0:0:0:0:
185,31,104203,1,4,0:0:0:0:
339,156,104387,2,0,P|279:132|251:132,1,55
133,125,104571,1,0,0:0:0:0:
99,268,104755,1,0,0:0:0:0:
25,186,104939,1,4,0:0:0:0:
273,355,105307,6,0,P|286:282|255:224,1,110,4|0,2:0|0:0,0:0:0:0:
215,143,105675,1,4,3:0:0:0:
207,303,105860,1,0,3:0:0:0:
207,303,105952,1,0,3:0:0:0:
207,303,106044,2,0,P|146:260|127:197,1,110,0|0,3:0|3:0,3:0:0:0:
112,103,106412,1,4,3:0:0:0:
225,213,106596,1,0,3:0:0:0:
324,121,106780,6,0,P|377:81|470:65,1,110
436,284,107148,2,0,P|438:227|417:170,1,110,4|0,0:0|0:0,0:0:0:0:
366,241,107424,1,0,0:0:0:0:
366,241,107516,1,0,0:0:0:0:
324,121,107700,1,0,0:0:0:0:
308,303,107884,1,4,0:0:0:0:
128,309,108252,6,0,P|178:287|232:284,1,110
392,335,108620,2,0,P|347:302|317:255,1,110,4|0,0:0|0:0,0:0:0:0:
302,167,108896,1,0,0:0:0:0:
302,167,108988,1,0,0:0:0:0:
278,352,109172,1,0,0:0:0:0:
412,246,109356,2,0,P|441:190|446:128,1,110,4|0,0:0|0:0,0:0:0:0:
434,14,109725,5,0,0:0:0:0:
360,167,109909,1,0,0:0:0:0:
484,80,110093,5,4,0:0:0:0:
312,95,110277,1,0,0:0:0:0:
312,95,110369,1,0,0:0:0:0:
312,95,110461,1,0,0:0:0:0:
320,260,110645,1,0,0:0:0:0:
395,92,110829,1,4,0:0:0:0:
240,334,111197,6,0,P|174:306|99:317,1,110,4|0,2:0|0:0,0:0:0:0:
23,332,111565,1,4,0:0:0:0:
57,220,111749,1,0,0:0:0:0:
57,220,111841,1,0,0:0:0:0:
57,220,111933,2,0,P|87:174|132:144,1,110
253,260,112301,1,4,0:0:0:0:
294,97,112485,1,0,0:0:0:0:
388,269,112669,6,0,P|365:205|375:137,1,110
388,42,113037,1,4,0:0:0:0:
274,88,113221,1,0,3:0:0:0:
274,88,113314,1,0,3:0:0:0:
273,86,113406,2,0,P|225:58|171:51,1,110
41,77,113774,2,0,P|115:100|146:193,1,165,4|0,0:0|0:0,0:0:0:0:
148,175,114142,5,0,0:0:0:0:
207,84,114326,1,0,0:0:0:0:
308,40,114510,2,0,P|351:73|376:124,1,110
294,125,114786,1,0,0:0:0:0:
294,125,114878,1,0,0:0:0:0:
376,223,115062,1,0,0:0:0:0:
293,274,115246,2,0,B|238:263|203:209,1,110,4|0,0:0|0:0,0:0:0:0:
128,40,115614,5,4,2:0:0:0:
318,148,115798,1,0,3:0:0:0:
136,219,115982,1,4,3:0:0:0:
327,51,116166,1,0,3:0:0:0:
309,245,116350,1,0,3:0:0:0:
132,129,116534,1,4,3:0:0:0:
327,51,116718,1,0,3:0:0:0:
363,57,116810,1,0,3:0:0:0:
394,75,116902,1,0,3:0:0:0:
419,102,116994,1,0,3:0:0:0:
431,138,117087,6,0,P|443:210|432:259,1,110,4|0,3:0|3:0,3:0:0:0:
358,343,117455,1,0,0:0:0:0:
248,335,117639,1,0,0:0:0:0:
309,243,117823,1,4,0:0:0:0:
200,235,118007,1,0,0:0:0:0:
262,144,118191,1,0,0:0:0:0:
371,153,118375,1,4,0:0:0:0:
371,153,118467,1,4,0:0:0:0:
371,153,118559,5,4,0:0:0:0:
309,243,118743,1,0,0:0:0:0:
358,343,118927,1,0,0:0:0:0:
248,335,119111,1,0,0:0:0:0:
418,251,119295,1,4,0:0:0:0:
309,243,119479,1,0,0:0:0:0:
248,335,119663,1,4,0:0:0:0:
207,333,119755,1,4,0:0:0:0:
170,324,119847,1,4,0:0:0:0:
133,308,119939,1,4,0:0:0:0:
104,281,120031,6,0,P|70:237|55:184,1,110,4|0,2:0|3:0,3:0:0:0:
74,45,120399,1,0,0:0:0:0:
154,189,120583,1,0,0:0:0:0:
208,76,120767,1,4,0:0:0:0:
232,238,120952,1,0,0:0:0:0:
132,105,121136,1,0,0:0:0:0:
309,88,121320,1,4,0:0:0:0:
333,92,121412,1,4,0:0:0:0:
354,107,121504,6,0,P|376:167|362:225,1,110,4|0,2:0|0:0,0:0:0:0:
264,351,121872,1,0,0:0:0:0:
269,172,122056,1,0,0:0:0:0:
170,272,122240,1,4,0:0:0:0:
326,284,122424,1,0,0:0:0:0:
471,287,122608,1,4,0:0:0:0:
442,299,122700,1,4,0:0:0:0:
413,313,122792,1,4,0:0:0:0:
382,326,122884,1,4,0:0:0:0:
354,340,122976,6,0,P|288:331|244:283,1,110,4|0,2:0|0:0,0:0:0:0:
179,169,123344,1,0,0:0:0:0:
359,146,123528,1,0,0:0:0:0:
327,262,123712,1,4,0:0:0:0:
267,79,123896,1,0,0:0:0:0:
405,222,124080,1,0,0:0:0:0:
256,304,124264,1,4,0:0:0:0:
224,312,124356,1,4,0:0:0:0:
192,318,124448,6,0,L|169:206,1,110,4|0,0:0|0:0,0:0:0:0:
56,192,124817,2,0,P|82:133|150:99,1,110
269,77,125185,1,4,0:0:0:0:
169,210,125369,1,0,0:0:0:0:
332,169,125553,1,4,0:0:0:0:
312,202,125645,1,4,0:0:0:0:
291,235,125737,1,4,0:0:0:0:
273,268,125829,1,4,0:0:0:0:
248,301,125921,6,0,P|193:347|156:354,1,110,4|0,2:0|0:0,0:0:0:0:
65,206,126289,2,0,P|132:229|157:258,1,110,4|0,0:0|0:0,0:0:0:0:
269,77,126657,2,0,P|222:131|215:168,1,110
248,301,127025,1,0,0:0:0:0:
414,201,127209,1,4,0:0:0:0:
420,174,127301,1,4,0:0:0:0:
424,147,127393,6,0,P|360:146|291:163,1,110,4|0,0:0|0:0,0:0:0:0:
154,225,127761,2,0,P|215:220|287:241,1,110
424,147,128129,2,0,P|363:142|314:163,1,110
199,308,128498,1,4,3:0:0:0:
160,308,128590,1,4,3:0:0:0:
122,305,128682,1,4,3:0:0:0:
87,291,128774,1,4,3:0:0:0:
57,266,128866,6,0,P|24:235|10:166,1,110,4|4,2:0|0:0,0:0:0:0:
117,176,129234,2,0,L|222:209,1,110,4|0,0:0|0:0,0:0:0:0:
282,119,129602,2,0,P|320:159|330:212,1,110,4|4,0:0|0:0,0:0:0:0:
282,294,129878,1,4,0:0:0:0:
282,294,129970,1,4,0:0:0:0:
428,216,130154,5,4,0:0:0:0:
428,216,130246,1,0,0:0:0:0:
428,216,130338,2,0,P|412:268|371:303,1,110,4|4,0:0|0:0,0:0:0:0:
213,362,130706,1,4,0:0:0:0:
196,355,131074,6,0,P|163:311|151:257,1,110,4|0,0:0|0:0,0:0:0:0:
159,180,131350,1,4,0:0:0:0:
159,180,131442,1,4,0:0:0:0:
302,80,131626,1,0,0:0:0:0:
341,73,131718,1,4,0:0:0:0:
380,71,131810,6,0,P|447:88|479:140,1,110,4|4,2:0|0:0,2:0:0:0:
390,276,132179,2,0,P|371:209|400:155,1,110,4|0,0:0|0:0,0:0:0:0:
380,71,132547,2,0,P|341:32|288:24,1,110,4|0,0:0|0:0,0:0:0:0:
211,57,132823,1,0,0:0:0:0:
211,57,132915,1,4,0:0:0:0:
120,208,133099,1,0,0:0:0:0:
145,234,133191,1,4,0:0:0:0:
175,258,133283,6,0,P|224:283|288:271,1,110,4|0,0:0|0:0,0:0:0:0:
353,243,133559,1,4,0:0:0:0:
353,243,133651,1,4,0:0:0:0:
305,103,133835,1,0,0:0:0:0:
237,207,134019,1,4,0:0:0:0:
374,158,134203,1,4,0:0:0:0:
160,132,134387,1,4,0:0:0:0:
277,52,134571,1,4,0:0:0:0:
314,42,134663,1,0,0:0:0:0:
353,38,134755,6,0,P|418:59|442:96,1,110,4|0,2:0|0:0,0:0:0:0:
456,271,135123,1,4,0:0:0:0:
365,119,135307,1,0,0:0:0:0:
284,325,135491,1,4,0:0:0:0:
268,157,135675,1,0,0:0:0:0:
141,260,135860,1,4,0:0:0:0:
284,325,136044,1,4,0:0:0:0:
320,312,136136,1,4,0:0:0:0:
355,297,136228,6,0,P|414:245|424:205,1,110,4|0,0:0|0:0,0:0:0:0:
358,36,136596,1,4,0:0:0:0:
334,215,136780,1,0,0:0:0:0:
232,30,136964,2,0,P|162:65|145:109,1,110,4|0,0:0|0:0,0:0:0:0:
154,272,137332,1,4,0:0:0:0:
230,114,137516,1,4,0:0:0:0:
230,114,137608,1,4,0:0:0:0:
230,114,137700,5,4,0:0:0:0:
378,282,137884,1,0,0:0:0:0:
449,70,138068,1,4,0:0:0:0:
191,145,138252,5,0,0:0:0:0:
420,300,138436,1,4,0:0:0:0:
441,21,138620,1,4,0:0:0:0:
441,21,138712,1,4,0:0:0:0:
441,21,138804,1,4,0:0:0:0:
280,251,138988,1,0,0:0:0:0:
188,44,139172,6,0,P|135:62|103:106,1,110,4|0,2:0|0:0,0:0:0:0:
90,193,139448,1,0,0:0:0:0:
90,193,139541,1,0,0:0:0:0:
153,319,139725,1,0,0:0:0:0:
443,121,140277,1,6,0:0:0:0:
403,140,140369,1,4,0:0:0:0:
360,149,140461,1,6,0:0:0:0:
316,150,140553,1,4,0:0:0:0:
272,150,140645,6,0,P|179:188|151:225,1,110,4|0,2:0|0:0,0:0:0:0:
63,320,141013,1,4,0:0:0:0:
247,355,141197,1,0,0:0:0:0:
247,355,141289,1,0,0:0:0:0:
247,355,141381,2,0,P|260:255|242:212,1,110,0|0,3:0|3:0,3:0:0:0:
76,237,141749,2,0,P|120:205|174:193,1,110,4|0,3:0|3:0,3:0:0:0:
365,187,142117,5,0,0:0:0:0:
182,276,142301,1,0,0:0:0:0:
377,285,142485,1,4,0:0:0:0:
306,113,142669,1,0,0:0:0:0:
306,113,142761,1,0,0:0:0:0:
306,113,142853,2,0,P|261:82|207:78,1,110,0|0,0:0|0:0,3:0:0:0:
83,115,143221,1,4,0:0:0:0:
400,133,143589,6,0,P|367:175|302:204,1,110
151,207,143957,1,4,0:0:0:0:
206,53,144142,1,0,3:0:0:0:
206,53,144234,1,0,3:0:0:0:
206,53,144326,2,0,P|276:74|309:118,1,110,0|0,3:0|3:0,3:0:0:0:
337,236,144694,1,4,0:0:0:0:
216,142,144878,1,0,0:0:0:0:
142,312,145062,5,0,0:0:0:0:
307,160,145246,1,0,0:0:0:0:
174,224,145430,1,4,0:0:0:0:
390,307,145614,1,0,0:0:0:0:
390,307,145706,1,0,0:0:0:0:
390,307,145798,2,0,P|448:272|472:208,1,110,0|0,0:0|3:0,0:0:0:0:
454,90,146166,1,4,0:0:0:0:
232,116,146534,6,0,P|259:163|264:217,1,110,4|0,2:0|3:0,3:0:0:0:
214,355,146902,1,4,0:0:0:0:
86,241,147086,1,0,0:0:0:0:
86,241,147178,1,0,0:0:0:0:
86,241,147271,2,0,P|125:204|179:193,1,110,0|0,0:0|3:0,0:0:0:0:
341,240,147639,1,4,0:0:0:0:
379,38,147823,1,0,0:0:0:0:
266,201,148007,5,0,0:0:0:0:
249,57,148191,1,0,0:0:0:0:
394,169,148375,1,4,0:0:0:0:
282,307,148559,1,0,0:0:0:0:
282,307,148651,1,0,0:0:0:0:
282,307,148743,2,0,P|219:333|163:334,1,110
94,103,149111,2,0,P|157:77|213:76,1,110,4|0,0:0|0:0,0:0:0:0:
369,213,149479,6,0,P|319:190|264:185,1,110
103,234,149847,1,4,0:0:0:0:
207,262,150031,1,0,0:0:0:0:
207,262,150123,1,0,0:0:0:0:
207,262,150215,2,0,P|168:196|183:121,1,110
327,101,150583,2,0,P|307:150|264:185,1,110,4|0,0:0|0:0,0:0:0:0:
196,70,150951,5,4,2:0:0:0:
196,70,151135,1,0,0:0:0:0:
289,268,151320,1,4,0:0:0:0:
266,35,151503,1,0,0:0:0:0:
228,48,151596,1,0,0:0:0:0:
196,70,151688,2,0,P|155:111|138:171,1,110,4|0,2:0|0:0,0:0:0:0:
250,327,152056,1,0,0:0:0:0:
281,304,152148,1,0,0:0:0:0:
311,280,152240,1,0,0:0:0:0:
343,256,152332,1,0,0:0:0:0:
372,230,152424,6,0,P|394:165|397:97,1,110,4|0,2:0|0:0,0:0:0:0:
256,59,152792,1,4,0:0:0:0:
194,251,152976,1,0,3:0:0:0:
194,251,153068,1,0,3:0:0:0:
194,251,153160,2,0,P|173:199|166:145,1,110,0|0,3:0|3:0,3:0:0:0:
273,336,153528,2,0,P|294:284|301:230,1,110,4|0,0:0|3:3,0:0:0:0:
281,51,153896,5,0,0:0:0:0:
247,176,154080,1,0,0:0:0:0:
403,70,154264,1,4,0:0:0:0:
432,189,154448,1,0,0:0:0:0:
432,189,154540,1,0,0:0:0:0:
432,189,154632,2,0,P|404:258|364:294,1,110
273,336,155000,1,4,0:0:0:0:
46,126,155369,6,0,P|103:99|184:111,1,110
333,199,155737,1,4,0:0:0:0:
174,280,155921,1,0,3:0:0:0:
174,280,156013,1,0,3:0:0:0:
174,280,156105,2,0,P|127:224|127:140,1,110,0|0,3:0|3:0,3:0:0:0:
221,6,156473,1,4,0:0:0:0:
211,197,156657,1,0,0:0:0:0:
366,95,156841,5,0,0:0:0:0:
138,127,157025,1,0,0:0:0:0:
292,260,157209,1,4,0:0:0:0:
301,38,157393,1,0,0:0:0:0:
301,38,157485,1,0,0:0:0:0:
301,38,157577,2,0,P|281:109|317:170,1,110
398,176,157945,1,4,0:0:0:0:
163,336,158314,6,0,P|212:315|245:279,1,82.5000031471254,4|0,2:0|0:0,0:0:0:0:
298,201,158682,1,0,0:0:0:0:
325,90,158866,1,0,0:0:0:0:
409,206,159051,5,0,0:0:0:0:
352,297,159235,1,0,0:0:0:0:
249,329,159419,1,0,0:0:0:0:
162,265,159603,1,0,0:0:0:0:
303,187,159786,5,4,2:0:0:0:
409,206,159970,1,0,0:0:0:0:
460,299,160154,2,0,L|447:347,1,41.2500015735627
244,342,160523,5,0,0:0:0:0:
254,305,160615,1,0,0:0:0:0:
265,269,160707,1,0,0:0:0:0:
359,187,160891,1,0,0:0:0:0:
460,299,161074,1,0,0:0:0:0:
460,299,161166,1,0,0:0:0:0:
460,299,161258,6,0,P|397:282|362:243,1,82.5000031471254
359,187,161626,1,0,0:0:0:0:
463,174,161810,1,0,0:0:0:0:
411,115,161994,2,0,P|375:93|335:88,1,82.5000031471254,4|0,0:0|0:0,0:0:0:0:
265,157,162363,1,0,0:0:0:0:
217,55,162547,1,0,0:0:0:0:
225,64,162639,1,0,0:0:0:0:
225,64,162731,6,0,P|189:83|168:119,1,82.5000031471254,0|0,3:0|3:0,3:0:0:0:
164,227,163099,1,0,0:0:0:0:
257,253,163283,1,0,0:0:0:0:
196,306,163467,1,0,0:0:0:0:
268,337,163835,1,4,0:0:0:0:
247,336,163927,1,4,0:0:0:0:
227,331,164019,1,4,0:0:0:0:
210,320,164111,1,4,0:0:0:0:
196,306,164203,6,0,P|173:262|176:208,1,82.5000031471254,4|0,2:0|0:0,0:0:0:0:
199,124,164571,1,0,0:0:0:0:
212,113,164755,1,0,0:0:0:0:
362,182,164939,1,4,0:0:0:0:
353,201,165123,1,0,0:0:0:0:
253,244,165307,1,0,0:0:0:0:
347,91,165491,1,4,0:0:0:0:
347,91,165583,1,4,0:0:0:0:
347,91,165675,6,0,P|413:101|446:134,1,82.5000031471254,4|0,0:0|0:0,0:0:0:0:
495,202,166044,1,0,0:0:0:0:
362,182,166228,1,0,0:0:0:0:
337,312,166412,1,0,0:0:0:0:
72,83,166780,1,4,0:0:0:0:
71,110,166872,1,4,0:0:0:0:
76,137,166964,1,4,0:0:0:0:
85,163,167056,1,4,0:0:0:0:
100,187,167148,6,0,P|141:227|194:238,1,110,4|0,2:0|0:0,0:0:0:0:
283,82,167516,2,0,P|227:97|191:137,1,110,4|0,0:0|0:0,0:0:0:0:
129,311,167884,1,4,0:0:0:0:
342,252,168068,1,4,0:0:0:0:
342,252,168160,1,4,0:0:0:0:
342,252,168252,2,4,P|311:190|247:174,1,110,0|0,0:0|0:0,0:0:0:0:
100,187,168620,5,4,0:0:0:0:
152,34,168804,1,0,0:0:0:0:
191,214,168988,1,4,0:0:0:0:
60,97,169172,1,0,0:0:0:0:
126,303,169356,1,4,0:0:0:0:
272,143,169541,1,4,0:0:0:0:
272,143,169633,1,4,0:0:0:0:
272,143,169725,2,0,P|315:108|369:101,1,110,4|0,0:0|0:0,0:0:0:0:
471,204,170093,6,0,P|427:238|373:245,1,110,4|0,2:0|0:0,0:0:0:0:
191,214,170461,1,4,0:0:0:0:
256,42,170645,1,0,0:0:0:0:
279,263,170829,1,4,0:0:0:0:
104,161,171013,1,4,0:0:0:0:
104,161,171105,1,4,0:0:0:0:
104,161,171197,2,4,P|62:123|58:56,1,110,4|0,0:0|0:0,0:0:0:0:
256,42,171565,5,4,0:0:0:0:
191,214,171749,1,0,0:0:0:0:
392,108,171933,1,4,0:0:0:0:
180,111,172117,1,0,0:0:0:0:
348,31,172301,1,4,0:0:0:0:
135,133,172485,1,0,0:0:0:0:
127,176,172577,1,0,0:0:0:0:
132,219,172669,1,0,0:0:0:0:
148,260,172761,1,0,0:0:0:0:
175,295,172853,1,0,0:0:0:0:
211,321,172945,1,0,0:0:0:0:
252,338,173037,6,0,P|334:350|370:343,1,110,4|0,2:0|0:0,0:0:0:0:
442,181,173406,2,0,P|364:210|336:235,1,110,4|0,0:0|0:0,3:0:0:0:
79,342,173774,2,0,P|132:329|175:294,1,110
344,226,174142,2,0,P|291:213|248:178,1,110,4|0,0:0|0:0,0:0:0:0:
215,23,174510,5,0,0:0:0:0:
378,42,174694,1,0,0:0:0:0:
378,42,174878,2,0,P|365:95|330:138,1,110,4|0,0:0|0:0,0:0:0:0:
160,203,175246,1,0,0:0:0:0:
268,310,175430,1,0,0:0:0:0:
390,175,175614,1,4,0:0:0:0:
442,341,175798,1,0,0:0:0:0:
442,341,175982,6,0,P|389:328|352:289,1,110
309,114,176350,1,4,0:0:0:0:
432,246,176534,1,0,0:0:0:0:
431,245,176718,2,0,P|394:206|342:194,1,110
176,323,177087,1,4,0:0:0:0:
352,289,177271,1,0,0:0:0:0:
145,148,177455,5,4,2:0:0:0:
404,160,177639,1,0,0:0:0:0:
431,245,177823,1,4,0:0:0:0:
172,233,178007,1,0,0:0:0:0:
135,312,178191,1,4,2:0:0:0:
377,315,178375,1,0,0:0:0:0:
145,148,178559,2,0,P|207:152|250:209,1,110,4|0,0:0|0:0,0:0:0:0:
446,152,178927,5,4,2:0:0:0:
428,165,179019,1,0,0:0:0:0:
409,177,179111,2,0,P|378:193|346:199,1,55
263,187,179295,1,4,0:0:0:0:
255,342,179479,1,0,0:0:0:0:
241,319,179571,1,0,0:0:0:0:
225,297,179663,2,0,P|199:266|176:254,1,55,4|0,0:0|0:0,0:0:0:0:
86,216,179847,1,0,0:0:0:0:
186,97,180031,1,4,0:0:0:0:
218,84,180123,1,0,0:0:0:0:
249,73,180215,2,0,P|304:68|336:80,1,55
414,92,180399,5,4,0:0:0:0:
442,275,180583,1,0,0:0:0:0:
406,261,180675,1,0,0:0:0:0:
368,248,180767,2,0,P|326:227|299:195,1,55,4|0,0:0|0:0,0:0:0:0:
276,142,180952,1,0,0:0:0:0:
102,211,181136,1,4,0:0:0:0:
138,235,181228,1,0,0:0:0:0:
175,258,181320,2,0,P|224:280|268:276,1,55
370,300,181504,2,0,P|369:234|347:197,1,110,4|0,0:0|0:0,0:0:0:0:
222,88,181872,5,4,2:0:0:0:
298,263,182056,1,0,0:0:0:0:
406,77,182240,2,0,P|401:148|381:194,1,110,4|0,0:0|0:0,0:0:0:0:
235,329,182608,1,4,0:0:0:0:
278,168,182792,1,0,0:0:0:0:
278,168,182884,1,0,0:0:0:0:
278,168,182976,1,4,0:0:0:0:
117,300,183160,1,0,0:0:0:0:
283,331,183344,5,0,0:0:0:0:
283,331,183467,2,0,P|322:303|350:250,1,73.3333333333333
396,216,183712,5,0,0:0:0:0:
396,216,183835,2,0,P|352:196|292:198,1,73.3333333333333
237,179,184080,5,0,0:0:0:0:
237,179,184203,2,0,P|242:227|274:278,1,73.3333333333333
164,119,184448,5,0,0:0:0:0:
164,119,184571,2,0,P|144:162|146:222,1,73.3333333333333
144,304,184817,5,0,0:0:0:0:
419,352,185185,1,0,0:0:0:0:
477,368,185369,1,0,0:0:0:0:
448,262,185553,2,0,P|433:199|434:151,1,82.5000031471254
357,261,185921,1,0,0:0:0:0:
262,204,186289,5,0,0:0:0:0:
357,150,186473,1,0,0:0:0:0:
357,261,186657,2,0,P|327:298|265:318,1,82.5000031471254
171,254,187025,1,0,0:0:0:0:
427,68,187393,2,0,P|458:95|480:130,1,82.5000031471254,4|0,2:0|0:0,0:0:0:0:
435,288,187761,5,0,0:0:0:0:
77,96,188129,1,0,0:0:0:0:
395,159,188498,1,0,0:0:0:0:
117,225,188866,2,0,P|56:266|26:350,2,165.000006294251
256,192,189970,1,0,0:0:0:0:
425,169,190338,5,0,0:0:0:0:
339,172,190522,1,0,0:0:0:0:
256,192,190706,2,0,P|202:221|151:312,1,165.000006294251
261,300,191258,1,0,0:0:0:0:
261,300,191442,2,0,P|315:271|366:180,1,165.000006294251
258,190,192179,5,0,0:0:0:0:
163,244,192363,1,0,0:0:0:0:
163,133,192547,2,0,P|193:96|255:76,1,82.5000031471254
349,140,192915,1,0,0:0:0:0:
40,330,193283,2,0,P|73:277|72:238,1,82.5,0|0,0:0|0:0,3:0:0:0:
20,126,193651,6,0,P|72:159|111:158,1,82.5,0|0,0:0|0:0,3:0:0:0:
224,106,194019,2,0,P|190:158|191:197,1,82.5,0|0,0:0|0:0,3:0:0:0:
243,309,194387,2,0,P|212:283|172:274,1,82.5,0|0,0:0|0:0,3:0:0:0:
0,267,194755,1,0,0:0:0:0:
91,107,195123,6,0,P|142:36|241:36,2,165.000006294251
156,308,196228,1,0,0:0:0:0:
255,330,196412,1,0,0:0:0:0:
354,308,196596,5,4,2:0:0:0:
103,231,196964,1,0,0:0:0:0:
247,196,197148,1,0,0:0:0:0:
165,177,197332,1,0,0:0:0:0:
354,308,197516,2,0,P|396:333|441:337,1,82.5000031471254
417,192,198068,6,0,P|399:134|361:105,1,82.5000031471254
309,74,198344,1,0,0:0:0:0:
309,74,198436,1,0,0:0:0:0:
334,186,198620,1,0,0:0:0:0:
383,28,198804,1,0,0:0:0:0:
381,238,199172,1,0,0:0:0:0:
314,298,199356,1,0,0:0:0:0:
377,331,199541,6,0,P|444:302|453:188,1,165.000006294251
417,107,200093,1,0,0:0:0:0:
295,210,200277,2,0,P|273:156|287:107,1,82.5000031471254
309,54,200645,1,0,0:0:0:0:
64,46,201013,6,0,P|69:101|97:144,1,82.5000031471254
144,199,201289,1,0,0:0:0:0:
144,199,201381,1,0,0:0:0:0:
153,72,201565,1,0,0:0:0:0:
49,213,201749,1,0,0:0:0:0:
271,293,202117,5,0,0:0:0:0:
243,258,202209,1,0,0:0:0:0:
224,217,202301,1,0,0:0:0:0:
219,173,202393,1,0,0:0:0:0:
226,129,202485,6,0,P|247:73|243:22,1,110,4|0,2:0|0:0,0:0:0:0:
94,55,202853,1,4,0:0:0:0:
301,82,203037,1,0,0:0:0:0:
128,145,203221,1,4,0:0:0:0:
336,171,203406,1,0,0:0:0:0:
171,232,203590,1,4,0:0:0:0:
379,258,203774,1,0,0:0:0:0:
379,258,203866,1,0,0:0:0:0:
379,258,203958,5,4,0:0:0:0:
301,82,204142,1,0,0:0:0:0:
171,232,204326,1,4,0:0:0:0:
336,171,204510,1,0,0:0:0:0:
271,311,204694,1,4,0:0:0:0:
128,145,204878,1,0,0:0:0:0:
379,258,205062,1,4,0:0:0:0:
131,295,205246,1,4,0:0:0:0:
131,295,205338,1,4,0:0:0:0:
131,295,205430,6,0,P|209:242|233:198,1,110,4|0,2:0|0:0,0:0:0:0:
282,67,205798,1,4,0:0:0:0:
143,250,205982,1,0,0:0:0:0:
375,218,206166,1,4,2:0:0:0:
133,153,206350,1,0,0:0:0:0:
360,125,206534,1,4,0:0:0:0:
216,310,206718,1,0,0:0:0:0:
193,80,206902,5,4,2:0:0:0:
320,298,207087,1,0,0:0:0:0:
143,250,207271,5,0,0:0:0:0:
360,125,207456,1,4,0:0:0:0:
434,164,207823,5,4,0:0:0:0:
78,220,208007,1,4,0:0:0:0:
111,120,208375,5,4,2:0:0:0:
62,242,208559,1,0,0:0:0:0:
100,260,208651,1,0,0:0:0:0:
141,248,208743,1,4,0:0:0:0:
177,274,208835,1,0,0:0:0:0:
221,274,208927,1,0,0:0:0:0:
212,102,209111,1,4,0:0:0:0:
251,122,209203,1,0,0:0:0:0:
294,114,209295,1,0,0:0:0:0:
336,112,209387,1,0,0:0:0:0:
369,137,209479,1,4,0:0:0:0:
394,172,209571,1,0,0:0:0:0:
437,175,209663,1,0,0:0:0:0:
450,216,209755,1,0,0:0:0:0:
438,257,209847,6,0,P|385:239|331:238,1,110,4|0,2:0|0:0,0:0:0:0:
132,275,210215,1,4,0:0:0:0:
269,354,210399,1,0,0:0:0:0:
269,354,210491,1,0,0:0:0:0:
269,354,210583,1,0,0:0:0:0:
290,200,210767,1,0,0:0:0:0:
432,343,210952,1,4,0:0:0:0:
405,190,211136,1,0,0:0:0:0:
217,272,211319,5,0,0:0:0:0:
340,120,211503,1,0,0:0:0:0:
351,315,211687,1,4,0:0:0:0:
248,145,211871,1,0,0:0:0:0:
248,145,211963,1,0,0:0:0:0:
248,145,212055,2,0,P|212:67|226:11,1,110,0|0,0:0|0:0,3:0:0:0:
313,207,212423,1,4,0:0:0:0:
63,331,212791,6,0,P|116:337|182:312,1,110,0|0,3:0|3:0,3:0:0:0:
287,255,213159,1,4,0:0:0:0:
108,186,213344,1,0,0:0:0:0:
108,186,213436,1,0,0:0:0:0:
108,186,213528,2,0,P|123:95|161:65,1,110
368,44,213896,1,4,0:0:0:0:
202,156,214080,1,0,0:0:0:0:
284,12,214264,5,0,0:0:0:0:
282,236,214448,1,0,0:0:0:0:
299,100,214632,1,4,0:0:0:0:
182,276,214816,1,0,0:0:0:0:
182,276,214908,1,0,0:0:0:0:
182,276,215000,2,0,P|215:321|263:348,1,110,0|0,0:0|3:0,0:0:0:0:
390,340,215368,1,4,0:0:0:0:
61,119,215736,6,0,P|108:92|162:86,1,110,4|0,2:0|3:0,3:0:0:0:
360,119,216104,1,4,0:0:0:0:
182,276,216288,1,0,0:0:0:0:
182,276,216380,1,0,0:0:0:0:
182,276,216472,2,0,P|147:230|139:155,1,110
228,8,216840,1,4,0:0:0:0:
233,198,217025,1,0,0:0:0:0:
335,51,217209,5,0,0:0:0:0:
301,267,217393,1,0,0:0:0:0:
162,86,217577,1,4,0:0:0:0:
405,171,217761,1,0,3:0:0:0:
405,171,217853,1,0,3:0:0:0:
405,171,217945,2,0,P|436:205|450:273,1,110,0|0,3:0|3:0,3:0:0:0:
241,354,218314,2,0,P|255:309|306:263,1,110
177,216,218682,6,0,P|186:170|164:104,1,110
61,7,219049,1,4,0:0:0:0:
83,232,219233,1,0,0:0:0:0:
83,232,219325,1,0,0:0:0:0:
83,232,219418,2,0,P|97:276|148:322,1,110
169,110,219786,2,8,P|208:135|238:197,1,110,12|8,3:0|3:0,3:0:0:0:
266,352,220153,5,4,2:0:0:0:
390,148,220337,1,0,0:0:0:0:
266,352,220521,1,4,0:0:0:0:
365,118,220705,1,0,0:0:0:0:
342,85,220798,1,0,0:0:0:0:
313,60,220890,2,0,P|262:31|199:30,1,110,4|0,2:0|0:0,0:0:0:0:
60,131,221258,1,4,0:0:0:0:
90,155,221350,1,0,0:0:0:0:
120,179,221442,1,0,0:0:0:0:
151,203,221534,1,0,0:0:0:0:
184,224,221626,6,0,P|252:228|319:214,1,110,4|0,2:0|0:0,0:0:0:0:
442,146,221994,1,4,0:0:0:0:
317,45,222178,1,0,0:0:0:0:
317,45,222270,1,0,0:0:0:0:
317,45,222362,2,0,P|270:78|240:122,1,110
37,238,222730,2,0,P|98:214|157:213,1,110,4|0,0:0|0:0,0:0:0:0:
354,284,223098,5,0,0:0:0:0:
326,135,223282,1,0,0:0:0:0:
202,274,223466,1,4,0:0:0:0:
140,107,223650,1,0,0:0:0:0:
140,107,223742,1,0,0:0:0:0:
140,107,223834,2,0,P|103:57|50:48,1,110
27,194,224202,1,4,0:0:0:0:
418,315,224571,6,0,P|381:262|305:233,1,110
175,190,224939,1,4,0:0:0:0:
247,344,225123,1,0,0:0:0:0:
247,344,225215,1,0,0:0:0:0:
247,344,225307,2,0,P|234:290|246:237,1,110
322,86,225675,1,4,0:0:0:0:
329,323,225859,1,0,0:0:0:0:
416,127,226043,5,0,0:0:0:0:
203,140,226227,1,0,0:0:0:0:
395,48,226411,1,4,0:0:0:0:
423,280,226595,1,0,0:0:0:0:
423,280,226687,1,0,0:0:0:0:
423,280,226779,2,0,P|373:319|310:317,1,110
344,232,227147,1,4,0:0:0:0:
169,64,227516,6,0,P|219:45|267:47,1,82.5000031471254,4|0,2:0|0:0,0:0:0:0:
360,65,227884,1,0,0:0:0:0:
457,124,228068,1,0,0:0:0:0:
206,170,228252,6,0,P|247:166|285:150,1,82.5000031471254,4|0,2:0|0:0,0:0:0:0:
331,263,228620,1,0,0:0:0:0:
431,190,228805,1,0,0:0:0:0:
431,190,228988,6,0,B|428:145|508:179|554:137|557:66|498:23|446:67|446:67|440:11|388:16|358:11|340:45|320:109|382:112|365:160,1,495.000018882752,4|0,2:0|0:0,0:0:0:0:
350,313,230277,1,0,0:0:0:0:
350,313,230369,1,0,0:0:0:0:
350,313,230461,6,0,P|271:335|234:320,1,110
90,303,230829,2,0,P|110:223|141:199,1,110,4|0,0:0|0:0,0:0:0:0:
211,163,231105,1,0,0:0:0:0:
211,163,231197,1,0,0:0:0:0:
175,278,231381,1,0,0:0:0:0:
125,107,231565,1,4,0:0:0:0:
295,157,231749,1,0,0:0:0:0:
421,23,231933,6,0,B|401:80|401:80|365:131,1,110
323,269,232301,2,0,B|278:247|278:247|232:208,1,110,4|0,0:0|0:0,0:0:0:0:
174,148,232577,1,0,0:0:0:0:
174,148,232669,1,0,0:0:0:0:
322,47,232853,1,0,0:0:0:0:
315,176,233037,1,4,0:0:0:0:
107,75,233221,1,0,0:0:0:0:
107,75,233314,1,0,0:0:0:0:
107,75,233406,6,0,P|80:135|85:198,1,110
107,294,233774,1,4,0:0:0:0:
174,151,233958,1,0,0:0:0:0:
174,151,234050,1,0,0:0:0:0:
174,151,234142,2,0,P|221:103|307:84,2,110,0|0|4,0:0|0:0|0:0,0:0:0:0:
215,293,234694,1,0,0:0:0:0:
215,293,234786,1,0,0:0:0:0:
215,293,234878,5,0,0:0:0:0:
268,180,235062,1,0,0:0:0:0:
405,189,235246,2,0,P|453:256|448:320,1,110,4|0,0:0|0:0,0:0:0:0:
415,364,235522,1,0,0:0:0:0:
415,364,235614,2,0,P|367:297|372:233,1,110
405,106,235982,1,4,0:0:0:0:
512,234,236166,1,0,0:0:0:0:
512,234,236258,1,0,0:0:0:0:
512,234,236350,6,0,P|457:204|369:198,1,110,4|0,2:0|0:0,0:0:0:0:
288,246,236718,1,4,0:0:0:0:
169,180,236902,2,0,P|131:165|107:165,2,55
227,297,237271,1,0,0:0:0:0:
284,115,237455,1,4,0:0:0:0:
378,158,237639,1,0,0:0:0:0:
429,248,237823,6,0,P|357:255|303:225,1,110
187,139,238191,1,4,0:0:0:0:
371,54,238375,1,0,0:0:0:0:
371,54,238467,1,0,0:0:0:0:
371,54,238559,2,0,P|432:87|453:142,2,110,0|0|4,0:0|0:0|0:0,0:0:0:0:
187,139,239111,1,0,0:0:0:0:
187,139,239203,1,0,0:0:0:0:
187,139,239295,6,0,P|146:187|148:232,1,110,4|0,2:0|0:0,0:0:0:0:
306,76,239663,1,0,0:0:0:0:
262,303,239847,6,0,P|324:314|362:290,1,110,4|0,2:0|0:0,0:0:0:0:
147,231,240215,1,0,0:0:0:0:
366,156,240399,6,0,P|344:96|304:75,1,110,4|0,2:0|0:0,0:0:0:0:
361,291,240767,2,0,P|408:332|453:330,2,110,4|0|0,2:0|0:0|0:0,0:0:0:0:
281,157,241320,1,0,0:0:0:0:
211,289,241504,2,0,L|114:280,1,82.5000031471254
40,95,241872,2,0,L|136:103,1,82.5000031471254
330,179,242240,5,4,0:3:0:0:
210,48,242424,1,0,0:3:0:0:
210,48,242608,1,0,0:3:0:0:
40,95,242792,1,4,0:3:0:0:
382,267,243344,5,4,0:3:0:0:
190,320,243528,1,0,0:3:0:0:
190,320,243712,1,0,0:3:0:0:
55,175,243896,1,4,0:3:0:0:
55,175,244264,5,0,0:3:0:0:
330,179,244448,1,4,0:3:0:0:
212,14,244633,1,4,0:3:0:0:
212,14,244817,1,4,0:3:0:0:
0,73,245001,1,4,0:3:0:0:
