osu file format v14

[General]
AudioFilename: audio.mp3
AudioLeadIn: 0
PreviewTime: 56652
Countdown: 0
SampleSet: Soft
StackLeniency: 0.5
Mode: 0
LetterboxInBreaks: 1
WidescreenStoryboard: 1

[Editor]
Bookmarks: 89124
DistanceSpacing: 0.8
BeatDivisor: 4
GridSize: 4
TimelineZoom: 1.5

[Metadata]
Title:Boku no Friend
TitleUnicode:ぼくのフレンド
Artist:Mewhan
ArtistUnicode:みゆはん
Creator:VINXIS
Version:Meyrink's Insane
Source:けものフレンズ
Tags:Kemono Friends ED ending Sand Cat スナネコ meyrink Karen
BeatmapID:1224518
BeatmapSetID:576482

[Difficulty]
HPDrainRate:6
CircleSize:4
OverallDifficulty:8
ApproachRate:9
SliderMultiplier:1.8
SliderTickRate:1

[Events]
//Background and Video events
0,0,"61282267_p01.png",0,0
Video,0,"osu.flv"
//Break Periods
//Storyboard Layer 0 (Background)
//Storyboard Layer 1 (Fail)
//Storyboard Layer 2 (Pass)
//Storyboard Layer 3 (Foreground)
//Storyboard Sound Samples

[TimingPoints]
137,368.480203401072,4,2,3,60,1,0
873.618964552282,368.480203401072,4,2,3,60,1,0
12664,-133.333333333333,4,2,1,40,0,0
24087,-133.333333333333,4,2,2,40,0,0
24456,-100,4,2,3,60,0,0
36247,-111.111111111111,4,2,3,60,0,0
53566,-111.111111111111,4,2,2,40,0,0
53934,-100,4,2,3,60,0,0
59277,-100,4,2,2,40,0,0
59830,-100,4,2,3,70,0,1
77517,-111.111111111111,4,2,3,70,0,1
80465,-100,4,2,3,60,0,0
88387,-100,4,2,2,50,0,0
88571,-100,4,2,3,60,0,0

[Colours]
Combo1 : 165,74,255
Combo2 : 255,255,0
Combo3 : 255,0,0
Combo4 : 94,174,255

[HitObjects]
481,161,137,6,0,P|467:222|451:296,1,135,4|0,3:2|3:0,0:0:0:0:
339,361,505,1,8,0:0:0:0:
335,357,597,1,8,0:0:0:0:
331,353,689,2,0,L|322:306,1,45,8|8,3:0|3:0,0:0:0:0:
254,163,873,6,0,P|300:173|342:188,1,90,4|0,3:2|0:0,0:0:0:0:
452,292,1242,1,8,0:0:0:0:
360,111,1426,1,0,0:0:0:0:
360,111,1518,1,8,0:0:0:0:
360,111,1610,1,0,0:0:0:0:
276,273,1794,1,0,3:0:0:0:
512,200,1979,2,0,P|465:192|421:184,1,90,8|0,0:0|0:0,0:0:0:0:
257,67,2347,6,0,P|276:134|292:198,1,135,0|0,3:0|0:0,0:0:0:0:
300,235,2716,1,8,0:0:0:0:
137,280,2900,1,0,0:0:0:0:
137,280,2992,1,8,0:0:0:0:
137,280,3084,1,0,0:0:0:0:
208,166,3268,1,0,3:0:0:0:
250,351,3452,2,0,P|291:361|343:369,1,90,8|0,0:0|0:0,0:0:0:0:
490,189,3821,6,0,P|406:170|344:230,1,180,0|8,3:0|0:0,0:0:0:0:
487,360,4374,1,0,0:0:0:0:
487,360,4466,1,8,0:0:0:0:
487,360,4558,1,0,0:0:0:0:
338,253,4742,1,0,3:0:0:0:
472,100,4926,2,0,P|482:143|491:188,1,90,8|0,0:0|0:0,0:0:0:0:
494,218,5203,1,8,0:0:0:0:
494,218,5295,5,0,3:0:0:0:
316,143,5479,1,0,0:0:0:0:
390,326,5663,1,8,0:0:0:0:
415,164,5848,1,0,0:0:0:0:
415,164,5940,1,8,0:0:0:0:
415,164,6032,1,0,0:0:0:0:
273,304,6216,1,0,3:0:0:0:
222,110,6400,1,8,0:0:0:0:
312,220,6585,1,0,0:0:0:0:
312,220,6677,1,8,0:0:0:0:
312,220,6769,6,0,P|220:202|131:186,1,180,4|8,3:2|0:0,0:0:0:0:
11,72,7322,1,0,0:0:0:0:
11,72,7414,1,8,0:0:0:0:
11,72,7506,2,0,P|19:121|25:161,1,90,0|0,0:0|3:0,0:0:0:0:
121,275,7874,2,0,P|128:230|135:186,1,90,8|0,0:0|0:0,0:0:0:0:
291,80,8243,5,0,3:0:0:0:
205,231,8427,1,0,0:0:0:0:
349,312,8611,1,8,0:0:0:0:
233,156,8795,1,0,0:0:0:0:
233,156,8888,1,8,0:0:0:0:
233,156,8980,1,0,0:0:0:0:
169,320,9164,1,0,3:0:0:0:
329,204,9348,2,0,P|376:214|425:222,1,90,8|0,0:0|0:0,0:0:0:0:
476,341,9717,6,0,P|387:341|298:354,1,180,4|0,3:2|3:0,0:0:0:0:
205,201,10269,1,12,3:2:0:0:
271,363,10454,1,0,0:0:0:0:
292,182,10638,1,0,3:0:0:0:
127,261,10822,1,12,0:0:0:0:
143,97,11006,1,0,0:0:0:0:
246,276,11191,5,12,0:0:0:0:
99,348,11375,1,0,0:0:0:0:
99,348,11559,1,0,3:0:0:0:
12,165,11743,2,0,P|57:174|101:182,1,90,0|0,3:0|0:0,0:0:0:0:
246,276,12112,2,0,P|202:285|158:293,1,90,0|0,3:0|0:0,0:0:0:0:
279,156,12480,1,8,0:0:0:0:
364,280,12664,5,6,3:2:0:0:
364,280,12849,1,0,3:0:0:0:
442,233,13033,2,0,P|477:225|516:222,1,67.5000025749208,0|2,0:0|0:0,0:0:0:0:
446,129,13401,2,0,P|413:125|380:118,1,67.5000025749208,0|0,0:0|0:0,0:0:0:0:
272,100,13770,2,0,L|262:33,1,67.5000025749208,0|0,0:0|0:0,0:0:0:0:
325,180,14138,6,0,L|315:246,1,67.5000025749208,2|0,0:0|0:0,0:0:0:0:
297,344,14507,1,0,0:0:0:0:
297,344,14691,1,2,0:0:0:0:
400,258,14875,1,0,0:0:0:0:
234,165,15060,1,0,3:0:0:0:
315,246,15244,1,0,0:0:0:0:
347,120,15428,1,0,3:0:0:0:
151,150,15612,6,0,P|154:187|161:226,1,67.5000025749208,2|0,3:2|3:0,0:0:0:0:
215,321,15981,2,0,L|139:308,1,67.5000025749208,0|2,0:0|0:0,0:0:0:0:
0,245,16349,2,0,L|67:233,1,67.5000025749208,0|0,0:0|0:0,0:0:0:0:
160,216,16718,1,0,0:0:0:0:
64,131,16902,1,0,0:0:0:0:
159,44,17086,6,0,P|168:76|173:110,1,67.5000025749208,2|0,0:0|0:0,0:0:0:0:
269,182,17455,2,0,P|275:148|283:115,1,67.5000025749208,0|2,0:0|0:0,0:0:0:0:
372,21,17823,1,0,0:0:0:0:
430,159,18007,1,0,3:0:0:0:
325,114,18192,1,0,0:0:0:0:
458,48,18376,1,0,3:0:0:0:
479,226,18560,6,0,P|447:234|413:239,1,67.5000025749208,2|0,3:2|3:0,0:0:0:0:
288,143,18929,2,0,P|311:167|333:194,1,67.5000025749208,0|2,0:0|0:0,0:0:0:0:
339,286,19297,2,0,L|326:360,1,67.5000025749208,0|0,0:0|0:0,0:0:0:0:
475,384,19666,2,0,P|469:346|458:305,1,67.5000025749208,0|0,0:0|0:0,0:0:0:0:
409,200,20034,5,2,0:0:0:0:
409,200,20218,1,0,0:0:0:0:
308,220,20403,2,0,L|241:205,1,67.5000025749208,0|2,0:0|0:0,0:0:0:0:
143,147,20771,1,0,0:0:0:0:
210,291,20955,1,0,3:0:0:0:
66,326,21140,1,0,0:0:0:0:
138,237,21324,1,0,3:0:0:0:
201,377,21508,6,0,L|235:373|269:369,1,67.5000025749208,2|0,3:2|3:0,0:0:0:0:
349,293,21876,2,0,P|343:259|337:226,1,67.5000025749208,0|2,0:0|0:0,0:0:0:0:
231,168,22244,2,0,L|225:201|219:234,1,67.5000025749208,0|0,0:0|0:0,0:0:0:0:
382,112,22613,2,0,L|348:116|314:120,1,67.5000025749208,0|0,0:0|0:0,0:0:0:0:
154,157,22982,5,2,3:2:0:0:
154,157,23166,1,0,0:0:0:0:
261,261,23350,1,2,3:2:0:0:
261,261,23535,1,0,0:0:0:0:
223,73,23719,1,2,3:2:0:0:
223,73,23903,1,0,0:0:0:0:
107,223,24087,5,8,0:0:0:0:
103,227,24179,1,8,0:0:0:0:
99,231,24272,1,8,0:0:0:0:
95,235,24364,1,8,0:0:0:0:
91,239,24456,6,0,P|180:234|271:228,1,180,6|8,3:2|0:0,0:0:0:0:
381,179,25009,1,0,0:0:0:0:
297,325,25193,1,0,3:0:0:0:
297,325,25377,1,0,3:0:0:0:
296,135,25561,1,8,0:0:0:0:
431,268,25746,1,0,0:0:0:0:
271,230,25930,6,0,P|229:224|179:219,1,90,0|0,3:0|3:0,0:0:0:0:
33,211,26298,1,8,0:0:0:0:
150,50,26482,2,0,P|192:128|161:211,1,180,0|0,0:0|3:0,0:0:0:0:
7,264,27035,1,8,0:0:0:0:
95,135,27219,1,0,0:0:0:0:
187,309,27404,5,2,3:2:0:0:
80,216,27588,1,0,0:0:0:0:
52,369,27772,1,8,0:0:0:0:
162,209,27956,1,0,0:0:0:0:
263,349,28141,2,0,P|313:358|364:366,1,90,0|0,3:0|3:0,0:0:0:0:
448,280,28509,1,8,0:0:0:0:
312,237,28693,1,0,0:0:0:0:
458,120,28878,6,0,P|471:209|482:298,1,180,0|8,3:0|0:0,0:0:0:0:
298,147,29430,1,0,0:0:0:0:
433,244,29615,1,0,3:0:0:0:
387,79,29799,1,0,3:0:0:0:
312,237,29983,1,8,0:0:0:0:
210,117,30167,1,0,0:0:0:0:
296,28,30352,6,0,P|308:71|317:115,1,90,2|0,3:2|0:0,0:0:0:0:
152,291,30720,2,0,P|161:246|174:203,1,90,8|0,0:0|0:0,0:0:0:0:
210,117,31088,1,0,3:0:0:0:
83,211,31273,1,0,3:0:0:0:
255,322,31457,1,8,0:0:0:0:
174,203,31641,1,0,0:0:0:0:
57,374,31825,6,0,P|102:366|146:359,1,90,0|0,3:0|3:0,0:0:0:0:
250,234,32193,1,8,0:0:0:0:
84,117,32378,2,0,B|48:167|48:167|77:294,1,180,0|0,0:0|3:0,0:0:0:0:
257,180,32930,2,0,P|213:187|163:195,1,90,8|0,0:0|0:0,0:0:0:0:
0,288,33299,6,0,P|92:298|183:313,1,180,2|8,3:2|0:0,0:0:0:0:
319,363,33852,1,0,0:0:0:0:
257,212,34036,1,0,3:0:0:0:
179,312,34221,1,0,3:0:0:0:
348,254,34405,2,0,P|344:211|334:161,1,90,8|0,0:0|0:0,0:0:0:0:
213,16,34773,6,0,P|161:86|176:172,1,180,4|8,3:2|0:0,0:0:0:0:
259,265,35326,1,8,0:0:0:0:
259,265,35418,1,8,0:0:0:0:
259,265,35510,2,0,L|304:259|349:253,1,90,8|8,0:0|0:0,0:0:0:0:
249,104,35879,2,0,L|204:98|159:92,1,90,8|8,0:0|0:0,0:0:0:0:
21,38,36247,6,0,P|31:113|43:202,1,161.999995056153,4|0,3:2|0:0,0:0:0:0:
181,270,36800,1,0,3:0:0:0:
130,111,36984,2,0,P|170:117|210:122,1,80.9999975280763,8|0,0:0|3:0,0:0:0:0:
369,216,37353,2,0,P|329:221|289:227,1,80.9999975280763,0|0,0:0|0:0,0:0:0:0:
181,270,37721,5,0,3:0:0:0:
393,307,37997,1,0,3:0:0:0:
393,307,38090,1,0,0:0:0:0:
322,155,38274,1,0,3:0:0:0:
266,324,38458,2,0,B|219:314|219:314|155:320|155:320|108:306,1,161.999995056153,8|0,0:0|3:0,0:0:0:0:
55,191,39010,1,8,0:0:0:0:
159,233,39195,6,0,P|162:155|111:92,1,161.999995056153,4|0,3:2|0:0,0:0:0:0:
111,92,39748,1,0,3:0:0:0:
257,213,39932,2,0,P|299:219|345:223,1,80.9999975280763,8|0,0:0|3:0,0:0:0:0:
428,314,40301,2,0,P|388:318|347:324,1,80.9999975280763,0|0,0:0|0:0,0:0:0:0:
222,380,40669,6,0,P|211:321|196:262,2,121.499996292114,0|0|0,3:0|3:0|3:0,0:0:0:0:
348,323,41406,2,0,P|360:282|370:244,1,80.9999975280763,8|0,0:0|0:0,0:0:0:0:
471,135,41774,1,0,3:0:0:0:
477,284,41959,1,8,0:0:0:0:
356,146,42143,6,0,P|278:135|213:180,1,161.999995056153,4|0,3:2|0:0,0:0:0:0:
213,180,42696,1,0,3:0:0:0:
314,306,42880,2,0,P|307:267|299:227,1,80.9999975280763,8|0,0:0|3:0,0:0:0:0:
149,83,43248,2,0,P|142:122|135:162,1,80.9999975280763,0|0,0:0|0:0,0:0:0:0:
183,282,43617,6,0,P|124:269|64:259,2,121.499996292114,0|0|0,3:0|3:0|3:0,0:0:0:0:
337,194,44354,1,8,0:0:0:0:
337,194,44722,2,0,P|296:201|258:207,1,80.9999975280763,0|8,3:0|0:0,0:0:0:0:
106,319,45091,6,0,P|169:365|244:344,1,161.999995056153,4|0,3:2|0:0,0:0:0:0:
236,160,45643,1,0,3:0:0:0:
183,283,45828,1,8,0:0:0:0:
304,271,46012,1,0,3:0:0:0:
156,200,46196,2,0,P|147:159|141:112,1,80.9999975280763,0|0,0:0|0:0,0:0:0:0:
346,43,46565,6,0,P|337:98|326:162,2,121.499996292114,0|0|0,3:0|3:0|3:0,0:0:0:0:
246,203,47302,2,0,P|328:195|408:187,1,161.999995056153,8|0,0:0|3:0,0:0:0:0:
497,133,47854,1,8,0:0:0:0:
461,335,48039,6,0,P|383:344|331:285,1,161.999995056153,4|0,3:2|0:0,0:0:0:0:
278,140,48591,1,0,3:0:0:0:
331,265,48776,2,0,P|325:304|318:344,1,80.9999975280763,8|0,0:0|3:0,0:0:0:0:
211,275,49144,2,0,L|205:235|199:195,1,80.9999975280763,0|0,0:0|0:0,0:0:0:0:
333,162,49513,6,0,P|387:141|449:123,2,121.499996292114,0|0|0,3:0|3:0|3:0,0:0:0:0:
211,275,50249,1,8,0:0:0:0:
211,275,50618,1,0,3:0:0:0:
268,123,50802,1,8,0:0:0:0:
394,267,50986,6,0,P|471:258|507:189,1,161.999995056153,4|0,3:2|0:0,0:0:0:0:
348,151,51539,1,0,3:0:0:0:
329,352,51723,2,0,P|368:362|408:371,1,80.9999975280763,8|0,0:0|3:0,0:0:0:0:
271,216,52092,2,0,P|232:225|193:236,1,80.9999975280763,0|0,0:0|0:0,0:0:0:0:
73,345,52460,6,0,P|60:285|42:227,2,121.499996292114,0|0|0,3:0|3:0|3:0,0:0:0:0:
72,363,53197,1,8,0:0:0:0:
181,226,53566,5,8,0:0:0:0:
184,223,53658,1,8,0:0:0:0:
187,220,53750,1,8,0:0:0:0:
190,217,53842,1,8,0:0:0:0:
193,214,53934,6,0,P|239:224|288:235,1,90,6|0,3:2|0:0,0:0:0:0:
414,172,54303,1,10,0:0:0:0:
328,319,54487,1,0,3:0:0:0:
304,135,54671,1,10,0:0:0:0:
460,256,54855,1,0,3:0:0:0:
447,68,55040,1,10,0:0:0:0:
356,236,55224,5,0,3:0:0:0:
356,236,55316,1,0,3:0:0:0:
356,236,55408,1,10,0:0:0:0:
486,347,55592,1,0,3:0:0:0:
406,157,55777,1,10,0:0:0:0:
276,301,55961,1,0,3:0:0:0:
148,169,56145,5,10,0:0:0:0:
100,352,56329,1,0,3:0:0:0:
233,218,56514,1,10,0:0:0:0:
60,162,56698,1,0,3:0:0:0:
60,162,56790,1,0,3:0:0:0:
60,162,56882,5,14,0:0:0:0:
247,205,57066,1,0,0:0:0:0:
125,272,57251,1,2,0:0:0:0:
234,96,57435,1,0,0:0:0:0:
320,304,57619,5,14,0:0:0:0:
358,104,57803,1,0,0:0:0:0:
451,266,57988,1,2,0:0:0:0:
302,177,58172,1,0,0:0:0:0:
226,352,58356,5,14,0:0:0:0:
114,157,58540,1,0,3:0:0:0:
310,44,58725,1,2,0:0:0:0:
421,240,58909,1,8,0:0:0:0:
135,165,59277,5,8,0:0:0:0:
396,234,59461,1,8,0:0:0:0:
396,234,59830,6,0,P|353:240|307:248,1,90,6|0,3:2|0:0,0:0:0:0:
204,367,60198,2,0,P|248:373|293:381,1,90,8|0,0:0|0:0,0:0:0:0:
292,381,60475,1,8,0:0:0:0:
292,381,60567,1,0,0:0:0:0:
168,214,60751,1,0,3:0:0:0:
104,336,60935,1,8,0:0:0:0:
260,250,61120,1,0,0:0:0:0:
139,130,61304,5,2,3:2:0:0:
200,320,61488,1,0,0:0:0:0:
337,189,61672,1,8,0:0:0:0:
223,57,61857,1,0,0:0:0:0:
223,57,61949,1,8,0:0:0:0:
224,56,62041,2,0,P|233:100|243:143,1,90,2|0,0:0|3:0,0:0:0:0:
314,298,62409,2,0,P|380:283|446:269,1,135,8|0,0:0|0:0,0:0:0:0:
500,218,62778,6,0,P|491:258|480:305,1,90,2|0,3:2|0:0,0:0:0:0:
384,383,63146,1,8,0:0:0:0:
359,178,63331,1,0,0:0:0:0:
359,178,63423,1,8,0:0:0:0:
359,178,63515,1,0,0:0:0:0:
480,305,63699,1,0,3:0:0:0:
312,252,63883,2,0,P|268:261|224:266,1,90,8|0,0:0|0:0,0:0:0:0:
110,268,64252,5,2,3:2:0:0:
257,158,64436,1,0,0:0:0:0:
262,360,64620,1,8,0:0:0:0:
167,178,64804,1,0,0:0:0:0:
167,178,64897,1,8,0:0:0:0:
167,178,64989,1,0,0:0:0:0:
351,133,65173,1,0,3:0:0:0:
175,59,65357,1,8,0:0:0:0:
247,263,65541,1,0,0:0:0:0:
436,114,65726,6,0,B|371:82|371:82|266:108,1,180,6|8,3:2|0:0,0:0:0:0:
84,167,66278,1,0,0:0:0:0:
84,167,66370,1,0,0:0:0:0:
84,167,66463,2,0,L|128:177|172:187,1,90,2|0,0:0|3:0,0:0:0:0:
164,0,66831,2,0,P|152:43|142:87,1,90,8|0,0:0|0:0,0:0:0:0:
231,258,67200,5,2,0:0:0:0:
161,103,67384,1,0,3:0:0:0:
67,253,67568,1,10,0:0:0:0:
255,156,67752,1,0,0:0:0:0:
255,156,67844,1,0,0:0:0:0:
255,156,67937,1,2,0:0:0:0:
245,361,68121,1,0,3:0:0:0:
95,261,68305,2,0,L|140:255|185:249,1,90,10|0,0:0|0:0,0:0:0:0:
347,225,68673,6,0,L|341:270|335:315,1,90,2|0,3:2|0:0,0:0:0:0:
469,225,69042,2,0,L|463:180|457:135,1,90,8|0,0:0|0:0,0:0:0:0:
450,100,69318,1,8,0:0:0:0:
450,100,69410,1,0,0:0:0:0:
273,146,69595,1,0,3:0:0:0:
377,1,69779,2,0,P|367:45|357:88,1,90,8|0,0:0|0:0,0:0:0:0:
309,232,70147,5,6,3:2:0:0:
214,66,70332,1,0,3:0:0:0:
388,171,70516,1,8,0:0:0:0:
273,336,70700,1,4,3:0:0:0:
273,336,70792,1,4,3:0:0:0:
273,336,70884,1,6,3:2:0:0:
100,237,71069,1,0,3:0:0:0:
243,57,71253,5,8,0:0:0:0:
248,92,71345,1,8,0:0:0:0:
254,127,71437,1,8,0:0:0:0:
259,163,71529,1,8,0:0:0:0:
265,198,71621,6,0,P|216:190|173:182,1,90,6|0,3:2|0:0,0:0:0:0:
44,56,71990,2,0,P|89:47|133:40,1,90,8|0,0:0|0:0,0:0:0:0:
133,40,72266,1,8,0:0:0:0:
133,40,72358,1,0,0:0:0:0:
64,161,72543,1,0,3:0:0:0:
248,92,72727,1,8,0:0:0:0:
64,161,72911,1,0,0:0:0:0:
200,280,73095,6,0,P|196:235|190:190,1,90,2|0,3:2|0:0,0:0:0:0:
98,264,73464,1,8,0:0:0:0:
250,368,73648,1,0,0:0:0:0:
250,368,73740,1,8,0:0:0:0:
250,368,73832,1,2,0:0:0:0:
278,194,74016,1,0,3:0:0:0:
144,350,74201,1,8,0:0:0:0:
76,174,74385,1,0,0:0:0:0:
222,279,74569,6,0,L|311:291,1,90,2|0,3:2|0:0,0:0:0:0:
412,360,74938,1,8,0:0:0:0:
316,214,75122,1,0,0:0:0:0:
316,214,75214,1,8,0:0:0:0:
316,214,75306,1,0,0:0:0:0:
467,127,75490,1,0,3:0:0:0:
391,273,75675,1,8,0:0:0:0:
286,130,75859,1,0,0:0:0:0:
479,78,76043,6,0,P|490:144|500:211,1,135,2|0,3:2|0:0,0:0:0:0:
442,282,76412,2,0,P|430:239|414:197,1,90,8|0,0:0|0:0,0:0:0:0:
371,137,76688,1,8,0:0:0:0:
371,137,76780,1,0,0:0:0:0:
279,305,76964,1,0,3:0:0:0:
403,365,77149,1,8,0:0:0:0:
301,204,77333,1,0,0:0:0:0:
175,341,77517,6,0,P|96:341|39:286,1,161.999995056153,6|0,3:2|0:0,0:0:0:0:
113,170,78070,1,0,3:0:0:0:
113,170,78254,2,0,L|131:255,1,80.9999975280763,8|0,0:0|0:0,0:0:0:0:
3,173,78622,2,0,P|12:134|25:96,1,80.9999975280763,0|0,0:0|3:0,0:0:0:0:
143,27,78991,6,0,L|230:44,1,80.9999975280763,4|0,0:0|0:0,0:0:0:0:
317,135,79359,1,8,0:0:0:0:
317,135,79452,1,8,0:0:0:0:
317,135,79544,1,8,0:0:0:0:
110,173,79728,1,8,3:0:0:0:
110,173,79820,1,8,3:0:0:0:
110,173,79912,1,4,3:0:0:0:
270,294,80096,1,4,3:0:0:0:
199,130,80281,1,0,3:0:0:0:
199,130,80373,1,0,3:0:0:0:
199,130,80465,6,0,P|205:173|212:223,1,90,6|0,3:2|0:0,0:0:0:0:
364,275,80833,1,8,0:0:0:0:
216,370,81018,1,0,0:0:0:0:
216,370,81110,1,8,0:0:0:0:
216,370,81202,1,0,0:0:0:0:
302,198,81386,1,0,3:0:0:0:
379,375,81570,2,0,P|426:367|470:359,1,90,8|0,0:0|0:0,0:0:0:0:
510,227,81939,6,0,P|440:217|375:208,1,135,2|0,3:2|0:0,0:0:0:0:
341,204,82307,1,8,0:0:0:0:
245,310,82491,1,0,0:0:0:0:
245,310,82584,1,8,0:0:0:0:
245,310,82676,1,0,0:0:0:0:
270,119,82860,1,0,3:0:0:0:
387,282,83044,1,8,0:0:0:0:
460,140,83228,1,0,0:0:0:0:
460,140,83321,1,0,0:0:0:0:
460,140,83413,6,0,P|377:140|279:148,1,180,14|0,0:0|3:0,0:0:0:0:
149,230,83965,1,8,0:0:0:0:
287,284,84150,1,0,3:0:0:0:
147,135,84334,1,0,0:0:0:0:
116,326,84518,1,14,0:0:0:0:
261,186,84702,1,0,3:0:0:0:
295,382,84887,5,8,0:0:0:0:
179,237,85071,1,0,3:0:0:0:
371,199,85255,1,0,0:0:0:0:
235,56,85439,1,0,3:0:0:0:
371,199,85624,6,0,P|326:189|282:181,1,90,0|0,0:0|3:0,0:0:0:0:
111,76,85992,2,0,P|119:119|127:164,1,90,0|8,0:0|0:0,0:0:0:0:
162,342,86361,5,12,0:0:0:0:
230,116,86545,1,0,3:0:0:0:
352,271,86729,1,0,3:0:0:0:
128,164,86913,1,12,0:0:0:0:
128,164,87466,5,12,0:0:0:0:
352,271,87650,1,0,3:0:0:0:
243,109,87834,1,0,3:0:0:0:
424,45,88019,1,12,0:0:0:0:
424,45,88387,5,8,0:0:0:0:
243,109,88571,1,8,0:0:0:0:
389,265,88756,1,8,0:0:0:0:
302,17,88940,1,8,0:0:0:0:
162,233,89124,1,8,0:0:0:0:
