osu file format v14

[General]
AudioFilename: audio.mp3
AudioLeadIn: 0
PreviewTime: 56652
Countdown: 0
SampleSet: Soft
StackLeniency: 1
Mode: 0
LetterboxInBreaks: 1
WidescreenStoryboard: 1

[Editor]
DistanceSpacing: 0.8
BeatDivisor: 4
GridSize: 4
TimelineZoom: 1

[Metadata]
Title:Boku no Friend
TitleUnicode:ぼくのフレンド
Artist:Mewhan
ArtistUnicode:みゆはん
Creator:VINXIS
Version:Karen's Insane
Source:けものフレンズ
Tags:Kemono Friends ED ending Sand Cat スナネコ meyrink Karen
BeatmapID:1220426
BeatmapSetID:576482

[Difficulty]
HPDrainRate:6
CircleSize:3.8
OverallDifficulty:8
ApproachRate:9
SliderMultiplier:1.9
SliderTickRate:1

[Events]
//Background and Video events
0,0,"61282267_p01.png",0,0
Video,0,"osu.flv"
//Break Periods
//Storyboard Layer 0 (Background)
//Storyboard Layer 1 (Fail)
//Storyboard Layer 2 (Pass)
//Storyboard Layer 3 (Foreground)
//Storyboard Sound Samples

[TimingPoints]
137,368.480203401072,4,2,3,60,1,0
873.618964552282,368.480203401072,4,2,3,60,1,0
12664,-133.333333333333,4,2,1,40,0,0
24087,-133.333333333333,4,2,2,40,0,0
24456,-117.647058823529,4,2,3,60,0,0
36247,-133.333333333333,4,2,3,60,0,0
53934,-100,4,2,3,60,0,0
59277,-100,4,2,2,40,0,0
59830,-100,4,2,3,70,0,0
80465,-100,4,2,3,60,0,0
88387,-100,4,2,2,50,0,0
88571,-100,4,2,3,60,0,0

[Colours]
Combo1 : 165,74,255
Combo2 : 255,255,0
Combo3 : 255,0,0
Combo4 : 94,174,255

[HitObjects]
276,71,137,6,0,L|386:60,1,95,4|0,3:2|0:0,0:0:0:0:
457,134,413,1,0,3:0:0:0:
457,134,505,2,0,L|448:208,1,47.5,8|8,0:0|0:0,0:0:0:0:
508,301,689,1,8,3:0:0:0:
508,301,781,1,8,3:0:0:0:
472,380,873,6,0,L|365:375,1,95,4|0,3:2|0:0,0:0:0:0:
207,243,1242,1,8,0:0:0:0:
305,199,1426,1,0,0:0:0:0:
305,199,1518,1,8,0:0:0:0:
305,199,1610,2,0,P|314:244|301:303,1,95,0|0,0:0|3:0,0:0:0:0:
174,350,1979,1,8,0:0:0:0:
165,146,2347,5,0,3:0:0:0:
174,350,2716,1,8,0:0:0:0:
112,243,2900,1,0,0:0:0:0:
112,243,2992,1,8,0:0:0:0:
112,243,3084,2,0,P|161:255|211:244,1,95,0|0,0:0|3:0,0:0:0:0:
368,152,3452,1,8,0:0:0:0:
437,242,3637,1,0,0:0:0:0:
437,242,3729,1,8,0:0:0:0:
437,242,3821,6,0,P|429:287|437:340,1,95,0|0,3:0|0:0,0:0:0:0:
512,164,4189,1,8,0:0:0:0:
368,152,4374,1,0,0:0:0:0:
368,152,4466,1,8,0:0:0:0:
368,152,4558,2,0,P|337:188|322:238,1,95,0|0,0:0|3:0,0:0:0:0:
444,70,4926,2,0,P|394:46|339:48,1,95,8|0,0:0|0:0,0:0:0:0:
349,48,5203,1,8,0:0:0:0:
344,53,5295,5,0,3:0:0:0:
437,242,5479,1,0,0:0:0:0:
227,284,5663,2,0,P|234:232|218:180,1,95,8|0,0:0|0:0,0:0:0:0:
157,86,5940,1,8,0:0:0:0:
157,86,6032,2,0,P|209:103|257:98,1,95,0|0,0:0|3:0,0:0:0:0:
129,247,6400,1,8,0:0:0:0:
220,349,6585,1,0,0:0:0:0:
220,349,6677,1,8,0:0:0:0:
220,349,6769,6,0,P|173:342|109:363,1,95,4|0,3:2|0:0,0:0:0:0:
66,159,7137,1,8,0:0:0:0:
243,240,7322,1,0,0:0:0:0:
243,240,7414,1,8,0:0:0:0:
269,93,7598,1,0,0:0:0:0:
269,93,7690,1,0,3:0:0:0:
243,240,7874,1,8,0:0:0:0:
269,93,8058,1,0,0:0:0:0:
129,247,8243,6,0,L|135:363,1,95,0|0,3:0|0:0,0:0:0:0:
291,359,8611,1,8,0:0:0:0:
344,185,8795,1,0,0:0:0:0:
344,185,8888,1,8,0:0:0:0:
269,93,9072,1,0,0:0:0:0:
269,93,9164,1,0,3:0:0:0:
438,138,9348,2,0,P|446:192|428:240,1,95,8|0,0:0|0:0,0:0:0:0:
399,326,9625,5,0,0:0:0:0:
399,326,9717,2,0,P|450:316|510:329,1,95,4|0,3:2|3:0,0:0:0:0:
344,185,10085,1,0,3:0:0:0:
291,359,10269,2,0,P|297:308|275:252,1,95,12|0,3:2|0:0,0:0:0:0:
399,326,10638,1,0,3:0:0:0:
407,102,10822,2,0,P|342:128|267:97,1,142.5,12|0,0:0|0:0,0:0:0:0:
250,69,11191,5,12,0:0:0:0:
277,205,11375,1,0,0:0:0:0:
192,299,11559,1,0,3:0:0:0:
87,299,11743,1,0,3:0:0:0:
87,299,12112,1,0,3:0:0:0:
40,377,12480,5,8,0:0:0:0:
47,140,12664,1,6,3:2:0:0:
47,140,12849,1,0,3:0:0:0:
129,200,13033,1,0,0:0:0:0:
222,164,13401,5,0,0:0:0:0:
306,216,13770,1,0,0:0:0:0:
420,53,14138,1,2,0:0:0:0:
386,146,14507,1,0,0:0:0:0:
405,246,14875,5,0,0:0:0:0:
405,246,15060,1,0,3:0:0:0:
487,310,15244,1,0,0:0:0:0:
487,310,15428,1,0,3:0:0:0:
307,360,15612,1,2,3:2:0:0:
307,360,15797,1,0,3:0:0:0:
240,284,15981,1,0,0:0:0:0:
140,276,16349,5,0,0:0:0:0:
60,335,16718,1,0,0:0:0:0:
53,235,17086,1,2,0:0:0:0:
140,276,17455,1,0,0:0:0:0:
60,335,17823,5,0,0:0:0:0:
60,335,18007,1,0,3:0:0:0:
151,379,18192,1,0,0:0:0:0:
151,379,18376,1,0,3:0:0:0:
136,172,18560,1,2,3:2:0:0:
136,172,18744,1,0,3:0:0:0:
117,70,18929,1,0,0:0:0:0:
215,55,19297,5,0,0:0:0:0:
234,152,19666,1,0,0:0:0:0:
332,137,20034,1,2,0:0:0:0:
313,40,20403,1,0,0:0:0:0:
414,29,20771,5,0,0:0:0:0:
414,29,20955,1,0,3:0:0:0:
435,128,21140,1,0,0:0:0:0:
435,128,21324,1,0,3:0:0:0:
322,240,21508,1,2,3:2:0:0:
322,240,21692,1,0,3:0:0:0:
356,338,21876,1,0,0:0:0:0:
455,348,22245,5,0,0:0:0:0:
502,260,22613,1,0,0:0:0:0:
448,175,22982,6,0,L|450:89,1,71.2500027179719,2|0,3:2|0:0,0:0:0:0:
417,215,23350,2,0,L|419:129,1,71.2500027179719,2|0,3:2|0:0,0:0:0:0:
386,256,23719,2,0,L|388:170,1,71.2500027179719,2|0,3:2|0:0,0:0:0:0:
296,62,24087,1,8,0:0:0:0:
272,71,24179,1,8,0:0:0:0:
247,73,24272,1,8,0:0:0:0:
222,67,24364,1,8,0:0:0:0:
202,52,24456,6,0,P|220:129|186:224,1,161.500003080368,6|8,3:2|0:0,0:0:0:0:
197,206,25193,1,0,3:0:0:0:
176,308,25377,1,0,3:0:0:0:
253,378,25561,2,0,P|300:370|348:381,1,80.750001540184,8|0,0:0|0:0,0:0:0:0:
464,307,25930,5,0,3:0:0:0:
424,209,26114,1,0,3:0:0:0:
462,111,26298,1,8,0:0:0:0:
462,111,26667,1,0,3:0:0:0:
428,213,26851,1,0,3:0:0:0:
469,311,27035,1,8,0:0:0:0:
474,315,27404,6,0,P|394:300|316:336,1,161.500003080368,2|8,3:2|0:0,0:0:0:0:
316,325,28141,1,0,3:0:0:0:
316,216,28325,1,0,3:0:0:0:
316,111,28509,2,0,L|425:123,1,80.750001540184,8|0,0:0|0:0,0:0:0:0:
310,321,28878,5,0,3:0:0:0:
310,212,29062,1,0,3:0:0:0:
310,107,29246,1,8,0:0:0:0:
305,102,29615,1,0,3:0:0:0:
305,207,29799,1,0,3:0:0:0:
305,316,29983,1,8,0:0:0:0:
300,311,30352,6,0,P|212:293|126:322,1,161.500003080368,2|8,3:2|0:0,0:0:0:0:
139,309,31088,1,0,3:0:0:0:
65,383,31273,1,0,3:0:0:0:
42,280,31457,2,0,P|45:235|35:183,1,80.750001540184,8|0,0:0|0:0,0:0:0:0:
56,39,31825,5,0,3:0:0:0:
110,129,32010,1,0,3:0:0:0:
158,36,32194,1,8,0:0:0:0:
158,36,32562,1,0,3:0:0:0:
114,133,32747,1,0,3:0:0:0:
60,43,32931,1,8,0:0:0:0:
64,47,33299,6,0,L|234:43,1,161.500003080368,2|8,3:2|0:0,0:0:0:0:
225,43,34036,1,0,3:0:0:0:
266,139,34221,1,0,3:0:0:0:
210,223,34405,2,0,P|203:260|213:317,1,80.750001540184,8|0,0:0|0:0,0:0:0:0:
94,344,34773,6,0,P|115:267|94:190,1,161.500003080368,4|8,3:2|0:0,0:0:0:0:
30,63,35326,1,8,0:0:0:0:
30,63,35418,1,8,0:0:0:0:
30,63,35510,1,8,0:0:0:0:
30,63,35602,1,8,0:0:0:0:
30,63,35694,1,8,0:0:0:0:
172,57,35879,1,8,0:0:0:0:
30,63,36063,1,8,0:0:0:0:
30,63,36155,1,8,0:0:0:0:
30,63,36247,6,0,P|98:77|178:59,1,142.500005435944,4|0,3:2|0:0,0:0:0:0:
270,22,36800,1,0,3:0:0:0:
270,22,36984,2,0,P|264:56|277:118,1,71.2500027179719,8|0,0:0|3:0,0:0:0:0:
340,209,37353,1,0,0:0:0:0:
340,209,37721,5,0,3:0:0:0:
458,90,37997,1,0,3:0:0:0:
458,90,38090,1,0,0:0:0:0:
361,61,38274,1,0,3:0:0:0:
438,240,38458,1,8,0:0:0:0:
438,240,38827,2,0,P|444:298|428:332,1,71.2500027179719,0|8,3:0|0:0,0:0:0:0:
289,126,39195,6,0,P|227:119|155:156,1,142.500005435944,4|0,3:2|0:0,0:0:0:0:
17,284,39748,1,0,3:0:0:0:
17,284,39932,2,0,L|-1:207,1,71.2500027179719,8|0,0:0|3:0,0:0:0:0:
62,21,40301,2,0,L|56:103,1,71.2500027179719,0|0,0:0|0:0,0:0:0:0:
157,156,40669,5,0,3:0:0:0:
148,348,40945,1,0,3:0:0:0:
148,348,41037,1,0,0:0:0:0:
225,277,41222,1,0,3:0:0:0:
79,219,41406,1,8,0:0:0:0:
79,219,41774,1,0,3:0:0:0:
249,377,41959,1,8,0:0:0:0:
157,156,42143,6,0,P|150:87|195:14,1,142.500005435944,4|0,3:2|0:0,0:0:0:0:
51,126,42696,1,0,3:0:0:0:
138,260,42880,2,0,P|99:244|64:209,1,71.2500027179719,8|0,0:0|3:0,0:0:0:0:
39,327,43248,1,0,0:0:0:0:
39,327,43617,5,0,3:0:0:0:
157,156,43893,1,0,3:0:0:0:
157,156,43985,1,0,0:0:0:0:
145,314,44170,1,0,3:0:0:0:
51,126,44354,1,8,0:0:0:0:
51,126,44722,1,0,3:0:0:0:
247,97,44907,1,8,0:0:0:0:
84,224,45091,6,0,P|143:209|228:233,1,142.500005435944,4|0,3:2|0:0,0:0:0:0:
247,97,45643,1,0,3:0:0:0:
247,97,45828,2,0,P|205:104|157:100,1,71.2500027179719,8|0,0:0|3:0,0:0:0:0:
306,174,46196,2,0,P|348:167|396:171,1,71.2500027179719,0|0,0:0|0:0,0:0:0:0:
433,55,46565,5,0,3:0:0:0:
349,262,46841,1,0,3:0:0:0:
349,262,46933,1,0,0:0:0:0:
341,90,47117,1,0,3:0:0:0:
452,298,47302,1,8,0:0:0:0:
452,298,47670,1,0,3:0:0:0:
282,180,47854,1,8,0:0:0:0:
452,298,48039,6,0,P|471:226|444:134,1,142.500005435944,4|0,3:2|0:0,0:0:0:0:
458,15,48591,1,0,3:0:0:0:
458,15,48776,2,0,P|475:55|505:84,1,71.2500027179719,8|0,0:0|3:0,0:0:0:0:
375,130,49144,2,0,P|340:113|296:114,1,71.2500027179719,0|0,0:0|0:0,0:0:0:0:
188,235,49513,5,0,3:0:0:0:
131,38,49789,1,0,3:0:0:0:
131,38,49881,1,0,0:0:0:0:
219,136,50065,1,0,3:0:0:0:
29,61,50249,1,8,0:0:0:0:
29,61,50618,1,0,3:0:0:0:
96,275,50802,1,8,0:0:0:0:
131,38,50986,6,0,P|127:112|123:189,1,142.500005435944,4|0,3:2|0:0,0:0:0:0:
6,228,51539,1,0,3:0:0:0:
6,228,51723,2,0,L|8:317,1,71.2500027179719,8|0,0:0|3:0,0:0:0:0:
189,260,52092,2,0,L|176:347,1,71.2500027179719,0|0,0:0|0:0,0:0:0:0:
80,382,52460,5,0,3:0:0:0:
123,180,52737,1,0,3:0:0:0:
123,180,52829,1,0,0:0:0:0:
46,292,53013,1,0,3:0:0:0:
85,86,53197,1,8,0:0:0:0:
85,86,53566,1,8,0:0:0:0:
107,96,53658,1,8,0:0:0:0:
131,99,53750,1,8,0:0:0:0:
155,95,53842,1,8,0:0:0:0:
176,82,53934,6,0,P|246:52|363:97,1,190,6|10,3:2|0:0,0:0:0:0:
407,246,54487,1,0,3:0:0:0:
441,45,54671,1,10,0:0:0:0:
426,145,54855,1,0,3:0:0:0:
309,221,55040,1,10,0:0:0:0:
329,326,55224,1,0,3:0:0:0:
329,326,55316,1,0,3:0:0:0:
329,326,55408,5,10,0:0:0:0:
292,125,55592,1,0,3:0:0:0:
309,221,55777,1,10,0:0:0:0:
344,44,55961,1,0,3:0:0:0:
204,86,56145,2,0,P|196:135|210:184,1,95,10|0,0:0|3:0,0:0:0:0:
292,125,56514,1,10,0:0:0:0:
117,203,56698,1,0,3:0:0:0:
119,210,56790,1,0,3:0:0:0:
122,217,56882,6,0,P|145:250|202:271,1,95,14|0,0:0|0:0,0:0:0:0:
348,195,57251,1,2,0:0:0:0:
350,384,57435,1,0,0:0:0:0:
182,367,57619,2,0,P|230:359|279:320,1,95,14|0,0:0|0:0,0:0:0:0:
288,111,57988,1,2,0:0:0:0:
436,238,58172,1,0,0:0:0:0:
350,384,58356,6,0,P|365:343|355:280,1,95,14|0,0:0|3:0,0:0:0:0:
233,194,58725,1,2,0:0:0:0:
481,152,58909,1,8,0:0:0:0:
481,152,59277,2,0,L|486:88,1,47.5,8|0,0:0|0:0,0:0:0:0:
386,132,59461,2,0,L|389:84,1,47.5,8|0,0:0|0:0,0:0:0:0:
100,18,59830,6,0,P|109:57|97:122,1,95,6|0,3:2|0:0,0:0:0:0:
10,255,60198,2,0,P|65:238|109:249,1,95,8|0,0:0|0:0,0:0:0:0:
158,317,60475,1,8,0:0:0:0:
158,317,60567,1,0,0:0:0:0:
245,191,60751,1,0,3:0:0:0:
347,299,60935,2,0,L|241:287,1,95,8|0,0:0|0:0,0:0:0:0:
151,159,61304,6,0,P|146:106|171:57,1,95,2|0,3:2|0:0,0:0:0:0:
382,58,61672,1,8,0:0:0:0:
253,198,61857,1,0,0:0:0:0:
253,198,61949,1,8,0:0:0:0:
253,198,62041,1,2,0:0:0:0:
290,6,62225,1,0,3:0:0:0:
353,202,62409,2,0,L|363:309,1,95,8|0,0:0|0:0,0:0:0:0:
180,373,62778,6,0,P|190:326|175:270,1,95,2|0,3:2|0:0,0:0:0:0:
109,112,63146,2,0,P|149:129|205:121,1,95,8|0,0:0|0:0,0:0:0:0:
259,53,63423,1,8,0:0:0:0:
259,53,63515,1,0,0:0:0:0:
344,113,63699,1,0,3:0:0:0:
241,210,63883,1,8,0:0:0:0:
349,18,64067,1,0,0:0:0:0:
241,210,64252,6,0,P|286:203|336:215,1,95,2|0,3:2|0:0,0:0:0:0:
395,338,64620,1,8,0:0:0:0:
476,273,64804,1,0,0:0:0:0:
476,273,64897,1,8,0:0:0:0:
476,273,64989,1,0,0:0:0:0:
465,169,65173,1,0,3:0:0:0:
487,373,65357,1,8,0:0:0:0:
487,373,65726,6,0,B|361:333|411:423|296:368,1,190,6|8,3:2|0:0,0:0:0:0:
255,187,66278,1,0,0:0:0:0:
255,187,66370,1,0,0:0:0:0:
255,187,66463,2,0,P|266:137|253:74,1,95,2|0,0:0|3:0,0:0:0:0:
360,184,66831,2,0,P|349:231|363:289,1,95,8|0,0:0|0:0,0:0:0:0:
235,288,67200,5,2,0:0:0:0:
235,288,67384,1,0,3:0:0:0:
352,69,67568,2,0,P|332:29|261:6,1,95,10|0,0:0|0:0,0:0:0:0:
203,22,67844,1,0,0:0:0:0:
203,22,67937,1,2,0:0:0:0:
108,65,68121,1,0,3:0:0:0:
175,231,68305,1,10,0:0:0:0:
189,126,68489,1,0,0:0:0:0:
160,334,68673,6,0,B|213:312|266:349|266:349|307:338|363:346,1,190,2|8,3:2|0:0,0:0:0:0:
436,216,69226,1,0,0:0:0:0:
436,216,69318,1,8,0:0:0:0:
436,216,69410,1,0,0:0:0:0:
287,252,69595,1,0,3:0:0:0:
436,216,69779,2,0,P|445:262|433:319,1,95,8|0,0:0|0:0,0:0:0:0:
334,140,70147,6,0,L|326:84,1,47.5,6|0,3:2|0:0,0:0:0:0:
460,52,70332,2,0,L|455:99,1,47.5,0|0,3:0|0:0,0:0:0:0:
436,216,70516,1,8,0:0:0:0:
468,113,70700,1,4,3:0:0:0:
468,115,70792,1,4,3:0:0:0:
470,117,70884,6,0,L|474:69,1,47.5,6|0,3:2|0:0,0:0:0:0:
352,162,71069,2,0,L|345:114,1,47.5,0|0,3:0|0:0,0:0:0:0:
387,294,71253,1,8,0:0:0:0:
376,315,71345,1,8,0:0:0:0:
376,338,71437,1,8,0:0:0:0:
384,360,71529,1,8,0:0:0:0:
402,375,71621,6,0,P|311:348|216:388,1,190,6|8,3:2|0:0,0:0:0:0:
118,241,72174,1,0,0:0:0:0:
118,241,72266,1,8,0:0:0:0:
118,241,72358,2,0,P|163:256|218:252,1,95,0|0,0:0|3:0,0:0:0:0:
130,359,72727,1,8,0:0:0:0:
180,161,72911,1,0,0:0:0:0:
48,311,73095,6,0,P|22:266|28:211,1,95,2|0,3:2|0:0,0:0:0:0:
143,54,73464,1,8,0:0:0:0:
255,94,73648,1,0,0:0:0:0:
255,94,73740,1,8,0:0:0:0:
255,94,73832,1,2,0:0:0:0:
347,36,74016,1,0,3:0:0:0:
151,62,74201,1,8,0:0:0:0:
151,62,74569,6,0,P|99:66|43:51,1,95,2|0,3:2|0:0,0:0:0:0:
255,94,74938,2,0,P|228:140|179:169,1,95,8|0,0:0|0:0,0:0:0:0:
109,157,75214,1,8,0:0:0:0:
109,157,75306,1,0,0:0:0:0:
172,266,75490,1,0,3:0:0:0:
303,181,75675,2,0,P|351:172|423:197,1,95,8|0,0:0|0:0,0:0:0:0:
421,353,76043,5,2,3:2:0:0:
421,353,76227,1,0,0:0:0:0:
488,211,76412,1,8,0:0:0:0:
355,275,76596,1,0,0:0:0:0:
355,275,76688,1,8,0:0:0:0:
355,275,76780,1,0,0:0:0:0:
350,147,76964,1,0,3:0:0:0:
512,314,77149,1,8,0:0:0:0:
512,314,77517,6,0,L|505:197,1,95,6|0,3:2|0:0,0:0:0:0:
437,42,77885,1,0,0:0:0:0:
437,42,77978,1,0,0:0:0:0:
437,42,78070,1,0,3:0:0:0:
350,147,78254,1,8,0:0:0:0:
396,238,78438,1,0,0:0:0:0:
303,286,78622,1,0,0:0:0:0:
257,193,78807,1,0,3:0:0:0:
334,48,78991,6,0,P|249:81|191:72,1,142.5,4|0,0:0|0:0,0:0:0:0:
115,33,79359,1,8,0:0:0:0:
115,33,79452,2,0,L|126:133,1,95,8|0,0:0|0:0,0:0:0:0:
162,222,79728,5,8,3:0:0:0:
171,243,79820,1,8,3:0:0:0:
172,266,79912,1,4,3:0:0:0:
165,288,80004,1,4,3:0:0:0:
151,307,80096,2,0,L|84:318,1,47.5,4|0,3:0|0:0,0:0:0:0:
16,141,80281,1,0,3:0:0:0:
16,141,80373,1,0,3:0:0:0:
77,203,80465,6,0,L|267:176,1,190,6|8,3:2|0:0,0:0:0:0:
436,222,81018,1,0,0:0:0:0:
436,222,81110,1,8,0:0:0:0:
436,222,81202,2,0,P|445:267|432:326,1,95,0|0,0:0|3:0,0:0:0:0:
259,376,81570,1,8,0:0:0:0:
125,315,81755,1,0,0:0:0:0:
258,273,81939,5,2,3:2:0:0:
182,214,82123,1,0,0:0:0:0:
332,208,82307,1,8,0:0:0:0:
214,117,82491,1,0,0:0:0:0:
214,117,82584,1,8,0:0:0:0:
214,117,82676,2,0,P|158:130|103:125,1,95,0|0,0:0|3:0,0:0:0:0:
91,11,83044,1,8,0:0:0:0:
300,73,83228,1,0,0:0:0:0:
300,73,83321,1,0,0:0:0:0:
300,73,83413,5,14,0:0:0:0:
407,34,83597,1,0,3:0:0:0:
391,146,83781,1,0,3:0:0:0:
153,30,83965,5,8,0:0:0:0:
300,73,84150,1,0,3:0:0:0:
190,183,84334,1,0,0:0:0:0:
243,0,84518,5,14,0:0:0:0:
243,0,84702,1,0,3:0:0:0:
266,240,84887,5,8,0:0:0:0:
190,183,85071,1,0,3:0:0:0:
95,193,85255,1,0,0:0:0:0:
45,283,85439,5,0,3:0:0:0:
45,283,85808,1,0,3:0:0:0:
10,199,86176,5,8,0:0:0:0:
186,364,86361,1,12,0:0:0:0:
318,359,86545,1,0,3:0:0:0:
186,364,86729,1,0,3:0:0:0:
416,355,86913,1,12,0:0:0:0:
309,129,87466,5,12,0:0:0:0:
314,261,87650,1,0,3:0:0:0:
309,129,87834,1,0,3:0:0:0:
318,359,88019,1,12,0:0:0:0:
322,364,88387,5,8,0:0:0:0:
164,254,88571,1,8,0:0:0:0:
173,273,88756,1,8,0:0:0:0:
456,263,88940,1,8,0:0:0:0:
465,282,89124,1,8,0:0:0:0:
