osu file format v14

[General]
AudioFilename: audio.mp3
AudioLeadIn: 0
PreviewTime: 56652
Countdown: 0
SampleSet: Soft
StackLeniency: 0.7
Mode: 0
LetterboxInBreaks: 1
WidescreenStoryboard: 1

[Editor]
DistanceSpacing: 0.8
BeatDivisor: 8
GridSize: 4
TimelineZoom: 1

[Metadata]
Title:Boku no Friend
TitleUnicode:ぼくのフレンド
Artist:Mewhan
ArtistUnicode:みゆはん
Creator:VINXIS
Version:Insane
Source:けものフレンズ
Tags:Kemono Friends ED ending Sand Cat スナネコ meyrink Karen
BeatmapID:1220424
BeatmapSetID:576482

[Difficulty]
HPDrainRate:5.5
CircleSize:3.5
OverallDifficulty:7.2
ApproachRate:8.6
SliderMultiplier:1.7
SliderTickRate:1

[Events]
//Background and Video events
0,0,"61282267_p01.png",0,0
Video,0,"osu.flv"
//Break Periods
//Storyboard Layer 0 (Background)
//Storyboard Layer 1 (Fail)
//Storyboard Layer 2 (Pass)
//Storyboard Layer 3 (Foreground)
//Storyboard Sound Samples

[TimingPoints]
137,368.480203401072,4,2,3,60,1,0
137,-133.333333333333,4,2,3,60,0,0
873.618964552282,368.480203401072,4,2,3,60,1,0
874,-133.333333333333,4,2,3,60,0,0
12664,-166.666666666667,4,2,1,40,0,0
24087,-166.666666666667,4,2,2,40,0,0
24456,-142.857142857143,4,2,3,60,0,0
53934,-125,4,2,3,60,0,0
58356,-111.111111111111,4,2,3,60,0,0
59277,-111.111111111111,4,2,2,40,0,0
59830,-100,4,2,3,70,0,1
80465,-117.647058823529,4,2,3,60,0,0
88387,-117.647058823529,4,2,3,50,0,0
88571,-117.647058823529,4,2,3,60,0,0

[Colours]
Combo1 : 164,206,130
Combo2 : 150,95,150
Combo3 : 209,223,141
Combo4 : 207,130,153

[HitObjects]
133,192,137,6,0,P|178:205|226:205,1,95.6250036478044,4|0,3:2|3:0,0:0:0:0:
314,163,505,1,8,0:0:0:0:
344,152,597,1,8,0:0:0:0:
375,148,689,1,8,3:0:0:0:
407,149,781,1,8,3:0:0:0:
438,157,873,6,0,P|451:128|461:92,1,63.7500024318696,4|0,3:2|0:0,0:0:0:0:
383,261,1242,2,0,P|391:291|404:320,1,63.7500024318696,8|0,0:0|0:0,0:0:0:0:
404,320,1518,1,8,0:0:0:0:
404,320,1610,1,0,0:0:0:0:
284,330,1794,1,0,3:0:0:0:
164,308,1979,2,0,P|100:310|41:315,1,95.6250036478044,8|0,0:0|0:0,0:0:0:0:
68,312,2347,5,0,3:0:0:0:
105,62,2716,1,8,0:0:0:0:
174,151,2900,1,0,0:0:0:0:
174,151,2992,1,8,0:0:0:0:
174,151,3084,2,0,P|213:138|243:105,1,63.7500024318696,0|0,0:0|3:0,0:0:0:0:
56,161,3452,2,0,P|17:174|-13:207,1,63.7500024318696,8|0,0:0|0:0,0:0:0:0:
0,188,3729,1,8,0:0:0:0:
0,188,3821,5,0,3:0:0:0:
138,243,4005,1,0,0:0:0:0:
228,137,4189,1,8,0:0:0:0:
362,201,4374,1,0,0:0:0:0:
362,201,4466,1,8,0:0:0:0:
362,201,4558,2,0,L|367:119,1,63.7500024318696,0|0,0:0|3:0,0:0:0:0:
342,45,4926,1,8,0:0:0:0:
497,69,5111,1,0,0:0:0:0:
497,69,5203,1,8,0:0:0:0:
497,69,5295,6,0,L|422:68,1,63.7500024318696,0|0,3:0|0:0,0:0:0:0:
197,132,5663,2,0,L|272:131,1,63.7500024318696,8|0,0:0|0:0,0:0:0:0:
260,131,5940,1,8,0:0:0:0:
260,131,6032,1,0,0:0:0:0:
339,301,6216,1,0,3:0:0:0:
506,246,6400,2,0,L|431:245,1,63.7500024318696,8|0,0:0|0:0,0:0:0:0:
442,245,6677,1,8,0:0:0:0:
442,245,6769,6,0,P|440:317|447:362,1,95.6250036478044,4|0,3:2|0:0,0:0:0:0:
442,340,7137,1,8,0:0:0:0:
236,262,7322,1,0,0:0:0:0:
236,262,7414,1,8,0:0:0:0:
236,262,7506,2,0,P|202:261|164:266,2,63.7500024318696,0|0|8,0:0|3:0|0:0,0:0:0:0:
339,301,8058,1,0,0:0:0:0:
367,192,8243,6,0,P|364:105|358:49,1,127.500004863739,0|8,3:0|0:0,0:0:0:0:
271,20,8795,1,0,0:0:0:0:
233,19,8888,1,8,0:0:0:0:
195,18,8980,1,0,0:0:0:0:
19,20,9164,1,0,3:0:0:0:
108,65,9348,2,0,P|110:113|111:161,1,95.6250036478044,8|0,0:0|0:0,0:0:0:0:
110,160,9717,6,0,P|168:155|245:171,1,127.500004863739,4|0,3:2|3:0,0:0:0:0:
355,371,10269,2,0,P|318:318|298:258,1,127.500004863739,12|0,3:2|3:0,0:0:0:0:
404,83,10822,2,0,P|379:124|346:159,1,95.6250036478044,12|0,0:0|0:0,0:0:0:0:
346,158,11191,6,0,P|373:173|397:194,2,63.7500024318696,12|0|0,0:0|0:0|3:0,0:0:0:0:
165,159,11743,2,0,P|137:175|113:196,1,63.7500024318696,0|0,3:0|0:0,0:0:0:0:
245,291,12112,2,0,P|221:270|194:255,1,63.7500024318696,0|0,3:0|0:0,0:0:0:0:
99,292,12480,1,8,0:0:0:0:
133,71,12664,6,0,L|197:69,1,50.9999984436036,6|0,3:2|3:0,0:0:0:0:
184,70,13033,2,0,L|248:68,1,50.9999984436036,0|2,0:0|0:0,0:0:0:0:
234,68,13401,2,0,L|298:66,1,50.9999984436036,0|0,0:0|0:0,0:0:0:0:
284,66,13770,2,0,L|348:64,1,50.9999984436036,0|0,0:0|0:0,0:0:0:0:
453,132,14138,6,0,P|459:157|464:182,2,50.9999984436036,2|0|0,0:0|0:0|0:0,0:0:0:0:
453,132,14691,2,0,P|456:186|452:287,1,152.999995330811,2|0,0:0|0:0,0:0:0:0:
330,319,15428,1,0,3:0:0:0:
261,287,15612,5,2,3:2:0:0:
222,254,15797,1,0,3:0:0:0:
194,228,15981,1,0,0:0:0:0:
178,200,16165,2,0,P|176:152|176:82,1,101.999996887207,2|0,0:0|0:0,0:0:0:0:
63,107,16718,1,0,0:0:0:0:
63,107,16902,1,0,0:0:0:0:
63,107,17086,6,0,P|62:157|60:208,1,101.999996887207,2|0,0:0|0:0,0:0:0:0:
61,209,17823,2,0,P|85:214|111:217,1,50.9999984436036,0|0,0:0|3:0,0:0:0:0:
230,122,18192,2,0,P|204:124|179:130,1,50.9999984436036,0|0,0:0|3:0,0:0:0:0:
239,320,18560,6,0,L|234:260,1,50.9999984436036,2|0,3:2|3:0,0:0:0:0:
235,270,18929,2,0,L|230:210,1,50.9999984436036,0|2,0:0|0:0,0:0:0:0:
230,219,19297,2,0,L|225:159,1,50.9999984436036,0|0,0:0|0:0,0:0:0:0:
225,168,19666,2,0,L|220:108,1,50.9999984436036,0|0,0:0|0:0,0:0:0:0:
220,117,20034,6,0,P|240:92|261:76,2,50.9999984436036,2|0|0,0:0|0:0|0:0,0:0:0:0:
220,117,20587,2,0,P|283:113|376:126,1,152.999995330811,2|0,0:0|0:0,0:0:0:0:
473,158,21324,1,0,3:0:0:0:
473,158,21508,6,0,P|473:110|455:60,1,101.999996887207,2|0,3:2|0:0,0:0:0:0:
384,226,22061,2,0,P|384:276|402:324,1,101.999996887207,2|0,0:0|0:0,0:0:0:0:
402,324,22613,2,0,P|372:332|346:337,1,50.9999984436036,0|0,0:0|0:0,0:0:0:0:
227,343,22982,5,2,3:2:0:0:
102,218,23350,1,2,3:2:0:0:
227,94,23719,1,2,3:2:0:0:
350,218,24087,1,8,0:0:0:0:
350,218,24179,1,8,0:0:0:0:
350,218,24272,1,8,0:0:0:0:
350,218,24364,1,8,0:0:0:0:
350,217,24456,6,0,P|320:223|291:221,1,59.4999981842042,6|0,3:2|0:0,0:0:0:0:
82,129,24824,2,0,P|111:126|140:132,1,59.4999981842042,8|0,0:0|0:0,0:0:0:0:
133,323,25193,1,0,3:0:0:0:
133,323,25377,1,0,3:0:0:0:
102,218,25561,1,8,0:0:0:0:
102,218,25930,6,0,L|23:227,1,59.4999981842042,0|0,3:0|3:0,0:0:0:0:
181,292,26298,1,8,0:0:0:0:
210,151,26482,1,0,0:0:0:0:
288,214,26667,2,0,L|367:223,2,59.4999981842042,0|0|8,3:0|3:0|0:0,0:0:0:0:
278,50,27219,1,0,0:0:0:0:
210,151,27404,6,0,P|202:179|198:209,1,59.4999981842042,2|0,3:2|0:0,0:0:0:0:
368,219,27772,2,0,P|363:189|356:160,1,59.4999981842042,8|0,0:0|0:0,0:0:0:0:
281,200,28141,1,0,3:0:0:0:
445,181,28325,1,0,3:0:0:0:
426,21,28509,1,8,0:0:0:0:
265,40,28693,1,0,0:0:0:0:
159,19,28878,6,0,L|147:97,2,59.4999981842042,0|0|8,3:0|3:0|0:0,0:0:0:0:
159,19,29430,2,0,L|180:157,1,118.999996368408,0|0,0:0|3:0,0:0:0:0:
141,259,29983,2,0,P|186:250|219:249,1,59.4999981842042,8|0,0:0|0:0,0:0:0:0:
343,211,30352,6,0,P|313:207|284:200,1,59.4999981842042,2|0,3:2|0:0,0:0:0:0:
426,317,30720,2,0,P|396:313|367:306,1,59.4999981842042,8|0,0:0|0:0,0:0:0:0:
146,277,31088,2,0,P|175:273|204:266,1,59.4999981842042,0|0,3:0|3:0,0:0:0:0:
63,383,31457,2,0,P|92:379|121:372,1,59.4999981842042,8|0,0:0|0:0,0:0:0:0:
296,220,31825,5,0,3:0:0:0:
389,269,32010,1,0,3:0:0:0:
493,255,32194,1,8,0:0:0:0:
503,149,32378,2,0,P|447:163|362:146,1,118.999996368408,0|0,0:0|3:0,0:0:0:0:
213,79,32931,1,8,0:0:0:0:
213,79,33299,6,0,P|221:145|222:212,1,118.999996368408,2|8,3:2|0:0,0:0:0:0:
100,189,33852,2,0,P|92:255|91:322,1,118.999996368408,0|0,0:0|3:0,0:0:0:0:
213,299,34405,1,8,0:0:0:0:
325,339,34589,1,0,0:0:0:0:
325,339,34773,6,0,P|384:338|436:323,1,89.2499972763062,4|0,3:2|0:0,0:0:0:0:
413,331,35142,2,0,L|423:250,1,59.4999981842042,8|8,0:0|0:0,0:0:0:0:
420,272,35418,1,8,0:0:0:0:
420,272,35510,1,8,0:0:0:0:
379,137,35694,1,8,0:0:0:0:
441,68,35879,1,8,0:0:0:0:
466,194,36063,1,8,0:0:0:0:
466,194,36155,1,8,0:0:0:0:
466,194,36247,5,4,3:2:0:0:
466,194,36616,2,0,P|413:191|383:183,1,59.4999981842042,0|0,0:0|3:0,0:0:0:0:
203,116,36984,2,0,P|232:111|262:111,1,59.4999981842042,8|0,0:0|3:0,0:0:0:0:
35,134,37721,6,0,P|92:112|142:111,1,89.2499972763062,0|0,3:0|3:0,0:0:0:0:
119,109,38090,2,0,P|159:127|193:132,1,59.4999981842042,0|0,0:0|3:0,0:0:0:0:
384,133,38458,1,8,0:0:0:0:
384,133,38827,1,0,3:0:0:0:
290,243,39011,1,8,0:0:0:0:
403,112,39195,6,0,P|462:107|512:142,1,118.999996368408,4|0,3:2|0:0,0:0:0:0:
320,25,39748,1,0,3:0:0:0:
320,25,39932,2,0,L|312:93,1,59.4999981842042,8|0,0:0|3:0,0:0:0:0:
310,250,40301,2,0,P|265:253|223:241,1,89.2499972763062,0|0,0:0|0:0,0:0:0:0:
196,143,40669,6,0,P|157:165|126:209,2,89.2499972763062,0|0|0,3:0|3:0|3:0,0:0:0:0:
196,143,41406,2,0,L|74:134,1,118.999996368408,8|0,0:0|3:0,0:0:0:0:
121,283,41959,1,8,0:0:0:0:
289,242,42143,6,0,P|342:218|416:222,1,118.999996368408,4|0,3:2|0:0,0:0:0:0:
487,268,42696,1,0,3:0:0:0:
393,364,42880,2,0,L|398:287,1,59.4999981842042,8|0,0:0|3:0,0:0:0:0:
156,178,43617,6,0,L|145:286,1,89.2499972763062,0|0,3:0|3:0,0:0:0:0:
146,266,43985,2,0,L|140:327,1,59.4999981842042,0|0,0:0|3:0,0:0:0:0:
286,268,44354,1,8,0:0:0:0:
286,268,44722,1,0,3:0:0:0:
261,115,44907,1,8,0:0:0:0:
265,283,45091,6,0,L|136:272,1,118.999996368408,4|0,3:2|0:0,0:0:0:0:
21,258,45643,1,0,3:0:0:0:
124,123,45828,2,0,L|126:182,1,59.4999981842042,8|0,0:0|3:0,0:0:0:0:
35,352,46196,2,0,L|30:262,1,89.2499972763062,0|0,0:0|0:0,0:0:0:0:
30,262,46565,6,0,L|34:172,2,89.2499972763062,0|0|0,3:0|3:0|3:0,0:0:0:0:
30,262,47302,2,0,P|89:270|148:261,1,118.999996368408,8|0,0:0|3:0,0:0:0:0:
216,144,47854,1,8,0:0:0:0:
341,220,48039,6,0,L|357:351,1,118.999996368408,4|0,3:2|0:0,0:0:0:0:
451,384,48591,1,0,3:0:0:0:
255,370,48776,2,0,P|225:365|196:359,2,59.4999981842042,8|0|0,0:0|3:0|0:0,0:0:0:0:
27,338,49513,6,0,P|75:330|124:324,1,89.2499972763062,0|0,3:0|3:0,0:0:0:0:
115,324,49881,2,0,P|144:329|173:334,1,59.4999981842042,0|0,0:0|3:0,0:0:0:0:
411,335,50249,1,8,0:0:0:0:
411,335,50618,1,0,3:0:0:0:
274,263,50802,1,8,0:0:0:0:
448,353,50986,6,0,P|466:286|465:227,1,118.999996368408,4|0,3:2|0:0,0:0:0:0:
466,236,51539,1,0,3:0:0:0:
348,167,51723,2,0,P|330:100|331:41,1,118.999996368408,8|0,0:0|0:0,0:0:0:0:
329,50,52276,1,0,0:0:0:0:
480,86,52460,6,0,P|460:143|439:177,1,89.2499972763062,0|0,3:0|3:0,0:0:0:0:
445,168,52829,2,0,L|456:252,1,59.4999981842042,0|0,0:0|3:0,0:0:0:0:
333,54,53197,1,8,0:0:0:0:
216,283,53566,1,8,0:0:0:0:
186,278,53658,1,8,0:0:0:0:
157,274,53750,1,8,0:0:0:0:
127,270,53842,1,8,0:0:0:0:
98,265,53934,5,6,3:2:0:0:
98,265,54303,2,0,P|86:233|83:199,1,68,10|0,0:0|3:0,0:0:0:0:
213,206,54671,2,0,P|219:172|233:141,1,68,10|0,0:0|3:0,0:0:0:0:
348,208,55040,2,0,P|369:182|397:162,1,68,10|0,0:0|3:0,0:0:0:0:
462,276,55408,6,0,P|467:310|467:344,1,68,10|0,0:0|3:0,0:0:0:0:
253,297,55777,2,0,P|248:330|248:364,1,68,10|0,0:0|3:0,0:0:0:0:
391,94,56145,2,0,P|396:128|396:162,1,68,10|0,0:0|3:0,0:0:0:0:
182,114,56514,2,0,P|176:148|177:182,1,68,10|0,0:0|3:0,0:0:0:0:
176,181,56790,1,0,3:0:0:0:
176,181,56882,5,14,0:0:0:0:
298,220,57066,1,0,0:0:0:0:
265,335,57251,1,2,0:0:0:0:
150,302,57435,1,0,0:0:0:0:
137,98,57619,5,14,0:0:0:0:
22,131,57803,1,0,0:0:0:0:
55,246,57988,1,2,0:0:0:0:
170,213,58172,1,0,0:0:0:0:
288,345,58356,6,0,P|326:353|364:349,1,76.4999976654053,14|0,0:0|3:0,0:0:0:0:
438,228,58725,1,2,0:0:0:0:
319,102,58909,2,0,L|330:255,1,152.999995330811,8|8,0:0|0:0,0:0:0:0:
100,171,59461,1,8,0:0:0:0:
100,171,59830,6,0,P|135:155|189:149,1,85,6|0,3:2|0:0,0:0:0:0:
410,277,60198,2,0,P|367:271|329:254,1,85,8|0,0:0|0:0,0:0:0:0:
329,254,60475,1,8,0:0:0:0:
329,254,60567,1,0,0:0:0:0:
294,85,60751,1,0,3:0:0:0:
161,247,60935,1,8,0:0:0:0:
139,64,61120,1,0,0:0:0:0:
196,163,61304,6,0,P|237:169|280:170,1,85,2|0,3:2|0:0,0:0:0:0:
394,127,61672,1,8,0:0:0:0:
98,167,61857,1,0,0:0:0:0:
98,167,61949,2,0,P|81:239|91:325,1,127.5,8|0,0:0|3:0,0:0:0:0:
287,363,62409,1,8,0:0:0:0:
194,248,62594,1,0,0:0:0:0:
287,363,62778,6,0,L|278:261,1,85,2|0,3:2|0:0,0:0:0:0:
401,42,63146,2,0,L|394:127,1,85,8|0,0:0|0:0,0:0:0:0:
394,126,63423,1,8,0:0:0:0:
394,126,63515,1,0,0:0:0:0:
252,93,63699,1,0,3:0:0:0:
214,242,63883,1,8,0:0:0:0:
362,280,64067,1,0,0:0:0:0:
453,261,64252,6,0,P|446:302|435:344,2,85,2|0|8,3:2|0:0|0:0,0:0:0:0:
394,156,64804,1,0,0:0:0:0:
394,156,64897,2,0,P|401:80|388:21,1,127.5,8|0,0:0|3:0,0:0:0:0:
331,296,65357,2,0,P|263:290|221:283,1,85,8|0,0:0|0:0,0:0:0:0:
125,328,65726,5,6,3:2:0:0:
44,116,66094,2,0,P|112:110|171:100,1,127.5,8|0,0:0|0:0,0:0:0:0:
170,100,66463,1,2,0:0:0:0:
268,176,66647,1,0,3:0:0:0:
386,166,66831,1,8,0:0:0:0:
501,190,67015,1,0,0:0:0:0:
341,278,67200,5,2,0:0:0:0:
345,52,67384,1,0,3:0:0:0:
411,190,67568,1,10,0:0:0:0:
254,104,67752,1,0,0:0:0:0:
254,104,67844,1,0,0:0:0:0:
254,104,67937,2,0,P|211:99|169:99,1,85,2|0,0:0|3:0,0:0:0:0:
256,283,68305,2,0,P|298:283|340:278,2,85,10|0|2,0:0|0:0|3:2,0:0:0:0:
48,216,68858,5,0,0:0:0:0:
171,208,69042,1,8,0:0:0:0:
115,319,69226,1,0,0:0:0:0:
115,319,69318,1,8,0:0:0:0:
115,319,69410,2,0,L|11:314,1,85,0|0,0:0|3:0,0:0:0:0:
121,113,69779,2,0,L|225:108,1,85,8|0,0:0|0:0,0:0:0:0:
363,236,70147,6,0,P|321:242|278:241,1,85,6|0,3:2|3:0,0:0:0:0:
48,216,70516,1,8,0:0:0:0:
233,125,70700,1,4,3:0:0:0:
233,125,70792,1,4,3:0:0:0:
233,125,70884,2,0,P|199:151|162:171,1,85,6|0,3:2|3:0,0:0:0:0:
309,29,71253,1,8,0:0:0:0:
351,25,71345,1,8,0:0:0:0:
393,26,71437,1,8,0:0:0:0:
435,33,71529,1,8,0:0:0:0:
475,45,71621,6,0,P|496:82|509:123,1,85,6|0,3:2|0:0,0:0:0:0:
345,217,71990,2,0,P|324:253|311:294,1,85,8|0,0:0|0:0,0:0:0:0:
311,294,72266,1,8,0:0:0:0:
310,294,72358,2,0,P|251:285|144:323,1,170,0|8,0:0|0:0,0:0:0:0:
34,382,72911,1,0,0:0:0:0:
25,227,73095,6,0,L|43:127,2,85,2|0|8,3:2|0:0|0:0,0:0:0:0:
181,156,73648,1,0,0:0:0:0:
181,156,73740,2,0,L|151:-6,1,127.5,8|0,0:0|3:0,0:0:0:0:
306,178,74201,1,8,0:0:0:0:
152,276,74385,1,0,0:0:0:0:
306,178,74569,6,0,P|308:220|300:262,1,85,2|0,3:2|0:0,0:0:0:0:
160,166,74938,1,8,0:0:0:0:
285,63,75122,1,0,0:0:0:0:
285,63,75214,1,8,0:0:0:0:
284,62,75306,2,0,P|327:68|369:64,1,85,0|0,0:0|3:0,0:0:0:0:
512,199,75675,2,0,P|469:193|427:197,1,85,8|0,0:0|0:0,0:0:0:0:
129,288,76043,6,0,P|185:319|248:331,1,127.5,2|0,3:2|0:0,0:0:0:0:
258,341,76412,2,0,P|298:327|340:323,1,85,8|0,0:0|0:0,0:0:0:0:
340,323,76688,1,8,0:0:0:0:
340,322,76780,2,0,P|380:309|415:286,1,85,0|0,0:0|3:0,0:0:0:0:
223,204,77149,1,8,0:0:0:0:
380,135,77333,1,0,0:0:0:0:
249,52,77517,6,0,L|155:59,1,85,6|0,3:2|0:0,0:0:0:0:
103,196,77885,2,0,L|9:189,1,85,0|0,0:0|3:0,0:0:0:0:
282,149,78254,2,0,L|376:156,1,85,8|0,0:0|0:0,0:0:0:0:
428,293,78622,2,0,L|522:286,1,85,0|0,0:0|3:0,0:0:0:0:
398,137,78991,6,0,P|347:115|258:121,1,127.5,4|0,0:0|0:0,0:0:0:0:
214,68,79359,1,8,0:0:0:0:
214,68,79452,1,8,0:0:0:0:
214,68,79544,1,8,0:0:0:0:
120,180,79728,1,8,3:0:0:0:
111,222,79820,1,8,3:0:0:0:
110,264,79912,1,4,3:0:0:0:
118,306,80004,1,4,3:0:0:0:
133,346,80096,1,4,3:0:0:0:
50,106,80281,1,0,3:0:0:0:
50,106,80373,1,0,3:0:0:0:
50,105,80465,6,0,P|79:85|114:76,1,72.2500013780594,6|0,3:2|0:0,0:0:0:0:
352,152,80833,2,0,P|317:143|287:122,1,72.2500013780594,8|0,0:0|0:0,0:0:0:0:
288,123,81110,1,8,0:0:0:0:
288,123,81202,1,0,0:0:0:0:
217,27,81386,1,0,3:0:0:0:
166,162,81570,2,0,P|161:217|159:271,1,108.375002067089,8|0,0:0|0:0,0:0:0:0:
159,271,81939,5,2,3:2:0:0:
419,227,82307,1,8,0:0:0:0:
347,348,82491,1,0,0:0:0:0:
347,348,82584,1,8,0:0:0:0:
347,348,82676,2,0,L|435:354,1,72.2500013780594,0|0,0:0|3:0,0:0:0:0:
339,144,83044,2,0,L|266:148,1,72.2500013780594,8|0,0:0|0:0,0:0:0:0:
443,202,83413,6,0,P|448:166|450:130,1,72.2500013780594,14|0,0:0|3:0,0:0:0:0:
384,27,83781,1,0,3:0:0:0:
296,202,83965,2,0,P|318:173|338:143,1,72.2500013780594,8|0,0:0|3:0,0:0:0:0:
384,27,84334,1,0,0:0:0:0:
177,111,84518,2,0,P|210:98|242:81,1,72.2500013780594,14|0,0:0|3:0,0:0:0:0:
38,187,84887,5,8,0:0:0:0:
195,226,85071,1,0,3:0:0:0:
58,353,85255,2,0,L|76:267,1,72.2500013780594,0|0,0:0|3:0,0:0:0:0:
345,225,85624,6,0,L|359:295,2,72.2500013780594,0|0|0,0:0|3:0|0:0,0:0:0:0:
315,116,86176,1,8,0:0:0:0:
224,309,86361,5,12,0:0:0:0:
430,242,86545,1,0,3:0:0:0:
430,242,86729,1,0,3:0:0:0:
203,190,86913,1,12,0:0:0:0:
203,190,87466,5,12,0:0:0:0:
366,329,87650,1,0,3:0:0:0:
366,329,87834,1,0,3:0:0:0:
402,126,88019,1,12,0:0:0:0:
402,126,88387,1,8,0:0:0:0:
207,194,88571,5,8,0:0:0:0:
435,246,88756,1,8,0:0:0:0:
207,194,88940,1,8,0:0:0:0:
435,246,89124,1,8,0:0:0:0:
