osu file format v14

[General]
AudioFilename: audio.mp3
AudioLeadIn: 0
PreviewTime: 56652
Countdown: 0
SampleSet: Soft
StackLeniency: 0.5
Mode: 0
LetterboxInBreaks: 1
WidescreenStoryboard: 1

[Editor]
DistanceSpacing: 1.1
BeatDivisor: 8
GridSize: 4
TimelineZoom: 1

[Metadata]
Title:Boku no Friend
TitleUnicode:ぼくのフレンド
Artist:Mewhan
ArtistUnicode:みゆはん
Creator:VINXIS
Version:Friends
Source:けものフレンズ
Tags:Kemono Friends ED ending Sand Cat スナネコ meyrink Karen
BeatmapID:1220425
BeatmapSetID:576482

[Difficulty]
HPDrainRate:6
CircleSize:4
OverallDifficulty:8.2
ApproachRate:9
SliderMultiplier:1.8
SliderTickRate:1

[Events]
//Background and Video events
0,0,"61282267_p01.png",0,0
Video,0,"osu.flv"
//Break Periods
//Storyboard Layer 0 (Background)
//Storyboard Layer 1 (Fail)
//Storyboard Layer 2 (Pass)
//Storyboard Layer 3 (Foreground)
//Storyboard Sound Samples

[TimingPoints]
137,368.480203401072,4,2,3,60,1,0
137,-133.333333333333,4,2,3,60,0,0
873.618964552282,368.480203401072,4,2,3,60,1,0
874,-133.333333333333,4,2,3,60,0,0
12664,-166.666666666667,4,2,1,40,0,0
24087,-166.666666666667,4,2,2,40,0,0
24456,-142.857142857143,4,2,3,60,0,0
53566,-166.666666666667,4,2,2,40,0,0
53934,-125,4,2,3,60,0,0
58356,-111.111111111111,4,2,3,60,0,0
59277,-166.666666666667,4,2,2,40,0,0
59830,-100,4,2,3,70,0,1
80465,-117.647058823529,4,2,3,60,0,0
88387,-117.647058823529,4,2,2,50,0,0
88571,-117.647058823529,4,2,3,60,0,0

[Colours]
Combo1 : 164,206,130
Combo2 : 150,95,150
Combo3 : 209,223,141
Combo4 : 207,130,153

[HitObjects]
169,119,137,6,0,P|238:108|291:114,1,101.250003862381,4|0,3:2|3:0,0:0:0:0:
337,181,505,1,8,0:0:0:0:
333,214,597,1,8,0:0:0:0:
329,248,689,1,8,3:0:0:0:
325,281,781,1,8,3:0:0:0:
322,315,873,6,0,L|313:396,1,67.5000025749208,4|0,3:2|0:0,0:0:0:0:
228,204,1242,1,8,0:0:0:0:
446,279,1426,1,0,0:0:0:0:
446,279,1518,1,8,0:0:0:0:
446,279,1610,1,0,0:0:0:0:
226,315,1794,1,0,3:0:0:0:
337,181,1979,2,0,L|418:190,1,67.5000025749208,8|0,0:0|0:0,0:0:0:0:
196,220,2347,6,0,P|183:168|185:96,1,101.250003862381,0|0,3:0|0:0,0:0:0:0:
218,49,2716,1,8,0:0:0:0:
37,143,2900,1,0,0:0:0:0:
37,143,2992,1,8,0:0:0:0:
37,143,3084,1,0,0:0:0:0:
116,35,3268,1,0,3:0:0:0:
105,232,3452,1,8,0:0:0:0:
291,153,3637,1,0,0:0:0:0:
291,153,3729,1,8,0:0:0:0:
291,153,3821,6,0,P|365:147|437:155,1,135.000005149842,0|8,3:0|0:0,0:0:0:0:
244,223,4374,1,0,0:0:0:0:
244,223,4466,1,8,0:0:0:0:
244,223,4558,1,0,0:0:0:0:
239,24,4742,1,0,3:0:0:0:
425,152,4926,2,0,P|361:155|346:157,1,67.5000025749208,8|0,0:0|0:0,0:0:0:0:
321,182,5203,1,8,0:0:0:0:
290,215,5295,5,0,3:0:0:0:
344,59,5479,1,0,0:0:0:0:
391,255,5663,2,0,L|387:345,1,67.5000025749208,8|0,0:0|0:0,0:0:0:0:
388,322,5940,1,8,0:0:0:0:
388,322,6032,1,0,0:0:0:0:
177,300,6216,1,0,3:0:0:0:
266,141,6400,1,8,0:0:0:0:
58,197,6585,1,0,0:0:0:0:
58,197,6677,1,8,0:0:0:0:
58,197,6769,6,0,P|55:136|92:47,1,135.000005149842,4|8,3:2|0:0,0:0:0:0:
307,34,7322,1,0,0:0:0:0:
307,34,7414,1,8,0:0:0:0:
307,34,7506,1,0,0:0:0:0:
183,151,7690,1,0,3:0:0:0:
393,143,7874,2,0,L|487:140,1,67.5000025749208,8|0,0:0|0:0,0:0:0:0:
308,306,8243,6,0,L|214:309,1,67.5000025749208,0|0,3:0|0:0,0:0:0:0:
41,314,8611,1,8,0:0:0:0:
144,220,8795,1,0,0:0:0:0:
144,220,8888,1,8,0:0:0:0:
144,220,8980,1,0,0:0:0:0:
181,378,9164,1,0,3:0:0:0:
319,289,9348,2,0,P|377:286|442:302,1,101.250003862381,8|0,0:0|0:0,0:0:0:0:
419,293,9717,5,4,3:2:0:0:
168,209,9901,1,0,3:0:0:0:
409,88,10085,1,0,3:0:0:0:
319,289,10269,6,0,P|299:222|309:149,1,135.000005149842,12|0,3:2|3:0,0:0:0:0:
211,343,10822,2,0,L|124:353,1,67.5000025749208,12|0,0:0|0:0,0:0:0:0:
16,194,11191,5,12,0:0:0:0:
203,232,11375,1,0,0:0:0:0:
14,322,11559,1,0,3:0:0:0:
128,126,11743,1,0,3:0:0:0:
143,350,11928,2,0,L|138:267,2,67.5000025749208,0|0|0,0:0|3:0|0:0,0:0:0:0:
329,350,12480,1,8,0:0:0:0:
329,350,12664,6,0,L|394:355,2,53.9999983520508,6|0|0,3:2|3:0|0:0,0:0:0:0:
265,254,13217,2,0,L|388:263,2,107.999996704102,2|0|0,0:0|0:0|0:0,0:0:0:0:
165,136,14138,6,0,L|100:141,2,53.9999983520508,2|0|0,0:0|0:0|0:0,0:0:0:0:
229,40,14691,2,0,L|105:49,1,107.999996704102,2|0,0:0|3:0,0:0:0:0:
328,108,15428,1,0,3:0:0:0:
328,108,15612,6,0,P|341:84|348:58,2,53.9999983520508,2|0|0,3:2|3:0|0:0,0:0:0:0:
242,234,16165,2,0,P|234:287|253:338,2,107.999996704102,2|0|0,0:0|0:0|0:0,0:0:0:0:
140,230,17086,6,0,P|126:253|119:279,2,53.9999983520508,2|0|0,0:0|0:0|0:0,0:0:0:0:
225,103,17639,2,0,P|233:50|214:0,1,107.999996704102,2|0,0:0|3:0,0:0:0:0:
380,134,18376,1,0,3:0:0:0:
380,134,18560,6,0,L|456:134,2,53.9999983520508,2|0|0,3:2|3:0|0:0,0:0:0:0:
225,103,19113,2,0,L|106:107,2,107.999996704102,2|0|0,0:0|0:0|0:0,0:0:0:0:
380,134,20034,6,0,L|453:134,2,53.9999983520508,2|0|0,0:0|0:0|0:0,0:0:0:0:
229,221,20587,2,0,L|110:216,1,107.999996704102,2|0,0:0|3:0,0:0:0:0:
337,300,21324,1,0,3:0:0:0:
337,300,21508,6,0,P|312:312|290:327,1,53.9999983520508,2|0,3:2|3:0,0:0:0:0:
421,369,21876,1,0,0:0:0:0:
410,226,22061,2,0,P|360:204|307:204,2,107.999996704102,2|0|0,0:0|0:0|0:0,0:0:0:0:
231,260,22982,6,0,L|157:250,1,53.9999983520508,2|0,3:2|0:0,0:0:0:0:
361,125,23350,2,0,L|287:115,1,53.9999983520508,2|0,3:2|0:0,0:0:0:0:
158,143,23719,2,0,L|84:133,1,53.9999983520508,2|0,3:2|0:0,0:0:0:0:
238,1,24087,1,8,0:0:0:0:
264,4,24179,1,8,0:0:0:0:
291,8,24272,1,8,0:0:0:0:
318,11,24364,1,8,0:0:0:0:
345,15,24456,5,6,3:2:0:0:
169,241,24824,1,8,0:0:0:0:
380,131,25193,5,0,3:0:0:0:
380,131,25377,1,0,3:0:0:0:
139,91,25561,1,8,0:0:0:0:
334,269,25930,5,0,3:0:0:0:
334,269,26114,1,0,3:0:0:0:
300,60,26298,1,8,0:0:0:0:
171,360,26667,5,0,3:0:0:0:
171,360,26851,1,0,3:0:0:0:
205,151,27035,2,0,P|201:214|196:235,1,62.9999980773926,8|0,0:0|0:0,0:0:0:0:
128,257,27404,5,2,3:2:0:0:
431,200,27772,1,8,0:0:0:0:
240,68,28141,5,0,3:0:0:0:
240,68,28325,1,0,3:0:0:0:
343,280,28509,1,8,0:0:0:0:
115,183,28878,5,0,3:0:0:0:
115,183,29062,1,0,3:0:0:0:
380,133,29246,1,8,0:0:0:0:
244,279,29615,5,0,3:0:0:0:
244,279,29799,1,0,3:0:0:0:
240,68,29983,2,0,P|202:58|167:58,1,62.9999980773926,8|0,0:0|0:0,0:0:0:0:
102,26,30352,5,2,3:2:0:0:
432,230,30720,1,8,0:0:0:0:
162,201,31088,5,0,3:0:0:0:
162,201,31273,1,0,3:0:0:0:
334,19,31457,1,8,0:0:0:0:
309,280,31825,5,0,3:0:0:0:
309,280,32010,1,0,3:0:0:0:
113,98,32194,1,8,0:0:0:0:
382,136,32562,5,0,3:0:0:0:
382,136,32747,1,0,3:0:0:0:
97,213,32931,1,8,0:0:0:0:
313,311,33299,5,2,3:2:0:0:
313,0,33668,1,8,0:0:0:0:
352,170,34036,5,0,3:0:0:0:
352,170,34221,1,0,3:0:0:0:
94,73,34405,1,8,0:0:0:0:
94,73,34773,6,0,P|141:59|233:61,1,125.999996154785,4|8,3:2|0:0,0:0:0:0:
352,170,35326,1,8,0:0:0:0:
352,170,35418,1,8,0:0:0:0:
352,170,35510,2,0,L|346:224,1,31.4999990386963,8|8,0:0|0:0,0:0:0:0:
240,199,35694,2,0,L|236:167,1,31.4999990386963,8|0,0:0|0:0,0:0:0:0:
302,45,35879,1,8,0:0:0:0:
295,302,36063,1,8,0:0:0:0:
295,302,36155,1,8,0:0:0:0:
295,302,36247,6,0,P|211:308|163:283,1,125.999996154785,4|0,3:2|0:0,0:0:0:0:
125,233,36800,1,0,3:0:0:0:
59,370,36984,1,8,0:0:0:0:
44,123,37168,1,0,3:0:0:0:
44,123,37721,6,0,P|111:111|141:111,2,94.499997116089,0|0|0,3:0|3:0|3:0,0:0:0:0:
321,173,38458,1,8,0:0:0:0:
321,173,38827,1,0,3:0:0:0:
116,222,39011,1,8,0:0:0:0:
321,173,39195,6,0,P|392:164|470:180,1,125.999996154785,4|0,3:2|0:0,0:0:0:0:
496,233,39748,1,0,3:0:0:0:
434,68,39932,1,8,0:0:0:0:
370,312,40116,1,0,3:0:0:0:
370,312,40669,6,0,P|341:326|310:329,1,62.9999980773926,0|0,3:0|0:0,0:0:0:0:
149,250,40945,2,0,P|180:253|208:266,1,62.9999980773926,0|0,3:0|0:0,0:0:0:0:
230,353,41222,1,0,3:0:0:0:
252,114,41406,1,8,0:0:0:0:
252,114,41774,1,0,3:0:0:0:
230,353,41959,1,8,0:0:0:0:
30,214,42143,6,0,P|47:166|101:83,1,125.999996154785,4|0,3:2|0:0,0:0:0:0:
156,65,42696,1,0,3:0:0:0:
0,73,42880,1,8,0:0:0:0:
181,222,43064,1,0,3:0:0:0:
181,222,43617,6,0,P|236:213|294:211,2,94.499997116089,0|0|0,3:0|3:0|3:0,0:0:0:0:
330,47,44354,1,8,0:0:0:0:
330,47,44722,1,0,3:0:0:0:
130,107,44907,1,8,0:0:0:0:
330,47,45091,6,0,P|353:104|353:177,1,125.999996154785,4|0,3:2|0:0,0:0:0:0:
284,202,45643,1,0,3:0:0:0:
453,172,45828,1,8,0:0:0:0:
181,222,46012,1,0,3:0:0:0:
181,222,46565,6,0,L|174:301,1,62.9999980773926,0|0,3:0|0:0,0:0:0:0:
289,264,46841,2,0,L|283:201,1,62.9999980773926,0|0,3:0|0:0,0:0:0:0:
218,125,47117,1,0,3:0:0:0:
274,373,47302,1,8,0:0:0:0:
274,373,47670,1,0,3:0:0:0:
218,125,47854,1,8,0:0:0:0:
480,218,48039,6,0,P|381:233|351:229,1,125.999996154785,4|0,3:2|0:0,0:0:0:0:
303,172,48591,1,0,3:0:0:0:
401,343,48776,1,8,0:0:0:0:
131,296,48960,1,0,3:0:0:0:
131,296,49513,6,0,P|63:310|26:328,2,94.499997116089,0|0|0,3:0|3:0|3:0,0:0:0:0:
401,343,50249,1,8,0:0:0:0:
401,343,50618,1,0,3:0:0:0:
268,131,50802,1,8,0:0:0:0:
401,343,50986,6,0,P|400:284|395:217,1,125.999996154785,4|0,3:2|0:0,0:0:0:0:
371,141,51539,1,0,3:0:0:0:
498,228,51723,1,8,0:0:0:0:
268,131,51908,1,0,3:0:0:0:
268,130,52460,6,0,P|242:149|227:176,1,62.9999980773926,0|0,3:0|0:0,0:0:0:0:
348,252,52737,2,0,P|333:225|308:207,1,62.9999980773926,0|0,3:0|0:0,0:0:0:0:
238,260,53013,1,0,3:0:0:0:
498,193,53197,1,8,0:0:0:0:
498,193,53566,5,8,0:0:0:0:
453,160,53658,1,8,0:0:0:0:
399,152,53750,1,8,0:0:0:0:
347,168,53842,1,8,0:0:0:0:
308,206,53934,6,0,P|255:213|203:200,1,108,6|0,3:2|0:0,0:0:0:0:
180,182,54303,1,10,0:0:0:0:
222,329,54487,1,0,3:0:0:0:
90,274,54671,1,10,0:0:0:0:
331,294,54855,1,0,3:0:0:0:
123,384,55040,1,10,0:0:0:0:
180,182,55224,1,0,3:0:0:0:
180,182,55316,1,0,3:0:0:0:
180,182,55408,5,10,0:0:0:0:
0,210,55592,1,0,3:0:0:0:
187,49,55777,1,10,0:0:0:0:
90,274,55961,1,0,3:0:0:0:
86,52,56145,1,10,0:0:0:0:
287,149,56329,1,0,3:0:0:0:
68,178,56514,1,10,0:0:0:0:
246,273,56698,1,0,3:0:0:0:
246,273,56790,1,0,3:0:0:0:
246,273,56882,5,14,0:0:0:0:
268,143,57066,1,0,0:0:0:0:
246,273,57251,1,2,0:0:0:0:
268,143,57435,1,0,0:0:0:0:
388,208,57619,5,14,0:0:0:0:
231,23,57803,1,0,0:0:0:0:
388,208,57988,1,2,0:0:0:0:
231,23,58172,1,0,0:0:0:0:
143,275,58356,5,14,0:0:0:0:
386,116,58540,1,0,3:0:0:0:
69,111,58725,1,2,0:0:0:0:
335,266,58909,1,8,0:0:0:0:
33,206,59277,5,8,0:0:0:0:
440,203,59461,1,8,0:0:0:0:
440,203,59830,6,0,P|410:168|364:148,1,90,6|0,3:2|0:0,0:0:0:0:
165,316,60198,2,0,P|205:296|234:262,1,90,8|0,0:0|0:0,0:0:0:0:
234,262,60475,1,8,0:0:0:0:
234,262,60567,1,0,0:0:0:0:
265,61,60751,1,0,3:0:0:0:
144,221,60935,1,8,0:0:0:0:
392,155,61120,1,0,0:0:0:0:
189,0,61304,6,0,P|171:76|177:109,1,90,2|0,3:2|0:0,0:0:0:0:
304,187,61672,1,8,0:0:0:0:
59,158,61857,1,0,0:0:0:0:
59,158,61949,1,8,0:0:0:0:
59,158,62041,2,0,L|49:272,1,90,2|0,0:0|3:0,0:0:0:0:
41,360,62409,1,8,0:0:0:0:
391,175,62778,6,0,P|346:173|304:187,1,90,2|0,3:2|0:0,0:0:0:0:
136,284,63146,2,0,P|178:297|223:295,1,90,8|0,0:0|0:0,0:0:0:0:
223,295,63423,1,8,0:0:0:0:
223,295,63515,1,0,0:0:0:0:
35,210,63699,1,0,3:0:0:0:
298,98,63883,1,8,0:0:0:0:
110,13,64067,1,0,0:0:0:0:
194,203,64252,6,0,P|204:160|202:115,1,90,2|0,3:2|0:0,0:0:0:0:
81,0,64620,1,8,0:0:0:0:
310,58,64804,1,0,0:0:0:0:
310,58,64897,1,8,0:0:0:0:
310,58,64989,1,0,0:0:0:0:
111,150,65173,1,0,3:0:0:0:
282,290,65357,2,0,P|292:246|290:201,1,90,8|0,0:0|0:0,0:0:0:0:
83,334,65726,6,0,P|140:351|217:341,1,135,6|0,3:2|0:0,0:0:0:0:
284,292,66094,2,0,P|294:248|292:203,1,90,8|0,0:0|0:0,0:0:0:0:
478,349,66463,6,0,P|434:360|389:358,1,90,2|0,0:0|3:0,0:0:0:0:
285,293,66831,2,0,P|275:249|277:204,1,90,8|0,0:0|0:0,0:0:0:0:
43,126,67200,5,2,0:0:0:0:
13,256,67384,1,0,3:0:0:0:
149,121,67568,1,10,0:0:0:0:
198,244,67752,1,0,0:0:0:0:
247,80,67937,1,2,0:0:0:0:
359,152,68121,1,0,3:0:0:0:
328,8,68305,2,0,P|368:5|439:23,1,90,10|0,0:0|0:0,0:0:0:0:
407,305,68673,6,0,P|363:313|312:308,1,90,2|0,3:2|0:0,0:0:0:0:
491,124,69042,2,0,P|489:168|478:212,1,90,8|0,0:0|0:0,0:0:0:0:
478,212,69318,1,8,0:0:0:0:
478,212,69410,1,0,0:0:0:0:
229,191,69595,1,0,3:0:0:0:
359,152,69779,2,0,L|349:251,1,90,8|0,0:0|0:0,0:0:0:0:
154,357,70147,5,6,3:2:0:0:
107,237,70332,1,0,3:0:0:0:
282,308,70516,1,8,0:0:0:0:
229,191,70700,1,4,3:0:0:0:
229,191,70792,1,4,3:0:0:0:
229,191,70884,5,6,3:2:0:0:
45,329,71069,1,0,3:0:0:0:
109,108,71253,1,8,0:0:0:0:
146,89,71345,1,8,0:0:0:0:
187,80,71437,1,8,0:0:0:0:
229,79,71529,1,8,0:0:0:0:
271,87,71621,6,0,P|315:96|363:120,1,90,6|0,3:2|0:0,0:0:0:0:
512,0,71990,2,0,P|471:19|428:29,1,90,8|0,0:0|0:0,0:0:0:0:
427,29,72266,1,8,0:0:0:0:
427,29,72358,1,0,0:0:0:0:
469,228,72543,1,0,3:0:0:0:
278,188,72727,2,0,L|171:183,1,90,8|0,0:0|0:0,0:0:0:0:
53,318,73095,6,0,P|70:276|75:232,1,90,2|0,3:2|0:0,0:0:0:0:
35,145,73464,1,8,0:0:0:0:
201,13,73648,1,0,0:0:0:0:
201,13,73740,1,8,0:0:0:0:
201,13,73832,2,0,L|189:132,2,90,2|0|8,0:0|3:0|0:0,0:0:0:0:
324,331,74569,6,0,P|307:289|302:245,1,90,2|0,3:2|0:0,0:0:0:0:
166,97,74938,2,0,P|182:138|187:183,1,90,8|0,0:0|0:0,0:0:0:0:
187,183,75214,1,8,0:0:0:0:
187,183,75306,1,0,0:0:0:0:
373,130,75490,1,0,3:0:0:0:
253,367,75675,1,8,0:0:0:0:
433,309,75859,1,0,0:0:0:0:
221,378,76043,6,0,P|158:357|79:366,1,135,2|0,3:2|0:0,0:0:0:0:
90,362,76412,1,8,0:0:0:0:
321,257,76596,1,0,0:0:0:0:
321,257,76688,1,8,0:0:0:0:
321,257,76780,1,0,0:0:0:0:
96,150,76964,1,0,3:0:0:0:
201,276,77149,1,8,0:0:0:0:
201,276,77517,6,0,P|215:201|202:98,1,180,6|0,3:2|0:0,0:0:0:0:
202,98,78070,1,0,3:0:0:0:
278,349,78254,2,0,P|322:354|368:346,2,90,8|0|0,0:0|0:0|0:0,0:0:0:0:
199,243,78807,1,0,3:0:0:0:
329,258,78991,6,0,L|317:104,1,135,4|0,0:0|0:0,0:0:0:0:
310,83,79359,1,8,0:0:0:0:
293,47,79452,1,8,0:0:0:0:
271,14,79544,1,8,0:0:0:0:
27,110,79728,1,8,3:0:0:0:
71,121,79820,1,8,3:0:0:0:
116,123,79912,1,4,3:0:0:0:
160,115,80004,1,4,3:0:0:0:
202,97,80096,1,4,3:0:0:0:
170,257,80281,1,0,3:0:0:0:
208,233,80373,1,0,3:0:0:0:
238,199,80465,6,0,P|274:187|311:181,1,76.5000014591217,6|0,3:2|0:0,0:0:0:0:
172,359,80833,2,0,P|134:352|98:340,1,76.5000014591217,8|0,0:0|0:0,0:0:0:0:
98,340,81110,1,8,0:0:0:0:
98,340,81202,1,0,0:0:0:0:
66,130,81386,1,0,3:0:0:0:
7,267,81570,2,0,P|60:247|84:232,1,76.5000014591217,8|0,0:0|0:0,0:0:0:0:
210,134,81939,6,0,P|261:139|331:169,1,114.750002188683,2|0,3:2|0:0,0:0:0:0:
354,232,82307,1,8,0:0:0:0:
316,68,82491,1,0,0:0:0:0:
316,68,82584,1,8,0:0:0:0:
316,68,82676,1,0,0:0:0:0:
237,232,82860,1,0,3:0:0:0:
441,304,83044,2,0,L|439:165,1,114.750002188683,8|0,0:0|0:0,0:0:0:0:
439,189,83413,5,14,0:0:0:0:
196,228,83597,1,0,3:0:0:0:
353,370,83781,1,0,3:0:0:0:
346,107,83965,5,8,0:0:0:0:
187,323,84150,2,0,P|115:325|58:308,1,114.750002188683,0|0,3:0|0:0,0:0:0:0:
18,256,84518,2,0,P|16:207|25:171,1,76.5000014591217,14|0,0:0|3:0,0:0:0:0:
151,29,84887,5,8,0:0:0:0:
98,219,85071,1,0,3:0:0:0:
23,62,85255,1,0,0:0:0:0:
216,174,85439,1,0,3:0:0:0:
351,28,85624,6,0,P|389:27|427:31,1,76.5000014591217,0|0,0:0|3:0,0:0:0:0:
384,135,85992,2,0,P|417:153|448:176,1,76.5000014591217,0|8,0:0|0:0,0:0:0:0:
369,273,86361,5,12,0:0:0:0:
231,89,86545,1,0,3:0:0:0:
231,89,86729,1,0,3:0:0:0:
198,322,86913,1,12,0:0:0:0:
198,322,87466,5,12,0:0:0:0:
382,135,87650,1,0,3:0:0:0:
382,135,87834,1,0,3:0:0:0:
101,132,88019,1,12,0:0:0:0:
101,132,88387,1,8,0:0:0:0:
382,135,88571,5,8,0:0:0:0:
86,242,88756,1,8,0:0:0:0:
309,36,88940,1,8,0:0:0:0:
317,339,89124,1,8,0:0:0:0:
