osu file format v14

[General]
AudioFilename: audio.mp3
AudioLeadIn: 0
PreviewTime: 56652
Countdown: 0
SampleSet: Soft
StackLeniency: 0.7
Mode: 0
LetterboxInBreaks: 1
WidescreenStoryboard: 1

[Editor]
DistanceSpacing: 1.8
BeatDivisor: 8
GridSize: 4
TimelineZoom: 1

[Metadata]
Title:Boku no Friend
TitleUnicode:ぼくのフレンド
Artist:Mewhan
ArtistUnicode:みゆはん
Creator:VINXIS
Version:Hard
Source:けものフレンズ
Tags:Kemono Friends ED ending Sand Cat スナネコ meyrink Karen
BeatmapID:1221047
BeatmapSetID:576482

[Difficulty]
HPDrainRate:5
CircleSize:3
OverallDifficulty:6
ApproachRate:7.8
SliderMultiplier:1.7
SliderTickRate:1

[Events]
//Background and Video events
0,0,"61282267_p01.png",0,0
Video,0,"osu.flv"
//Break Periods
//Storyboard Layer 0 (Background)
//Storyboard Layer 1 (Fail)
//Storyboard Layer 2 (Pass)
//Storyboard Layer 3 (Foreground)
//Storyboard Sound Samples

[TimingPoints]
137,368.480203401072,4,2,3,60,1,0
137,-133.333333333333,4,2,3,60,0,0
873.618964552282,368.480203401072,4,2,3,60,1,0
874,-133.333333333333,4,2,3,60,0,0
12664,-166.666666666667,4,2,1,40,0,0
24087,-166.666666666667,4,2,2,40,0,0
24456,-142.857142857143,4,2,3,60,0,0
53934,-125,4,2,3,60,0,0
58356,-111.111111111111,4,2,3,60,0,0
59277,-111.111111111111,4,2,2,40,0,0
59830,-100,4,2,3,70,0,1
80465,-117.647058823529,4,2,3,60,0,0
88387,-117.647058823529,4,2,2,50,0,0
88571,-117.647058823529,4,2,3,60,0,0

[Colours]
Combo1 : 164,206,130
Combo2 : 150,95,150
Combo3 : 209,223,141
Combo4 : 207,130,153

[HitObjects]
87,290,137,5,4,3:2:0:0:
281,253,505,2,0,L|313:248,3,31.8750012159348,8|8|8|8,0:0|0:0|3:0|3:0,0:0:0:0:
344,240,873,6,0,P|350:176|343:113,1,127.500004863739,4|0,3:2|0:0,0:0:0:0:
264,29,1426,1,0,0:0:0:0:
264,29,1518,1,8,0:0:0:0:
264,29,1610,2,0,L|337:17,1,63.7500024318696,0|0,0:0|3:0,0:0:0:0:
233,135,1979,2,0,L|160:123,1,63.7500024318696,8|0,0:0|0:0,0:0:0:0:
67,102,2347,5,0,3:0:0:0:
195,331,2716,1,8,0:0:0:0:
87,290,2900,1,0,0:0:0:0:
87,290,2992,1,8,0:0:0:0:
87,290,3084,2,0,P|78:341|80:366,1,63.7500024318696,0|0,0:0|3:0,0:0:0:0:
178,218,3452,1,8,0:0:0:0:
296,276,3637,1,0,0:0:0:0:
296,276,3729,1,8,0:0:0:0:
296,276,3821,6,0,L|371:272,2,63.7500024318696,0|0|8,3:0|0:0|0:0,0:0:0:0:
429,361,4374,1,0,0:0:0:0:
429,361,4466,1,8,0:0:0:0:
429,361,4558,2,0,L|504:357,2,63.7500024318696,0|0|8,0:0|3:0|0:0,0:0:0:0:
491,234,5111,1,0,0:0:0:0:
491,234,5203,1,8,0:0:0:0:
491,234,5295,6,0,P|490:167|462:91,1,127.500004863739,0|8,3:0|0:0,0:0:0:0:
390,54,5848,2,0,L|394:19,2,31.8750012159348,0|8|0,0:0|0:0|0:0,0:0:0:0:
308,119,6216,1,0,3:0:0:0:
194,54,6400,2,0,L|126:61,1,63.7500024318696,8|0,0:0|0:0,0:0:0:0:
96,68,6677,1,8,0:0:0:0:
62,78,6769,6,0,P|54:145|58:206,1,127.500004863739,4|8,3:2|0:0,0:0:0:0:
168,279,7322,1,0,0:0:0:0:
168,279,7414,1,8,0:0:0:0:
168,279,7506,1,0,0:0:0:0:
263,203,7690,1,0,3:0:0:0:
304,359,7874,2,0,P|336:358|368:355,1,63.7500024318696,8|0,0:0|0:0,0:0:0:0:
448,254,8243,6,0,P|480:255|512:259,2,63.7500024318696,0|0|8,3:0|0:0|0:0,0:0:0:0:
331,267,8795,1,0,0:0:0:0:
331,267,8888,1,8,0:0:0:0:
331,267,8980,2,0,L|341:183,1,63.7500024318696,0|0,0:0|3:0,0:0:0:0:
432,88,9348,2,0,L|424:151,1,63.7500024318696,8|0,0:0|0:0,0:0:0:0:
321,38,9717,6,0,P|276:37|192:62,1,127.500004863739,4|0,3:2|3:0,0:0:0:0:
197,191,10269,2,0,P|257:210|327:209,1,127.500004863739,12|0,3:2|3:0,0:0:0:0:
133,120,10822,2,0,L|-6:123,1,127.500004863739,12|12,0:0|0:0,0:0:0:0:
218,355,11559,2,0,L|210:291,1,63.7500024318696,0|0,3:0|3:0,0:0:0:0:
88,242,11928,6,0,L|97:314,2,63.7500024318696,0|0|0,0:0|3:0|0:0,0:0:0:0:
0,166,12480,1,8,0:0:0:0:
59,66,12664,5,6,3:2:0:0:
59,66,13033,1,0,0:0:0:0:
209,67,13401,1,0,0:0:0:0:
209,67,13770,1,0,0:0:0:0:
279,194,14138,5,2,0:0:0:0:
279,194,14507,1,0,0:0:0:0:
429,195,14875,1,0,0:0:0:0:
433,283,15060,2,0,P|413:343|378:380,1,101.999996887207,0|0,3:0|3:0,0:0:0:0:
296,368,15612,5,2,3:2:0:0:
296,368,15981,1,0,0:0:0:0:
127,360,16349,1,0,0:0:0:0:
127,360,16718,1,0,0:0:0:0:
279,194,17086,5,2,0:0:0:0:
279,194,17455,1,0,0:0:0:0:
110,185,17823,1,0,0:0:0:0:
92,92,18007,2,0,P|116:58|175:29,1,101.999996887207,0|0,3:0|3:0,0:0:0:0:
265,38,18560,5,2,3:2:0:0:
265,38,18929,1,0,0:0:0:0:
46,24,19297,1,0,0:0:0:0:
46,24,19666,1,0,0:0:0:0:
113,188,20034,5,2,0:0:0:0:
113,188,20403,1,0,0:0:0:0:
348,278,20771,1,0,0:0:0:0:
256,304,20955,2,0,P|236:257|230:206,1,101.999996887207,0|0,3:0|3:0,0:0:0:0:
226,123,21508,5,2,3:2:0:0:
226,123,21876,1,0,0:0:0:0:
446,117,22245,1,0,0:0:0:0:
446,117,22613,1,0,0:0:0:0:
334,303,22982,6,0,P|329:252|331:201,1,101.999996887207,2|2,3:2|3:2,0:0:0:0:
226,123,23719,2,0,P|230:173|228:224,1,101.999996887207,2|8,3:2|0:0,0:0:0:0:
217,240,24179,1,8,0:0:0:0:
203,253,24272,1,8,0:0:0:0:
185,262,24364,1,8,0:0:0:0:
166,264,24456,5,6,3:2:0:0:
301,328,24824,1,8,0:0:0:0:
156,171,25193,2,0,L|158:104,2,59.4999981842042,0|0|8,3:0|3:0|0:0,0:0:0:0:
333,211,25930,6,0,L|415:209,2,59.4999981842042,0|0|8,3:0|3:0|0:0,0:0:0:0:
202,60,26667,1,0,3:0:0:0:
294,100,26851,1,0,3:0:0:0:
285,0,27035,1,8,0:0:0:0:
61,123,27404,6,0,L|49:254,1,118.999996368408,2|8,3:2|0:0,0:0:0:0:
177,366,28141,2,0,L|244:355,1,59.4999981842042,0|0,3:0|3:0,0:0:0:0:
330,335,28509,1,8,0:0:0:0:
225,174,28878,5,0,3:0:0:0:
191,255,29062,1,0,3:0:0:0:
277,245,29246,1,8,0:0:0:0:
108,153,29615,2,0,L|114:83,2,59.4999981842042,0|0|8,3:0|3:0|0:0,0:0:0:0:
330,160,30352,5,2,3:2:0:0:
226,0,30720,1,8,0:0:0:0:
407,36,31088,2,0,L|467:38,2,59.4999981842042,0|0|8,3:0|3:0|0:0,0:0:0:0:
255,104,31825,6,0,L|195:106,2,59.4999981842042,0|0|8,3:0|3:0|0:0,0:0:0:0:
415,272,32562,1,0,3:0:0:0:
312,238,32747,1,0,3:0:0:0:
392,167,32931,1,8,0:0:0:0:
143,169,33299,6,0,L|154:313,1,118.999996368408,2|8,3:2|0:0,0:0:0:0:
222,54,34036,2,0,L|290:53,2,59.4999981842042,0|0|8,3:0|3:0|0:0,0:0:0:0:
39,86,34773,6,0,L|50:230,1,118.999996368408,4|8,3:2|0:0,0:0:0:0:
65,306,35326,1,8,0:0:0:0:
65,306,35418,1,8,0:0:0:0:
65,306,35510,2,0,L|71:358,2,29.7499990921021,8|8|8,0:0|0:0|0:0,0:0:0:0:
165,229,35879,1,8,0:0:0:0:
274,311,36063,1,8,0:0:0:0:
274,311,36155,1,8,0:0:0:0:
274,311,36247,6,0,P|321:265|488:268,1,237.999992736817,4|8,3:2|0:0,0:0:0:0:
483,265,37168,1,0,3:0:0:0:
244,128,37721,2,0,P|148:193|34:173,1,237.999992736817,0|8,3:0|0:0,0:0:0:0:
94,375,38827,1,0,3:0:0:0:
1,326,39011,1,8,0:0:0:0:
87,270,39195,6,0,L|224:286,1,118.999996368408,4|0,3:2|0:0,0:0:0:0:
380,134,39932,2,0,L|243:150,1,118.999996368408,8|0,0:0|0:0,0:0:0:0:
306,338,40669,6,0,P|314:294|312:249,2,89.2499972763062,0|0|0,3:0|3:0|3:0,0:0:0:0:
213,292,41406,1,8,0:0:0:0:
428,285,41774,1,0,3:0:0:0:
464,190,41959,1,8,0:0:0:0:
380,134,42143,6,0,P|296:98|133:136,1,237.999992736817,4|8,3:2|0:0,0:0:0:0:
155,121,43064,1,0,3:0:0:0:
288,339,43617,2,0,P|402:365|515:325,1,237.999992736817,0|8,3:0|0:0,0:0:0:0:
394,103,44722,1,0,3:0:0:0:
388,207,44907,1,8,0:0:0:0:
489,156,45091,6,0,L|500:24,1,118.999996368408,4|0,3:2|0:0,0:0:0:0:
293,154,45828,2,0,L|282:286,1,118.999996368408,8|0,0:0|0:0,0:0:0:0:
399,0,46565,6,0,P|351:7|316:33,2,89.2499972763062,0|0|0,3:0|3:0|3:0,0:0:0:0:
394,103,47302,1,8,0:0:0:0:
191,0,47670,1,0,3:0:0:0:
107,30,47854,1,8,0:0:0:0:
173,91,48039,6,0,L|137:336,1,237.999992736817,4|8,3:2|0:0,0:0:0:0:
138,326,48960,1,0,3:0:0:0:
441,320,49513,2,0,L|475:84,1,237.999992736817,0|8,3:0|0:0,0:0:0:0:
258,111,50618,2,0,L|247:179,1,59.4999981842042,0|8,3:0|0:0,0:0:0:0:
233,262,50986,6,0,P|173:258|120:233,1,118.999996368408,4|0,3:2|0:0,0:0:0:0:
273,17,51723,2,0,P|332:20|385:45,1,118.999996368408,8|0,0:0|0:0,0:0:0:0:
152,112,52460,6,0,P|161:70|191:27,2,89.2499972763062,0|0|0,3:0|3:0|3:0,0:0:0:0:
258,111,53197,1,8,0:0:0:0:
97,212,53566,2,0,L|46:204,3,29.7499990921021,8|8|8|8,0:0|0:0|0:0|0:0,0:0:0:0:
133,224,53934,6,0,L|276:208,1,136,6|10,3:2|0:0,0:0:0:0:
377,198,54487,1,0,3:0:0:0:
377,198,54671,2,0,P|382:231|384:265,1,68,10|0,0:0|3:0,0:0:0:0:
301,110,55040,2,0,P|302:76|308:42,1,68,10|0,0:0|3:0,0:0:0:0:
465,97,55408,6,0,L|384:88,1,68,10|0,0:0|3:0,0:0:0:0:
278,201,55777,2,0,L|197:192,1,68,10|0,0:0|3:0,0:0:0:0:
87,177,56145,2,0,P|60:227|35:243,1,68,10|0,0:0|3:0,0:0:0:0:
72,58,56514,2,0,P|99:8|124:-8,1,68,10|0,0:0|3:0,0:0:0:0:
106,1,56790,1,0,3:0:0:0:
106,1,56882,5,14,0:0:0:0:
185,93,57066,1,0,0:0:0:0:
270,10,57251,1,2,0:0:0:0:
348,101,57435,1,0,0:0:0:0:
445,26,57619,2,0,P|478:23|512:23,1,68,14|0,0:0|0:0,0:0:0:0:
512,173,57988,2,0,P|478:173|444:169,1,68,2|0,0:0|0:0,0:0:0:0:
326,87,58356,5,14,0:0:0:0:
272,182,58540,1,0,3:0:0:0:
326,277,58725,1,2,0:0:0:0:
272,372,58909,1,8,0:0:0:0:
74,343,59277,2,0,L|149:354,1,76.4999976654053,8|8,0:0|0:0,0:0:0:0:
424,289,59830,6,0,P|420:246|403:206,1,85,6|0,3:2|0:0,0:0:0:0:
326,277,60198,1,8,0:0:0:0:
272,182,60383,1,0,0:0:0:0:
272,182,60475,1,8,0:0:0:0:
272,182,60567,1,0,0:0:0:0:
326,87,60751,1,0,3:0:0:0:
228,28,60935,2,0,L|126:37,1,85,8|0,0:0|0:0,0:0:0:0:
106,137,61304,6,0,P|154:143|202:127,2,85,2|0|8,3:2|0:0|0:0,0:0:0:0:
25,217,61857,1,0,0:0:0:0:
130,237,62041,2,0,L|119:328,2,85,2|0|8,0:0|3:0|0:0,0:0:0:0:
326,87,62778,6,0,L|336:2,1,85,2|0,3:2|0:0,0:0:0:0:
427,138,63146,2,0,L|416:222,1,85,8|0,0:0|0:0,0:0:0:0:
339,288,63515,1,0,0:0:0:0:
248,239,63699,1,0,3:0:0:0:
337,188,63883,1,8,0:0:0:0:
285,98,64067,1,0,0:0:0:0:
188,133,64252,6,0,P|147:143|106:137,2,85,2|0|8,3:2|0:0|0:0,0:0:0:0:
117,22,64804,2,0,P|50:37|-9:122,1,170,0|0,0:0|3:0,0:0:0:0:
57,224,65357,2,0,L|46:308,1,85,8|0,0:0|0:0,0:0:0:0:
144,368,65726,5,6,3:2:0:0:
144,368,66094,2,0,L|157:256,1,85,8|0,0:0|0:0,0:0:0:0:
153,283,66370,1,0,0:0:0:0:
153,283,66463,1,2,0:0:0:0:
267,336,66647,1,0,3:0:0:0:
282,228,66831,2,0,L|295:116,1,85,8|0,0:0|0:0,0:0:0:0:
307,35,67200,6,0,L|397:40,1,85,2|0,0:0|3:0,0:0:0:0:
173,88,67568,2,0,L|83:93,1,85,10|0,0:0|0:0,0:0:0:0:
291,143,67937,2,0,L|381:148,1,85,2|0,0:0|3:0,0:0:0:0:
157,196,68305,2,0,L|67:201,1,85,10|0,0:0|0:0,0:0:0:0:
285,251,68673,6,0,P|281:308|267:363,1,85,2|0,3:2|0:0,0:0:0:0:
141,384,69042,2,0,P|133:342|131:299,1,85,8|0,0:0|0:0,0:0:0:0:
131,299,69318,1,8,0:0:0:0:
131,299,69410,1,0,0:0:0:0:
151,198,69595,1,0,3:0:0:0:
68,129,69779,2,0,L|74:32,1,85,8|0,0:0|0:0,0:0:0:0:
190,42,70147,6,0,P|268:35|361:71,1,170,6|8,3:2|0:0,0:0:0:0:
314,174,70700,1,4,3:0:0:0:
314,174,70792,1,4,3:0:0:0:
314,174,70884,2,0,P|235:203|150:197,1,170,6|8,3:2|0:0,0:0:0:0:
45,251,71437,1,8,0:0:0:0:
45,251,71529,1,8,0:0:0:0:
45,251,71621,6,0,P|93:273|126:308,1,85,6|0,3:2|0:0,0:0:0:0:
213,362,71990,1,8,0:0:0:0:
300,282,72174,1,0,0:0:0:0:
300,282,72266,1,8,0:0:0:0:
300,282,72358,1,0,0:0:0:0:
389,355,72543,1,0,3:0:0:0:
460,262,72727,2,0,L|453:156,1,85,8|0,0:0|0:0,0:0:0:0:
398,77,73095,6,0,P|356:68|313:68,2,85,2|0|8,3:2|0:0|0:0,0:0:0:0:
346,167,73648,1,0,0:0:0:0:
377,268,73832,2,0,L|365:352,2,85,2|0|8,0:0|3:0|0:0,0:0:0:0:
104,357,74569,6,0,L|120:237,1,85,2|0,3:2|0:0,0:0:0:0:
30,163,74938,2,0,L|19:247,1,85,8|0,0:0|0:0,0:0:0:0:
138,171,75306,2,0,P|216:175|299:227,1,170,0|8,0:0|0:0,0:0:0:0:
346,310,75859,1,0,0:0:0:0:
429,248,76043,6,0,P|455:189|463:68,1,170,2|8,3:2|0:0,0:0:0:0:
337,37,76596,1,0,0:0:0:0:
337,37,76688,1,8,0:0:0:0:
337,37,76780,2,0,L|248:29,1,85,0|0,0:0|3:0,0:0:0:0:
270,149,77149,2,0,L|354:156,1,85,8|0,0:0|0:0,0:0:0:0:
295,270,77517,6,0,P|236:289|125:270,1,170,6|0,3:2|0:0,0:0:0:0:
63,192,78070,1,0,3:0:0:0:
131,110,78254,2,0,P|213:93|295:114,1,170,8|0,0:0|0:0,0:0:0:0:
390,162,78807,1,0,3:0:0:0:
479,119,78991,6,0,L|489:26,1,85,4|0,0:0|0:0,0:0:0:0:
362,20,79359,2,0,L|311:12,2,42.5,8|8|8,0:0|0:0|0:0,0:0:0:0:
227,82,79728,2,0,L|176:90,2,42.5,8|8|4,3:0|3:0|3:0,0:0:0:0:
373,156,80096,1,4,3:0:0:0:
248,245,80281,1,0,3:0:0:0:
248,245,80373,1,0,3:0:0:0:
248,245,80465,6,0,P|171:233|98:259,1,144.500002756119,6|8,3:2|0:0,0:0:0:0:
0,290,81018,1,0,0:0:0:0:
0,290,81110,1,8,0:0:0:0:
0,290,81202,2,0,L|17:207,1,72.2500013780594,0|0,0:0|3:0,0:0:0:0:
119,70,81570,2,0,L|104:140,1,72.2500013780594,8|0,0:0|0:0,0:0:0:0:
21,87,81939,5,2,3:2:0:0:
235,147,82307,1,8,0:0:0:0:
158,238,82491,1,0,0:0:0:0:
158,238,82584,1,8,0:0:0:0:
158,238,82676,2,0,L|151:327,1,72.2500013780594,0|0,0:0|3:0,0:0:0:0:
233,376,83044,1,8,0:0:0:0:
325,303,83228,1,0,0:0:0:0:
325,303,83321,1,0,0:0:0:0:
325,303,83413,6,0,L|335:152,1,144.500002756119,14|0,0:0|3:0,0:0:0:0:
450,49,83965,2,0,L|460:194,1,144.500002756119,8|0,0:0|0:0,0:0:0:0:
344,72,84518,2,0,L|351:-33,1,72.2500013780594,14|0,0:0|3:0,0:0:0:0:
203,29,84887,6,0,P|161:32|119:33,2,72.2500013780594,8|0|0,0:0|3:0|0:0,0:0:0:0:
267,288,85624,1,0,0:0:0:0:
226,154,85808,1,0,3:0:0:0:
142,249,85992,2,0,L|47:246,1,72.2500013780594,0|8,0:0|0:0,0:0:0:0:
21,121,86361,6,0,P|128:110|226:154,1,216.750004134178,12|12,0:0|0:0,0:0:0:0:
512,76,87466,2,0,P|405:65|307:108,1,216.750004134178,12|12,0:0|0:0,0:0:0:0:
307,108,88387,1,8,0:0:0:0:
178,72,88571,6,0,L|183:-8,1,72.2500013780594,8|8,0:0|0:0,0:0:0:0:
234,167,88940,1,8,0:0:0:0:
175,299,89124,1,8,0:0:0:0:
