osu file format v14

[General]
AudioFilename: audio.mp3
AudioLeadIn: 0
PreviewTime: 56652
Countdown: 0
SampleSet: Soft
StackLeniency: 0.7
Mode: 0
LetterboxInBreaks: 1
WidescreenStoryboard: 1

[Editor]
DistanceSpacing: 1
BeatDivisor: 8
GridSize: 4
TimelineZoom: 1

[Metadata]
Title:Boku no Friend
TitleUnicode:ぼくのフレンド
Artist:Mewhan
ArtistUnicode:みゆはん
Creator:VINXIS
Version:Easy
Source:けものフレンズ
Tags:Kemono Friends ED ending Sand Cat スナネコ meyrink Karen
BeatmapID:1221800
BeatmapSetID:576482

[Difficulty]
HPDrainRate:2
CircleSize:2
OverallDifficulty:3
ApproachRate:3
SliderMultiplier:1
SliderTickRate:1

[Events]
//Background and Video events
0,0,"61282267_p01.png",0,0
Video,0,"osu.flv"
//Break Periods
//Storyboard Layer 0 (Background)
//Storyboard Layer 1 (Fail)
//Storyboard Layer 2 (Pass)
//Storyboard Layer 3 (Foreground)
//Storyboard Sound Samples

[TimingPoints]
137,368.480203401072,4,2,3,60,1,0
873.618964552282,368.480203401072,4,2,3,60,1,0
12664,-100,4,2,1,40,0,0
24087,-100,4,2,2,40,0,0
24456,-100,4,2,3,60,0,0
59830,-100,4,2,3,70,0,1
80465,-100,4,2,3,60,0,0
89124,-100,4,2,3,60,0,0

[Colours]
Combo1 : 164,206,130
Combo2 : 150,95,150
Combo3 : 209,223,141
Combo4 : 207,130,153

[HitObjects]
87,94,873,6,0,B|194:61|273:135|273:135|346:61|457:94,2,400,4|0|0,3:2|3:0|3:0,0:0:0:0:
160,279,4558,2,0,L|366:257,1,200,0|0,0:0|3:0,0:0:0:0:
510,126,6032,1,0,0:0:0:0:
348,8,6769,6,0,L|144:21,1,200,4|0,3:2|0:0,0:0:0:0:
54,54,7874,1,8,0:0:0:0:
129,122,8243,2,0,L|101:331,1,200,0|0,3:0|0:0,0:0:0:0:
190,367,9348,1,8,0:0:0:0:
281,318,9717,6,0,B|315:288|375:284|423:311|423:311|455:274|461:214|444:169,1,300,4|12,3:2|0:0,0:0:0:0:
390,85,11191,2,0,L|179:106,1,200,12|0,0:0|0:0,0:0:0:0:
63,259,12664,6,0,L|56:358,2,100,6|0|0,3:2|0:0|0:0,0:0:0:0:
235,156,14138,2,0,L|241:56,2,100,2|0|0,0:0|0:0|0:0,0:0:0:0:
402,265,15612,2,0,L|394:384,2,100,2|0|0,3:2|0:0|0:0,0:0:0:0:
235,156,17086,2,0,L|241:56,2,100,2|0|0,0:0|0:0|0:0,0:0:0:0:
413,65,18560,6,0,P|462:57|512:60,2,100,2|0|0,3:2|0:0|0:0,0:0:0:0:
372,260,20034,2,0,P|322:263|272:255,2,100,2|0|0,0:0|0:0|0:0,0:0:0:0:
283,80,21508,2,0,L|382:75,2,100,2|0|0,3:2|0:0|0:0,0:0:0:0:
303,279,22982,2,0,L|203:274,2,100,2|2|2,3:2|3:2|3:2,0:0:0:0:
369,353,24087,1,8,0:0:0:0:
441,284,24456,6,0,L|453:177,1,100,6|8,3:2|0:0,0:0:0:0:
357,151,25193,2,0,L|368:51,1,100,0|8,3:0|0:0,0:0:0:0:
268,59,25930,2,0,P|219:79|72:67,1,200,0|0,3:0|3:0,0:0:0:0:
25,155,27035,1,8,0:0:0:0:
103,216,27404,6,0,P|107:266|109:316,1,100,2|8,3:2|0:0,0:0:0:0:
209,320,28141,2,0,P|210:270|215:220,1,100,0|8,3:0|0:0,0:0:0:0:
295,160,28878,2,0,L|496:177,1,200,0|0,3:0|3:0,0:0:0:0:
478,77,29983,1,8,0:0:0:0:
378,66,30352,6,0,L|267:56,1,100,2|8,3:2|0:0,0:0:0:0:
298,155,31088,2,0,L|198:146,1,100,0|8,3:0|0:0,0:0:0:0:
99,129,31825,2,0,P|84:198|105:340,1,200,0|0,3:0|3:0,0:0:0:0:
194,357,32931,1,8,0:0:0:0:
271,293,33299,6,0,P|320:279|463:307,1,200,2|0,3:2|3:0,0:0:0:0:
472,207,34405,1,8,0:0:0:0:
422,120,34773,2,0,P|327:150|229:134,1,200,4|8,3:2|0:0,0:0:0:0:
147,76,35879,1,8,0:0:0:0:
75,145,36247,6,0,L|101:356,2,200,4|8|0,3:2|0:0|3:0,0:0:0:0:
234,24,38458,1,8,0:0:0:0:
393,145,39195,6,0,L|367:356,2,200,4|8|0,3:2|0:0|3:0,0:0:0:0:
234,24,41406,1,8,0:0:0:0:
272,220,42143,6,0,P|361:238|468:221,1,200,4|8,3:2|0:0,0:0:0:0:
320,85,43617,2,0,P|222:67|124:86,1,200,0|8,3:0|0:0,0:0:0:0:
303,176,45091,6,0,P|322:273|298:369,2,200,4|8|0,3:2|0:0|3:0,0:0:0:0:
498,220,47302,1,8,0:0:0:0:
299,198,48039,6,0,L|276:-16,1,200,4|8,3:2|0:0,0:0:0:0:
177,176,49513,2,0,L|155:374,1,200,0|8,3:0|0:0,0:0:0:0:
12,233,50986,5,4,3:2:0:0:
109,58,51723,1,8,0:0:0:0:
308,63,52460,1,0,3:0:0:0:
405,238,53197,1,8,0:0:0:0:
255,371,53934,6,0,L|150:357,1,100,6|10,3:2|0:0,0:0:0:0:
180,260,54671,2,0,L|279:273,1,100,10|10,0:0|0:0,0:0:0:0:
296,174,55408,2,0,L|191:160,1,100,10|10,0:0|0:0,0:0:0:0:
221,63,56145,2,0,L|320:76,1,100,10|10,0:0|0:0,0:0:0:0:
417,101,56882,6,0,L|374:302,1,200,14|14,0:0|0:0,0:0:0:0:
189,372,58356,2,0,L|157:223,1,150,14|8,0:0|0:0,0:0:0:0:
1,29,59830,6,0,P|37:78|175:118,1,200,6|0,3:2|0:0,0:0:0:0:
254,73,60935,1,8,0:0:0:0:
341,123,61304,2,0,P|386:142|436:144,1,100,2|8,3:2|0:0,0:0:0:0:
452,243,62041,2,0,P|402:245|356:264,1,100,2|8,0:0|0:0,0:0:0:0:
274,322,62778,6,0,P|218:309|74:345,1,200,2|0,3:2|0:0,0:0:0:0:
41,248,63883,1,8,0:0:0:0:
4,154,64252,2,0,P|14:105|40:62,1,100,2|8,3:2|0:0,0:0:0:0:
140,63,64989,2,0,P|165:105|175:154,1,100,0|8,0:0|0:0,0:0:0:0:
230,237,65726,6,0,L|341:221,2,100,6|8|2,3:2|0:0|0:0,0:0:0:0:
173,319,66831,1,8,0:0:0:0:
272,332,67200,2,0,L|383:316,1,100,2|10,0:0|0:0,0:0:0:0:
427,237,67937,2,0,L|316:221,1,100,2|10,0:0|0:0,0:0:0:0:
229,204,68673,6,0,P|210:125|269:12,1,200,2|0,3:2|0:0,0:0:0:0:
356,1,69779,1,8,0:0:0:0:
443,48,70147,2,0,L|417:161,1,100,6|8,3:2|0:0,0:0:0:0:
400,243,70884,2,0,L|426:356,1,100,6|8,3:2|0:0,0:0:0:0:
322,346,71621,6,0,B|252:328|252:328|201:351|201:351|125:334,1,200,6|0,3:2|0:0,0:0:0:0:
32,313,72727,1,8,0:0:0:0:
25,213,73095,2,0,L|55:100,1,100,2|8,3:2|0:0,0:0:0:0:
147,139,73832,2,0,L|121:235,1,100,2|8,0:0|0:0,0:0:0:0:
131,335,74569,6,0,P|190:349|326:286,1,200,2|0,3:2|0:0,0:0:0:0:
300,199,75675,1,8,0:0:0:0:
362,120,76043,2,0,P|406:98|461:92,1,100,2|8,3:2|0:0,0:0:0:0:
486,186,76780,2,0,P|436:191|392:213,1,100,0|8,0:0|0:0,0:0:0:0:
461,284,77517,6,0,P|279:357|86:316,1,400,6|4,3:2|0:0,0:0:0:0:
2,365,79359,1,8,0:0:0:0:
4,265,79728,2,0,L|22:160,1,100,8|4,3:0|3:0,0:0:0:0:
87,94,80465,6,0,B|194:61|273:135|273:135|346:61|457:94,2,400,6|2|14,3:2|3:2|0:0,0:0:0:0:
256,192,83505,12,8,86176,0:0:0:0:
256,192,86361,12,8,89124,0:0:0:0:
