osu file format v14

[General]
AudioFilename: audio.mp3
AudioLeadIn: 0
PreviewTime: 61004
Countdown: 0
SampleSet: Soft
StackLeniency: 0.5
Mode: 0
LetterboxInBreaks: 0
WidescreenStoryboard: 1

[Editor]
DistanceSpacing: 1
BeatDivisor: 4
GridSize: 8
TimelineZoom: 2.3

[Metadata]
Title:Boku no Friend (TV Size)
TitleUnicode:ぼくのフレンド (TV Size)
Artist:Mewhan
ArtistUnicode:みゆはん
Creator:HakuYT
Version:Normal
Source:けものフレンズ
Tags:jrock j-rock Japanese Rock Kemono Friends ED ending Sand Cat スナネコ miyuhan
BeatmapID:2992658
BeatmapSetID:1455968

[Difficulty]
HPDrainRate:4
CircleSize:3
OverallDifficulty:5
ApproachRate:5
SliderMultiplier:1.1
SliderTickRate:1

[Events]
//Background and Video events
0,0,"835875.png",0,0
//Break Periods
//Storyboard Layer 0 (Background)
//Storyboard Layer 1 (Fail)
//Storyboard Layer 2 (Pass)
//Storyboard Layer 3 (Foreground)
//Storyboard Layer 4 (Overlay)
//Storyboard Sound Samples

[TimingPoints]
739,368.098159509202,4,2,1,60,1,0
739,-100,4,2,1,60,0,0
1465,368.098159509202,4,2,1,70,1,0
1649,-100,4,2,1,5,0,0
1741,-100,4,2,1,70,0,0
2201,-100,4,2,1,70,0,0
12231,-100,4,2,1,5,0,0
12323,-100,4,2,1,70,0,0
12415,-100,4,2,1,5,0,0
12507,-100,4,2,1,70,0,0
13980,-100,4,2,1,65,0,0
19593,-100,4,2,1,5,0,0
19685,-100,4,2,1,65,0,0
21250,-100,4,2,1,5,0,0
21342,-100,4,2,1,65,0,0
25759,-100,4,2,1,65,0,0
26035,-100,4,2,1,5,0,0
26127,-100,4,2,1,70,0,0
36802,-100,4,2,1,65,0,0
37538,-100,4,2,1,65,0,0
40023,-100,4,2,1,5,0,0
40115,-100,4,2,1,65,0,0
41863,-100,4,2,1,5,0,0
41955,-100,4,2,1,65,0,0
42968,-100,4,2,1,5,0,0
43060,-100,4,2,1,65,0,0
45912,-100,4,2,1,5,0,0
46004,-100,4,2,1,65,0,0
48857,-100,4,2,1,5,0,0
48949,-100,4,2,1,65,0,0
51802,-100,4,2,1,5,0,0
51894,-100,4,2,1,65,0,0
54747,-100,4,2,1,5,0,0
54839,-100,4,2,1,65,0,0
55207,-100,4,2,1,70,0,0
55483,-100,4,2,1,5,0,0
55575,-100,4,2,1,70,0,0
61096,-100,4,2,1,80,0,1
63949,-100,4,2,1,5,0,1
64041,-100,4,2,1,80,0,1
71495,-100,4,2,1,5,0,1
71587,-100,4,2,1,80,0,1
71679,-100,4,2,1,5,0,1
71771,-100,4,2,1,70,0,1
72139,-100,4,2,1,80,0,1
72231,-100,4,2,1,5,0,1
72323,-100,4,2,1,80,0,1
72415,-100,4,2,1,5,0,1
72507,-100,4,2,1,80,0,1
73152,-100,4,2,1,5,0,1
73244,-100,4,2,1,80,0,1
77569,-100,4,2,1,5,0,1
77661,-100,4,2,1,80,0,1
78765,-100,4,2,1,80,0,1
80238,-100,4,2,1,80,0,1
81710,-100,4,2,1,70,0,0
85851,-100,4,2,1,5,0,0
85943,-100,4,2,1,70,0,0
86035,-100,4,2,1,5,0,0
86127,-100,4,2,1,70,0,0

[Colours]
Combo1 : 128,128,128
Combo2 : 255,91,91
Combo3 : 255,165,74

[HitObjects]
55,44,2201,6,0,L|74:160,1,110,6|10,1:2|0:2,0:0:0:0:
159,219,2937,2,0,L|178:103,1,110,2|10,1:2|0:2,0:0:0:0:
253,31,3673,2,0,L|314:37,1,55,2|0,1:2|1:2,0:0:0:0:
347,73,4041,2,0,L|459:64,1,110,10|2,0:2|1:2,0:0:0:0:
498,165,4777,1,10,0:2:0:0:
416,240,5145,6,0,B|405:283|405:283|426:351,1,110,2|8,1:2|0:2,0:0:0:0:
315,361,5882,2,0,L|253:348,1,55,2|0,1:2|1:2,0:0:0:0:
214,320,6250,2,0,L|152:333,1,55,10|0,0:2|1:2,0:0:0:0:
107,348,6618,1,0,1:2:0:0:
69,244,6986,1,10,0:2:0:0:
164,189,7354,2,0,L|278:201,1,110,2|10,1:2|0:2,0:0:0:0:
327,207,7906,1,0,1:2:0:0:
327,207,8090,6,0,B|313:154|313:154|336:85,1,110,6|8,1:2|0:2,0:0:0:0:
249,27,8826,2,0,L|174:21,1,55,0|0,1:2|1:2,0:0:0:0:
139,19,9195,1,8,0:2:0:0:
30,27,9563,2,0,P|6:69|11:150,1,110,2|8,1:2|0:2,0:0:0:0:
20,182,10115,2,0,B|68:178|68:178|87:187|87:187|133:183,1,110,2|0,1:2|1:2,0:0:0:0:
182,177,10667,1,10,0:2:0:0:
270,242,11035,6,0,L|289:363,1,110,14|0,0:2|1:2,0:0:0:0:
341,356,11587,2,0,B|410:371|410:371|445:350,1,110,14|0,0:2|1:2,0:0:0:0:
495,332,12139,1,14,0:2:0:0:
507,231,12507,2,0,P|509:172|466:129,1,110,14|0,0:2|1:2,0:0:0:0:
428,124,13060,1,2,1:2:0:0:
428,124,13244,2,0,L|363:113,1,55,2|2,0:0|1:2,0:0:0:0:
319,102,13612,1,2,0:0:0:0:
316,215,13980,5,6,1:2:0:0:
316,215,14164,2,0,B|268:240|268:240|197:231,1,110,2|2,1:2|0:2,0:0:0:0:
157,229,14716,2,0,L|42:246,1,110,2|2,0:2|0:2,0:0:0:0:
10,141,15452,2,0,L|118:124,1,110,2|2,0:2|0:2,0:0:0:0:
175,115,16004,2,0,B|230:107|230:107|278:132,1,110,2|0,0:2|1:2,0:0:0:0:
347,61,16741,1,2,1:2:0:0:
347,61,16925,6,0,L|231:7,1,110,2|2,1:2|0:2,0:0:0:0:
192,2,17477,2,0,L|74:14,1,110,2|2,0:2|0:2,0:0:0:0:
33,37,18029,1,2,0:2:0:0:
23,146,18397,2,0,L|93:159,1,55,2|2,0:2|0:2,0:0:0:0:
119,172,18765,2,0,B|133:214|133:214|107:289,1,110,2|0,0:2|0:2,0:0:0:0:
100,329,19317,1,0,1:2:0:0:
201,371,19685,1,2,1:2:0:0:
201,371,19869,6,0,L|319:356,1,110,2|2,1:2|0:2,0:0:0:0:
367,346,20422,1,2,0:2:0:0:
367,346,20606,2,0,P|397:292|383:240,1,110,2|2,0:2|0:2,0:0:0:0:
311,166,21342,2,0,L|297:232,1,55,2|2,0:2|0:2,0:0:0:0:
273,269,21710,1,2,0:2:0:0:
273,269,21894,2,0,B|221:291|221:291|160:266,1,110,2|0,0:2|1:2,0:0:0:0:
128,236,22446,1,2,0:2:0:0:
205,160,22814,6,0,L|230:50,1,110,2|2,1:2|0:2,0:0:0:0:
274,21,23366,2,0,P|323:19|382:65,2,110,2|2|2,0:2|0:2|0:2,0:0:0:0:
229,52,24287,1,2,1:2:0:0:
315,120,24655,1,0,1:2:0:0:
234,195,25023,1,2,1:2:0:0:
331,245,25391,2,0,L|344:313,1,55,8|10,0:2|0:2,0:0:0:0:
302,337,25759,6,0,B|250:354|250:354|194:330,1,110,6|10,1:2|0:2,0:0:0:0:
112,264,26495,2,0,L|95:139,1,110,2|10,1:2|0:2,0:0:0:0:
180,83,27231,1,2,1:2:0:0:
180,83,27415,2,0,L|169:20,1,55,2|10,1:2|0:2,0:0:0:0:
117,22,27784,2,0,P|68:33|32:85,1,110,2|0,0:2|1:2,0:0:0:0:
17,131,28336,1,8,0:2:0:0:
71,223,28704,6,0,L|194:210,1,110,2|10,1:2|0:2,0:0:0:0:
265,141,29440,2,0,P|283:177|289:203,1,55,2|2,1:2|1:2,0:0:0:0:
320,234,29808,2,0,P|312:260|299:284,1,55,10|2,0:2|0:2,0:0:0:0:
264,327,30176,2,0,L|146:340,1,110,2|10,1:2|0:2,0:0:0:0:
99,343,30728,2,0,P|49:328|34:269,1,110,2|0,0:2|1:2,0:0:0:0:
34,222,31280,1,8,0:2:0:0:
95,130,31649,6,0,L|221:119,1,110,2|10,1:2|0:2,0:0:0:0:
273,35,32385,2,0,L|399:46,1,110,2|10,1:2|0:2,0:0:0:0:
437,52,32937,1,2,0:2:0:0:
437,52,33121,2,0,L|441:113,1,55,2|2,1:2|1:2,0:0:0:0:
472,158,33489,1,10,0:2:0:0:
472,158,33673,2,0,L|454:276,1,110,2|0,0:2|1:2,0:0:0:0:
447,321,34225,1,10,0:2:0:0:
346,366,34593,5,2,1:2:0:0:
323,258,34961,1,10,0:2:0:0:
323,258,35145,2,0,B|314:208|314:208|337:149,2,110,2|2|2,0:2|1:2|0:2,0:0:0:0:
270,275,36066,2,0,L|149:302,1,110,4|8,1:2|0:2,0:0:0:0:
110,316,36618,1,2,1:2:0:0:
110,316,36802,2,0,L|40:302,1,55,6|2,1:2|1:2,0:0:0:0:
2,292,37170,1,8,0:2:0:0:
39,188,37538,6,0,B|113:181|113:181|134:193|134:193|208:184,1,165,4|0,1:2|1:2,0:0:0:0:
254,177,38274,1,8,0:2:0:0:
254,177,38458,2,0,P|263:115|318:81,1,110,0|0,1:2|0:2,0:0:0:0:
352,80,39011,2,0,L|332:-11,2,82.5,0|0|0,1:2|1:2|1:2,0:0:0:0:
404,96,39747,1,8,0:2:0:0:
349,182,40115,2,0,L|337:247,1,55,2|8,1:2|0:2,0:0:0:0:
332,290,40483,6,0,P|357:335|423:355,1,110,6|2,1:2|0:2,0:0:0:0:
509,310,41219,2,0,P|482:263|431:244,1,110,10|2,0:2|0:2,0:0:0:0:
390,142,41955,2,0,L|382:57,2,82.5,0|0|0,1:2|1:2|1:2,0:0:0:0:
356,185,42691,2,0,P|308:212|232:195,1,110,8|2,0:2|1:2,0:0:0:0:
211,173,43244,1,8,0:2:0:0:
211,173,43428,2,0,B|232:116|208:82|192:103|173:62|191:10,1,165,6|0,1:2|1:2,0:0:0:0:
133,14,44164,2,0,L|64:19,1,55,8|0,0:2|1:2,0:0:0:0:
32,176,44900,6,0,L|46:269,2,82.5,0|0|0,1:2|1:2|1:2,0:0:0:0:
25,121,45636,1,8,0:2:0:0:
123,169,46004,2,0,L|188:174,1,55,2|8,1:2|0:2,0:0:0:0:
221,207,46372,2,0,B|235:248|235:248|210:322,1,110,6|2,1:2|0:2,0:0:0:0:
311,361,47109,2,0,B|297:320|297:320|318:256,1,110,10|2,0:2|0:2,0:0:0:0:
419,213,47845,5,2,1:2:0:0:
485,300,48213,1,0,0:0:0:0:
419,377,48581,2,0,L|297:358,1,110,10|0,0:0|1:2,0:0:0:0:
256,349,49133,1,8,0:2:0:0:
256,349,49317,2,0,B|221:323|177:330|177:330|152:380|88:367,1,165,6|0,1:2|1:2,0:0:0:0:
60,349,50053,2,0,L|48:286,1,55,10|0,0:2|1:2,0:0:0:0:
142,158,50790,6,0,L|249:175,2,82.5,0|0|0,1:2|1:2|1:2,0:0:0:0:
87,152,51526,1,8,0:2:0:0:
33,55,51894,2,0,L|112:41,1,55,2|8,1:2|0:2,0:0:0:0:
139,27,52262,2,0,L|268:42,1,110,6|2,1:2|0:2,0:0:0:0:
339,101,52998,2,0,L|468:86,1,110,10|2,0:2|0:2,0:0:0:0:
485,191,53734,6,0,B|497:231|497:231|475:281,2,82.5,2|0|0,1:2|1:2|1:2,0:0:0:0:
431,177,54471,1,10,0:2:0:0:
358,259,54839,2,0,L|294:268,1,55,10|8,0:2|0:2,0:0:0:0:
249,274,55207,2,0,P|212:241|207:165,1,110,6|10,1:2|0:2,0:0:0:0:
213,129,55759,1,2,1:2:0:0:
213,129,55943,2,0,L|224:64,1,55,10|2,0:2|1:2,0:0:0:0:
232,20,56311,1,10,0:2:0:0:
126,52,56679,6,0,L|9:41,1,110,10|10,0:2|0:2,0:0:0:0:
0,94,57231,2,0,B|-9:134|-9:134|19:223,1,110,2|0,1:2|1:2,0:0:0:0:
30,251,57784,1,8,0:2:0:0:
80,348,58152,2,0,P|129:373|182:354,1,110,6|2,1:2|1:2,0:0:0:0:
219,319,58704,1,2,1:2:0:0:
219,319,58888,2,0,P|234:267|210:220,1,110,14|2,0:2|1:2,0:0:0:0:
171,188,59440,5,2,1:2:0:0:
171,188,59624,2,0,L|106:177,2,55,14|2|2,0:2|1:2|1:2,0:0:0:0:
190,136,60176,1,10,0:0:0:0:
282,195,60544,2,0,L|352:185,1,55,8|8,1:2|1:2,0:0:0:0:
426,250,61096,2,0,P|451:301|423:350,1,110,6|10,1:2|0:2,0:0:0:0:
382,371,61649,1,2,1:2:0:0:
382,371,61833,1,2,1:2:0:0:
275,342,62201,2,0,L|208:353,1,55,10|2,0:2|0:2,0:0:0:0:
165,352,62569,6,0,B|131:312|131:312|145:236,1,110,2|10,1:2|0:2,0:0:0:0:
164,205,63121,2,0,L|286:192,1,110,2|0,1:2|1:2,0:0:0:0:
330,189,63673,1,8,0:2:0:0:
328,79,64041,2,0,P|289:37|221:31,1,110,2|10,1:2|0:2,0:0:0:0:
130,12,64777,1,2,1:2:0:0:
44,80,65145,1,10,0:2:0:0:
76,183,65514,6,0,L|67:261,1,55,2|2,1:2|1:2,0:0:0:0:
70,296,65882,1,10,0:2:0:0:
70,296,66066,2,0,P|103:339|172:351,1,110,2|0,1:2|1:2,0:0:0:0:
257,321,66802,1,2,0:2:0:0:
257,321,66986,2,0,L|276:204,1,110,6|10,1:2|0:2,0:0:0:0:
305,106,67722,2,0,L|376:95,1,55,2|2,1:2|1:2,0:0:0:0:
413,90,68090,1,10,0:2:0:0:
497,160,68458,6,0,L|480:280,1,110,2|10,1:2|0:2,0:0:0:0:
467,322,69011,1,2,1:2:0:0:
467,322,69195,2,0,L|389:334,1,55,2|2,1:2|1:2,0:0:0:0:
359,344,69563,1,10,0:2:0:0:
266,364,69931,2,0,P|218:334|147:345,1,110,0|10,1:2|0:2,0:0:0:0:
60,364,70667,2,0,L|53:294,1,55,2|2,1:2|1:2,0:0:0:0:
31,259,71035,2,0,L|38:189,1,55,10|2,0:2|0:2,0:0:0:0:
70,160,71403,6,0,L|143:150,2,55,4|0|8,1:2|1:2|0:2,0:0:0:0:
110,55,72139,2,0,L|37:45,2,55,4|0|8,1:2|1:2|0:2,0:0:0:0:
163,65,72691,1,10,0:2:0:0:
163,65,72876,2,0,B|209:61|209:61|226:67|226:67|273:62,1,110,6|8,1:2|0:2,0:0:0:0:
326,58,73428,1,0,0:2:0:0:
326,58,73612,2,0,P|346:90|332:167,1,110,0|8,1:2|0:2,0:0:0:0:
235,200,74348,6,0,B|226:233|226:233|246:317,1,110,2|10,1:2|0:2,0:0:0:0:
288,337,74900,2,0,L|408:352,1,110,2|0,1:2|1:2,0:0:0:0:
502,311,75636,1,2,0:2:0:0:
502,311,75820,2,0,L|490:232,1,55,2|0,1:2|0:2,0:0:0:0:
474,205,76188,2,0,L|489:89,1,110,10|2,0:2|1:2,0:0:0:0:
415,13,76925,2,0,L|344:24,1,55,10|2,0:2|0:2,0:0:0:0:
315,52,77293,6,0,P|298:90|313:161,2,110,2|10|2,1:2|0:2|1:2,0:0:0:0:
214,7,78397,1,8,0:2:0:0:
124,70,78765,2,0,L|6:54,1,110,6|2,1:2|0:2,0:0:0:0:
5,112,79317,1,2,1:2:0:0:
5,112,79501,2,0,B|-8:154|-8:154|10:234,1,110,10|2,0:2|0:2,0:0:0:0:
37,270,80053,1,2,1:2:0:0:
37,270,80238,6,0,L|161:293,1,110,6|10,1:2|0:2,0:0:0:0:
202,369,80974,2,0,L|265:362,1,55,10|6,0:2|1:3,0:0:0:0:
305,338,81342,2,0,L|368:345,1,55,10|10,0:2|0:2,0:0:0:0:
414,344,81710,2,0,P|445:296|431:243,1,110,6|10,1:2|0:2,0:0:0:0:
497,157,82446,2,0,P|449:126|396:140,1,110,2|10,1:2|0:2,0:0:0:0:
334,225,83182,6,0,L|262:214,1,55,2|0,1:2|1:2,0:0:0:0:
225,226,83550,2,0,B|238:267|238:267|220:331,1,110,10|2,0:2|1:2,0:0:0:0:
119,377,84287,1,10,0:2:0:0:
28,314,84655,2,0,L|18:204,1,110,14|0,0:2|1:2,0:0:0:0:
23,149,85207,2,0,B|70:142|70:142|90:154|90:154|143:143,1,110,14|0,0:2|1:2,0:0:0:0:
183,133,85759,2,0,L|198:67,1,55,14|2,0:2|1:2,0:0:0:0:
209,26,86127,6,0,B|247:18|247:18|324:35,1,110,14|0,0:2|1:2,0:0:0:0:
374,47,86679,1,0,1:2:0:0:
374,47,86863,2,0,L|454:42,1,55,2|2,0:0|1:2,0:0:0:0:
483,41,87231,1,2,0:0:0:0:
452,146,87599,2,0,L|388:154,2,55,14|0|0,0:2|1:2|1:2,0:0:0:0:
495,180,88152,1,12,0:2:0:0:
429,331,88704,2,0,L|493:323,2,55,14|0|0,0:2|1:2|1:2,0:0:0:0:
380,305,89256,1,12,0:2:0:0:
304,232,89624,5,10,1:2:0:0:
304,232,89808,2,0,L|238:225,1,55,8|8,0:2|0:2,0:0:0:0:
198,224,90176,1,8,0:2:0:0:
198,224,90360,1,8,0:2:0:0:
