osu file format v14

[General]
AudioFilename: audio.mp3
AudioLeadIn: 0
PreviewTime: 61004
Countdown: 0
SampleSet: Soft
StackLeniency: 0.5
Mode: 0
LetterboxInBreaks: 0
WidescreenStoryboard: 0

[Editor]
DistanceSpacing: 2.3
BeatDivisor: 4
GridSize: 4
TimelineZoom: 2.3

[Metadata]
Title:Boku no Friend (TV Size)
TitleUnicode:ぼくのフレンド (TV Size)
Artist:Mewhan
ArtistUnicode:みゆはん
Creator:HakuYT
Version:Insane
Source:けものフレンズ
Tags:jrock j-rock Japanese Rock Kemono Friends ED ending Sand Cat スナネコ miyuhan
BeatmapID:2992657
BeatmapSetID:1455968

[Difficulty]
HPDrainRate:5.5
CircleSize:3.8
OverallDifficulty:8.5
ApproachRate:8.7
SliderMultiplier:1.8
SliderTickRate:1

[Events]
//Background and Video events
0,0,"835875.png",0,0
//Break Periods
//Storyboard Layer 0 (Background)
//Storyboard Layer 1 (Fail)
//Storyboard Layer 2 (Pass)
//Storyboard Layer 3 (Foreground)
//Storyboard Layer 4 (Overlay)
//Storyboard Sound Samples

[TimingPoints]
739,368.098159509202,4,2,1,60,1,0
739,-100,4,2,1,60,0,0
1465,368.098159509202,4,2,1,70,1,0
1649,-100,4,2,1,5,0,0
1741,-100,4,2,1,70,0,0
2201,-100,4,2,1,70,0,0
12231,-100,4,2,1,5,0,0
12323,-100,4,2,1,70,0,0
12415,-100,4,2,1,5,0,0
12507,-100,4,2,1,70,0,0
13980,-133.333333333333,4,2,1,65,0,0
19593,-133.333333333333,4,2,1,5,0,0
19685,-133.333333333333,4,2,1,65,0,0
21250,-133.333333333333,4,2,1,5,0,0
21342,-133.333333333333,4,2,1,65,0,0
25759,-111.111111111111,4,2,1,65,0,0
26035,-111.111111111111,4,2,1,5,0,0
26127,-111.111111111111,4,2,1,70,0,0
36802,-100,4,2,1,65,0,0
37538,-153.846153846153,4,2,1,65,0,0
40023,-153.846153846153,4,2,1,5,0,0
40115,-153.846153846153,4,2,1,65,0,0
41863,-153.846153846153,4,2,1,5,0,0
41955,-153.846153846153,4,2,1,65,0,0
42968,-153.846153846153,4,2,1,5,0,0
43060,-153.846153846153,4,2,1,65,0,0
45912,-153.846153846153,4,2,1,5,0,0
46004,-153.846153846153,4,2,1,65,0,0
48857,-153.846153846153,4,2,1,5,0,0
48949,-153.846153846153,4,2,1,65,0,0
51802,-153.846153846153,4,2,1,5,0,0
51894,-153.846153846153,4,2,1,65,0,0
54747,-153.846153846153,4,2,1,5,0,0
54839,-153.846153846153,4,2,1,65,0,0
55207,-100,4,2,1,70,0,0
55483,-100,4,2,1,5,0,0
55575,-100,4,2,1,70,0,0
61096,-90.9090909090909,4,2,1,80,0,1
63949,-90.9090909090909,4,2,1,5,0,1
64041,-90.9090909090909,4,2,1,80,0,1
71495,-90.9090909090909,4,2,1,5,0,1
71587,-90.9090909090909,4,2,1,80,0,1
71679,-90.9090909090909,4,2,1,5,0,1
71771,-76.9230769230769,4,2,1,70,0,1
72139,-90.9090909090909,4,2,1,80,0,1
72231,-90.9090909090909,4,2,1,5,0,1
72323,-90.9090909090909,4,2,1,80,0,1
72415,-90.9090909090909,4,2,1,5,0,1
72507,-90.9090909090909,4,2,1,80,0,1
73152,-90.9090909090909,4,2,1,5,0,1
73244,-90.9090909090909,4,2,1,80,0,1
77569,-90.9090909090909,4,2,1,5,0,1
77661,-90.9090909090909,4,2,1,80,0,1
78765,-111.111111111111,4,2,1,80,0,1
80238,-90.9090909090909,4,2,1,80,0,1
81710,-100,4,2,1,70,0,0
85851,-100,4,2,1,5,0,0
85943,-100,4,2,1,70,0,0
86035,-100,4,2,1,5,0,0
86127,-100,4,2,1,70,0,0

[Colours]
Combo1 : 128,128,128
Combo2 : 255,91,91
Combo3 : 255,165,74

[HitObjects]
299,130,738,5,0,3:2:0:0:
240,18,1107,5,0,3:2:0:0:
148,99,1465,6,0,P|110:72|65:69,1,90,4|0,1:2|0:0,0:0:0:0:
17,146,1741,1,0,1:2:0:0:
36,185,1833,1,8,0:0:0:0:
71,211,1925,1,4,1:3:0:0:
115,222,2017,1,8,1:3:0:0:
159,214,2109,1,4,1:3:0:0:
197,190,2201,6,0,P|240:169|292:175,1,90,6|0,1:2|1:2,0:2:0:0:
410,366,2569,2,0,L|419:255,1,90,10|0,0:2|1:2,0:2:0:0:
427,191,2845,1,8,0:2:0:0:
427,191,2937,1,2,1:2:0:0:
261,336,3121,1,0,1:2:0:0:
281,171,3305,2,0,P|284:129|266:86,1,90,10|0,0:2|1:2,0:2:0:0:
39,60,3673,6,0,L|141:45,1,90,2|0,1:2|1:2,0:2:0:0:
115,222,4041,2,0,L|25:235,1,90,10|0,0:2|1:2,0:2:0:0:
74,143,4317,1,8,0:2:0:0:
74,143,4409,1,2,1:2:0:0:
204,269,4593,1,0,1:2:0:0:
57,335,4777,1,10,0:2:0:0:
187,167,4961,1,0,1:2:0:0:
187,167,5053,1,8,0:2:0:0:
187,167,5145,6,0,B|297:143|234:234|367:206,1,180,2|8,1:2|0:2,0:2:0:0:
464,358,5698,1,0,1:2:0:0:
464,358,5790,1,8,0:2:0:0:
464,358,5882,2,0,L|481:262,1,90,2|0,1:2|1:2,0:2:0:0:
313,35,6250,2,0,L|330:131,1,90,10|0,0:2|1:2,0:2:0:0:
351,208,6526,1,8,0:2:0:0:
351,208,6618,5,0,1:2:0:0:
443,57,6802,1,0,1:2:0:0:
246,133,6986,2,0,L|150:117,1,90,10|0,0:2|1:2,0:2:0:0:
73,99,7262,1,8,0:2:0:0:
73,99,7354,1,2,1:2:0:0:
121,308,7538,1,0,1:2:0:0:
1,200,7722,1,10,0:2:0:0:
201,237,7906,1,0,1:2:0:0:
201,237,7998,1,8,0:2:0:0:
201,237,8090,6,0,P|220:278|227:332,1,90,6|0,1:2|1:2,0:2:0:0:
459,374,8458,2,0,L|369:363,1,90,8|0,0:2|1:2,0:2:0:0:
310,294,8734,1,8,0:2:0:0:
310,294,8826,1,0,1:2:0:0:
477,248,9011,1,0,1:2:0:0:
330,153,9195,1,8,0:2:0:0:
369,363,9379,1,0,1:2:0:0:
427,142,9563,6,0,P|370:72|266:79,1,180,2|8,1:2|0:2,0:2:0:0:
201,237,10115,1,2,1:2:0:0:
201,237,10207,1,8,0:2:0:0:
201,237,10299,2,0,L|182:130,1,90,0|0,1:2|1:2,0:2:0:0:
14,75,10667,1,10,0:2:0:0:
220,12,10851,1,0,1:2:0:0:
220,12,10943,1,0,1:2:0:0:
220,12,11035,5,14,0:2:0:0:
70,154,11219,1,0,1:2:0:0:
297,180,11403,1,0,1:2:0:0:
107,42,11587,5,14,0:2:0:0:
134,258,11771,1,0,1:2:0:0:
259,94,11955,1,0,1:2:0:0:
217,327,12139,6,0,L|284:316,1,45,14|0,0:2|0:2,0:2:0:0:
327,263,12323,2,0,L|394:274,1,45,2|0,1:2|0:2,0:2:0:0:
496,291,12507,5,14,0:2:0:0:
397,161,12692,1,0,1:2:0:0:
425,337,12876,1,0,1:2:0:0:
482,143,13060,1,2,1:2:0:0:
339,95,13244,2,0,P|315:132|313:177,1,90,2|2,0:0|1:2,0:0:0:0:
228,291,13612,2,0,P|226:246|202:208,1,90,2|8,0:0|0:0,0:0:0:0:
125,74,13980,5,6,1:2:0:0:
48,121,14164,2,0,L|39:202,1,67.5000025749208,2|0,1:2|0:2,0:2:0:0:
35,292,14532,1,2,0:2:0:0:
151,191,14716,2,0,L|158:258,1,67.5000025749208,2|0,0:2|0:2,0:2:0:0:
173,341,15084,1,2,0:2:0:0:
266,352,15268,1,2,0:2:0:0:
332,262,15452,6,0,P|303:241|256:235,1,67.5000025749208,2|0,0:2|0:2,0:2:0:0:
238,154,15820,1,2,0:2:0:0:
323,108,16004,2,0,B|384:100|384:100|394:109|394:109|458:101,1,135.000005149842,2|0,0:2|1:2,0:2:0:0:
444,210,16557,1,0,0:2:0:0:
360,184,16741,1,2,1:2:0:0:
332,262,16925,6,0,L|349:337,1,67.5000025749208,2|2,1:2|1:2,0:2:0:0:
258,384,17293,1,2,0:2:0:0:
172,292,17477,2,0,B|137:269|107:275|107:275|89:320|39:318,1,135.000005149842,2|2,0:2|0:2,0:2:0:0:
26,172,18029,2,0,L|34:245,1,67.5000025749208,2|2,0:2|0:2,0:2:0:0:
148,191,18397,2,0,L|140:123,1,67.5000025749208,2|2,0:2|0:2,0:2:0:0:
40,34,18765,6,0,B|101:42|101:42|111:33|111:33|175:41,1,135.000005149842,2|0,0:2|0:2,0:2:0:0:
258,98,19317,2,0,P|281:140|264:200,1,101.250003862381,0|0,1:2|0:2,0:2:0:0:
231,272,19685,1,2,1:2:0:0:
346,329,19869,6,0,L|331:255,1,67.5000025749208,2|2,1:2|1:2,0:2:0:0:
415,122,20238,2,0,L|400:196,1,67.5000025749208,2|2,0:2|0:2,0:2:0:0:
258,98,20606,2,0,P|293:81|330:87,1,67.5000025749208,2|2,0:2|0:2,0:2:0:0:
179,135,20974,2,0,P|168:86|190:42,1,101.250003862381,2|0,0:2|0:2,0:2:0:0:
258,98,21342,6,0,L|271:178,1,67.5000025749208,2|2,0:2|0:2,0:2:0:0:
228,271,21710,1,2,0:2:0:0:
351,207,21894,2,0,B|400:190|423:216|408:226|442:246|476:240,1,135.000005149842,2|0,0:2|1:2,0:2:0:0:
478,379,22446,1,2,0:2:0:0:
410,323,22630,1,0,1:2:0:0:
339,370,22814,6,0,L|264:360,1,67.5000025749208,2|0,1:2|1:2,0:2:0:0:
161,348,23182,1,2,0:2:0:0:
208,207,23366,2,0,P|224:244|227:284,1,67.5000025749208,2|0,0:2|0:2,0:2:0:0:
69,353,23734,2,0,P|74:319|88:289,1,67.5000025749208,2|0,0:2|0:2,0:2:0:0:
13,184,24103,1,2,0:2:0:0:
13,184,24287,6,0,L|110:168,1,67.5000025749208,0|0,1:2|0:2,0:2:0:0:
124,26,24655,2,0,L|140:123,1,67.5000025749208,0|2,1:2|0:2,0:2:0:0:
282,137,25023,2,0,L|185:153,1,67.5000025749208,2|2,1:2|2:2,2:2:0:0:
88,289,25391,1,8,0:2:0:0:
104,323,25483,1,8,0:2:0:0:
133,347,25575,1,10,0:2:0:0:
169,357,25667,1,8,0:2:0:0:
207,351,25759,6,0,B|263:343|263:343|278:349|278:349|336:340,1,121.499996292114,6|0,1:2|0:2,0:2:0:0:
423,328,26127,1,10,0:2:0:0:
299,256,26311,1,2,0:2:0:0:
405,139,26495,2,0,L|390:228,1,80.9999975280763,2|0,1:2|1:2,0:2:0:0:
194,271,26863,2,0,L|179:182,1,80.9999975280763,10|0,0:2|0:2,0:2:0:0:
250,47,27231,5,2,1:2:0:0:
296,223,27415,1,2,1:2:0:0:
159,75,27599,1,10,0:2:0:0:
102,218,27784,2,0,P|68:235|13:230,1,80.9999975280763,2|0,0:2|1:2,0:2:0:0:
55,148,28151,1,0,1:2:0:0:
79,319,28335,1,8,0:2:0:0:
180,191,28520,1,2,0:2:0:0:
178,350,28704,6,0,L|194:260,1,80.9999975280763,2|0,1:2|0:2,0:2:0:0:
311,143,29072,2,0,L|296:222,1,80.9999975280763,10|0,0:2|0:2,0:2:0:0:
311,384,29440,1,2,1:2:0:0:
415,251,29624,1,2,1:2:0:0:
274,296,29808,1,10,0:2:0:0:
438,344,29992,1,2,0:2:0:0:
472,185,30176,6,0,P|435:161|393:160,1,80.9999975280763,2|0,1:2|1:2,0:2:0:0:
286,213,30544,1,10,0:2:0:0:
306,37,30728,2,0,L|320:130,1,80.9999975280763,2|0,0:2|1:2,0:2:0:0:
409,249,31096,1,0,1:2:0:0:
450,77,31280,1,8,0:2:0:0:
286,213,31465,1,2,0:2:0:0:
286,213,31557,1,0,0:2:0:0:
286,213,31649,6,0,L|190:199,1,80.9999975280763,2|2,1:2|0:2,0:2:0:0:
43,312,32017,2,0,L|123:323,1,80.9999975280763,10|2,0:2|0:2,0:2:0:0:
118,126,32385,2,0,L|106:206,1,80.9999975280763,2|2,1:2|1:2,0:2:0:0:
217,369,32753,2,0,L|228:288,1,80.9999975280763,10|2,0:2|0:2,0:2:0:0:
362,173,33121,5,2,1:2:0:0:
336,348,33305,1,2,1:2:0:0:
476,294,33489,1,10,0:2:0:0:
265,207,33673,2,0,B|191:202|191:202|178:210|178:210|102:205,1,161.999995056153,2|0,0:2|1:2,0:2:0:0:
7,64,34225,6,0,P|50:64|84:108,1,80.9999975280763,10|0,0:2|0:2,0:2:0:0:
219,3,34593,2,0,P|219:46|175:80,1,80.9999975280763,2|0,1:2|0:2,0:2:0:0:
19,145,34961,1,10,0:2:0:0:
94,285,35145,2,0,L|108:185,1,80.9999975280763,2|0,0:2|1:2,0:2:0:0:
277,134,35514,2,0,L|265:214,1,80.9999975280763,2|8,1:2|0:2,0:2:0:0:
363,350,35882,1,2,0:2:0:0:
155,342,36066,5,4,1:2:0:0:
336,271,36250,1,0,1:2:0:0:
182,166,36434,1,8,0:2:0:0:
246,360,36618,1,2,1:2:0:0:
246,360,36710,1,8,0:2:0:0:
246,360,36802,6,0,L|260:276,1,45,6|8,1:2|0:2,0:2:0:0:
182,166,36986,2,0,L|175:211,1,45,2|0,1:2|0:2,0:2:0:0:
63,360,37170,1,8,0:2:0:0:
18,189,37354,1,8,0:2:0:0:
18,189,37446,1,8,0:2:0:0:
18,189,37538,6,0,B|25:103|25:103|19:91|19:91|25:-3,1,175.499991966248,4|0,1:2|1:2,0:2:0:0:
121,50,38274,1,8,0:2:0:0:
220,54,38458,2,0,P|208:105|150:147,1,116.999994644165,0|0,1:2|0:2,0:2:0:0:
77,218,39011,6,0,B|64:254|64:254|83:325,2,87.749995983124,0|0|0,1:2|1:2|1:2,0:2:0:0:
180,339,39747,2,0,L|292:322,1,87.749995983124,8|0,0:2|0:2,0:2:0:0:
333,318,40115,1,2,1:2:0:0:
404,191,40299,1,8,0:2:0:0:
483,364,40483,6,0,L|492:287,1,58.4999973220826,6|0,1:2|0:2,0:2:0:0:
404,191,40851,2,0,L|414:248,1,58.4999973220826,2|0,0:2|1:2,0:2:0:0:
472,122,41219,2,0,P|445:104|404:97,1,58.4999973220826,10|0,0:2|1:2,0:2:0:0:
351,7,41587,2,0,P|319:35|308:102,1,87.749995983124,2|0,0:2|0:2,0:2:0:0:
273,136,41955,6,0,L|180:150,2,87.749995983124,0|0|0,1:2|1:2|1:2,0:2:0:0:
339,242,42691,2,0,P|364:284|344:330,1,87.749995983124,8|0,0:2|0:2,0:2:0:0:
308,368,43060,1,2,1:2:0:0:
205,289,43244,1,8,0:2:0:0:
61,384,43428,6,0,B|68:298|68:298|62:286|62:286|68:191,1,175.499991966248,6|0,1:2|1:2,0:2:0:0:
149,139,44164,1,8,0:2:0:0:
250,208,44348,2,0,P|304:228|357:191,1,116.999994644165,0|0,1:2|0:2,0:2:0:0:
453,97,44900,6,0,B|466:133|466:133|447:204,2,87.749995983124,0|0|0,1:2|1:2|1:2,0:2:0:0:
311,24,45636,2,0,L|334:129,1,87.749995983124,8|0,0:2|0:2,0:2:0:0:
345,175,46004,1,2,1:2:0:0:
242,303,46188,1,8,0:2:0:0:
225,158,46372,6,0,L|211:90,1,58.4999973220826,6|0,1:2|0:2,0:2:0:0:
120,10,46741,2,0,L|108:67,1,58.4999973220826,2|0,0:2|1:2,0:2:0:0:
52,170,47109,2,0,P|79:185|119:185,1,58.4999973220826,10|0,0:2|1:2,0:2:0:0:
73,294,47477,2,0,P|47:279|18:276,1,58.4999973220826,2|0,0:2|0:2,0:2:0:0:
132,356,47845,6,0,B|169:351|169:351|186:360|186:360|243:353,2,87.749995983124,2|0|0,1:2|1:2|1:2,0:2:0:0:
212,279,48581,2,0,P|254:268|303:288,1,87.749995983124,10|0,0:0|0:0,0:0:0:0:
357,306,48949,1,0,1:2:0:0:
198,194,49133,1,8,0:2:0:0:
323,96,49317,6,0,B|364:66|408:79|408:79|434:127|490:122,1,175.499991966248,6|0,1:2|1:2,0:2:0:0:
480,41,50053,1,10,0:2:0:0:
476,122,50238,2,0,L|472:254,1,116.999994644165,0|0,1:2|0:2,0:2:0:0:
406,340,50790,6,0,P|450:345|485:374,2,87.749995983124,0|0|0,1:2|1:2|1:2,0:2:0:0:
307,380,51526,2,0,B|295:335|295:335|315:272,1,87.749995983124,8|0,0:2|0:2,0:2:0:0:
339,236,51894,1,2,1:2:0:0:
197,285,52078,1,8,0:2:0:0:
260,145,52262,6,0,L|251:230,1,58.4999973220826,6|0,1:2|0:2,0:2:0:0:
338,73,52630,2,0,L|347:158,1,58.4999973220826,2|0,0:2|1:2,0:2:0:0:
194,85,52998,2,0,P|218:67|253:57,1,58.4999973220826,10|0,0:2|1:2,0:2:0:0:
101,103,53366,2,0,P|101:73|114:39,1,58.4999973220826,2|0,0:2|0:2,0:2:0:0:
108,193,53734,6,0,L|6:209,2,87.749995983124,2|0|0,1:2|1:2|1:2,0:2:0:0:
234,240,54471,2,0,P|269:284|273:333,1,87.749995983124,10|0,0:2|0:2,0:2:0:0:
282,369,54839,1,10,0:2:0:0:
326,364,54931,1,8,0:2:0:0:
371,359,55023,1,8,0:2:0:0:
416,354,55115,1,8,0:2:0:0:
460,349,55207,6,0,B|488:285|488:285|456:200,1,135,6|0,1:2|0:2,0:2:0:0:
410,144,55575,1,10,0:2:0:0:
295,279,55759,1,2,1:2:0:0:
249,93,55943,1,10,0:2:0:0:
387,272,56127,1,2,1:2:0:0:
215,182,56311,2,0,L|110:196,1,90,10|0,0:2|1:2,0:2:0:0:
46,199,56587,1,0,1:2:0:0:
46,199,56679,5,10,0:2:0:0:
143,98,56863,1,2,1:2:0:0:
74,288,57047,1,10,0:2:0:0:
59,103,57231,2,0,P|72:50|104:29,1,90,2|8,1:2|0:2,0:2:0:0:
243,13,57600,1,0,1:2:0:0:
215,182,57784,1,8,0:2:0:0:
349,88,57968,1,2,1:2:0:0:
349,88,58060,1,0,1:2:0:0:
349,88,58152,6,2,L|359:183,1,90,6|2,1:2|1:2,0:2:0:0:
234,380,58520,2,0,L|224:290,1,90,2|2,1:2|1:2,0:2:0:0:
51,110,58888,1,14,0:2:0:0:
102,321,59072,1,2,1:2:0:0:
215,182,59256,1,2,1:2:0:0:
0,247,59440,1,2,1:2:0:0:
153,78,59624,5,14,0:2:0:0:
224,290,59808,1,2,1:2:0:0:
304,87,59992,1,2,1:2:0:0:
82,173,60176,1,10,0:0:0:0:
63,96,60544,5,8,1:2:0:0:
123,363,60728,1,8,1:2:0:0:
400,182,61096,6,0,L|280:168,1,99.0000030212403,6|2,1:2|0:2,0:2:0:0:
123,363,61464,2,0,L|243:349,1,99.0000030212403,10|2,0:2|1:2,0:2:0:0:
304,342,61741,1,8,0:2:0:0:
304,342,61833,1,2,1:2:0:0:
151,179,62017,1,0,1:2:0:0:
358,258,62201,1,10,0:2:0:0:
107,278,62385,1,2,0:2:0:0:
301,170,62569,6,0,P|325:125|320:72,1,99.0000030212403,2|0,1:2|1:2,0:2:0:0:
186,0,62937,1,10,0:2:0:0:
151,179,63121,1,2,1:2:0:0:
151,179,63213,1,8,0:2:0:0:
151,179,63305,1,0,1:2:0:0:
234,80,63489,1,0,1:2:0:0:
278,275,63673,2,0,B|342:268|342:268|360:280|360:280|436:272,1,148.50000453186,8|0,0:2|0:2,0:2:0:0:
492,212,64041,6,0,P|517:264|510:311,1,99.0000030212403,2|2,1:2|0:2,0:2:0:0:
201,309,64409,2,0,P|198:260|221:217,1,99.0000030212403,10|2,0:2|1:2,0:2:0:0:
287,151,64685,1,8,0:2:0:0:
287,151,64777,1,2,1:2:0:0:
314,356,64961,1,2,1:2:0:0:
413,170,65145,1,10,0:2:0:0:
221,217,65330,1,2,0:2:0:0:
304,53,65514,6,0,L|286:155,1,99.0000030212403,2|2,1:2|1:2,0:2:0:0:
41,233,65882,2,0,L|58:135,1,99.0000030212403,10|2,0:2|1:2,0:2:0:0:
77,53,66158,1,8,0:2:0:0:
77,53,66250,1,0,1:2:0:0:
221,217,66434,1,0,1:2:0:0:
184,53,66618,1,8,0:2:0:0:
117,288,66802,1,2,0:2:0:0:
296,181,66986,6,0,P|262:144|190:136,1,99.0000030212403,6|0,1:2|0:2,0:2:0:0:
37,338,67354,2,0,P|84:324|116:288,1,99.0000030212403,10|0,0:2|1:2,0:2:0:0:
135,208,67630,1,8,0:2:0:0:
135,208,67722,1,2,1:2:0:0:
182,384,67906,1,2,1:2:0:0:
316,255,68090,1,10,0:2:0:0:
116,287,68274,1,2,0:2:0:0:
357,378,68458,6,0,L|463:365,1,99.0000030212403,2|2,1:2|1:2,0:2:0:0:
271,186,68826,2,0,P|243:219|246:286,1,99.0000030212403,10|2,0:2|1:2,0:2:0:0:
273,354,69103,1,8,0:2:0:0:
273,354,69195,1,2,1:2:0:0:
372,186,69379,1,2,1:2:0:0:
357,378,69563,1,10,0:2:0:0:
240,272,69747,6,0,L|138:286,1,99.0000030212403,2|0,0:2|1:2,0:2:0:0:
13,194,70115,1,2,0:2:0:0:
211,115,70299,1,10,0:2:0:0:
52,55,70483,1,2,1:2:0:0:
52,55,70575,1,8,0:2:0:0:
52,55,70667,5,2,1:2:0:0:
128,252,70851,1,2,1:2:0:0:
149,35,71035,1,10,0:2:0:0:
267,190,71219,1,2,0:2:0:0:
315,5,71403,6,0,L|301:86,1,49.5000015106202,4|0,1:2|0:2,0:2:0:0:
367,249,71587,2,0,L|358:200,1,49.5000015106202,0|0,1:2|0:2,0:2:0:0:
87,142,71771,2,0,B|139:137|139:137|154:147|154:147|236:139,1,116.999994644165,8|8,0:2|1:3,0:2:0:0:
267,190,72047,1,4,1:3:0:0:
267,190,72139,6,0,L|257:251,1,49.5000015106202,4|0,1:2|0:2,0:2:0:0:
86,368,72323,2,0,L|76:316,1,49.5000015106202,0|0,1:2|0:2,0:2:0:0:
274,356,72507,1,8,0:2:0:0:
323,351,72599,1,8,0:2:0:0:
372,347,72691,1,10,0:2:0:0:
421,343,72784,1,8,0:2:0:0:
471,338,72876,6,0,B|460:276|460:276|474:253|474:253|461:180,1,148.50000453186,6|0,1:2|0:2,0:2:0:0:
443,100,73244,1,8,0:2:0:0:
358,266,73428,1,0,0:2:0:0:
280,91,73612,2,0,L|265:198,1,99.0000030212403,0|0,1:2|1:2,0:2:0:0:
141,328,73980,1,8,0:2:0:0:
150,128,74164,1,0,0:2:0:0:
280,313,74348,6,0,P|310:275|358:266,1,99.0000030212403,2|0,1:2|1:2,0:2:0:0:
512,136,74716,2,0,L|390:115,1,99.0000030212403,10|2,0:2|1:2,0:2:0:0:
329,102,74992,1,8,0:2:0:0:
329,102,75084,1,0,1:2:0:0:
472,240,75268,1,0,1:2:0:0:
258,205,75452,1,8,0:2:0:0:
414,119,75636,1,2,0:2:0:0:
250,24,75820,6,0,L|234:127,1,99.0000030212403,2|0,1:2|0:2,0:2:0:0:
87,283,76188,2,0,L|71:185,1,99.0000030212403,10|2,0:2|1:2,0:2:0:0:
60,96,76464,1,8,0:2:0:0:
60,96,76557,1,2,1:2:0:0:
173,235,76741,1,2,1:2:0:0:
0,278,76925,1,10,0:2:0:0:
71,185,77109,1,2,0:2:0:0:
194,323,77293,6,0,P|252:277|248:196,1,148.50000453186,2|0,1:2|0:2,0:2:0:0:
205,149,77661,2,0,P|239:176|304:183,1,99.0000030212403,10|2,0:2|1:2,0:2:0:0:
379,171,77937,1,8,0:2:0:0:
379,171,78029,1,2,1:2:0:0:
310,345,78213,1,0,1:2:0:0:
477,328,78397,1,8,0:2:0:0:
385,264,78581,1,2,0:2:0:0:
478,92,78765,6,0,B|502:148|502:148|463:252,1,161.999995056153,6|2,1:2|0:2,0:2:0:0:
379,171,79317,1,2,1:2:0:0:
233,92,79501,2,0,P|298:32|378:70,1,161.999995056153,10|2,0:2|0:2,0:2:0:0:
311,118,80053,1,2,1:2:0:0:
248,252,80238,6,0,L|144:236,1,99.0000030212403,6|0,1:2|1:2,0:2:0:0:
99,33,80606,1,10,0:2:0:0:
99,33,80698,1,8,0:2:0:0:
99,33,80790,2,0,L|87:119,1,49.5000015106202,0|0,1:2|1:2,0:2:0:0:
0,238,80974,1,10,0:2:0:0:
0,238,81066,1,8,0:2:0:0:
0,238,81158,2,0,L|67:226,1,49.5000015106202,6|4,1:3|1:3,0:2:0:0:
232,199,81342,1,10,0:2:0:0:
72,354,81526,1,10,0:2:0:0:
72,354,81618,1,8,0:2:0:0:
72,354,81710,6,0,L|176:343,1,90,6|0,1:2|1:2,0:2:0:0:
290,134,82078,2,0,P|316:175|310:227,1,90,10|0,0:2|1:2,0:2:0:0:
306,309,82354,1,8,0:2:0:0:
306,309,82446,1,2,1:2:0:0:
232,199,82630,1,0,1:2:0:0:
397,219,82814,2,0,L|494:207,1,90,10|0,0:2|1:2,0:2:0:0:
412,27,83182,6,0,B|431:68|431:68|414:114,1,90,2|0,1:2|1:2,0:2:0:0:
241,109,83550,2,0,B|225:66|225:66|244:25,1,90,10|0,0:2|1:2,0:2:0:0:
331,74,83826,1,8,0:2:0:0:
331,74,83918,1,2,1:2:0:0:
231,199,84103,1,0,1:2:0:0:
397,219,84287,2,0,L|378:313,1,90,10|0,0:2|1:2,0:2:0:0:
364,384,84563,1,0,1:2:0:0:
364,384,84655,5,14,0:2:0:0:
179,296,84839,1,0,1:2:0:0:
321,172,85023,1,0,1:2:0:0:
99,359,85207,5,14,0:2:0:0:
279,270,85391,1,0,1:2:0:0:
143,146,85575,1,0,1:2:0:0:
286,314,85759,6,0,L|276:253,1,45,14|0,0:2|0:2,0:2:0:0:
229,188,85943,2,0,L|239:127,1,45,2|0,1:2|0:2,0:2:0:0:
302,13,86127,5,14,0:2:0:0:
399,148,86311,1,0,1:2:0:0:
445,0,86495,1,0,1:2:0:0:
320,167,86679,1,0,1:2:0:0:
475,119,86863,2,0,P|480:163|462:203,1,90,2|2,0:0|1:2,0:0:0:0:
512,300,87231,2,0,P|476:328|432:332,1,90,2|8,0:0|0:0,0:0:0:0:
225,370,87599,5,14,0:2:0:0:
192,157,87783,1,0,1:2:0:0:
95,291,87967,1,0,1:2:0:0:
309,253,88151,1,12,0:2:0:0:
192,157,88704,5,14,0:2:0:0:
381,297,88888,1,0,1:2:0:0:
165,324,89072,1,0,1:2:0:0:
341,166,89256,1,12,0:2:0:0:
359,193,89624,5,10,1:2:0:0:
280,340,89808,1,8,0:2:0:0:
243,104,89992,1,8,0:2:0:0:
430,327,90176,1,8,0:2:0:0:
439,92,90360,1,8,0:2:0:0:
