osu file format v14

[General]
AudioFilename: audio.mp3
AudioLeadIn: 0
PreviewTime: 61004
Countdown: 0
SampleSet: Soft
StackLeniency: 0.5
Mode: 0
LetterboxInBreaks: 0
WidescreenStoryboard: 1

[Editor]
Bookmarks: 18753
DistanceSpacing: 1.3
BeatDivisor: 4
GridSize: 4
TimelineZoom: 2.3

[Metadata]
Title:Boku no Friend (TV Size)
TitleUnicode:ぼくのフレンド (TV Size)
Artist:Mewhan
ArtistUnicode:みゆはん
Creator:HakuYT
Version:Hard
Source:けものフレンズ
Tags:jrock j-rock Japanese Rock Kemono Friends ED ending Sand Cat スナネコ miyuhan
BeatmapID:2992656
BeatmapSetID:1455968

[Difficulty]
HPDrainRate:5
CircleSize:3
OverallDifficulty:6
ApproachRate:7.8
SliderMultiplier:1.5
SliderTickRate:1

[Events]
//Background and Video events
0,0,"835875.png",0,0
//Break Periods
//Storyboard Layer 0 (Background)
//Storyboard Layer 1 (Fail)
//Storyboard Layer 2 (Pass)
//Storyboard Layer 3 (Foreground)
//Storyboard Layer 4 (Overlay)
//Storyboard Sound Samples

[TimingPoints]
739,368.098159509202,4,2,1,60,1,0
739,-100,4,2,1,60,0,0
1465,368.098159509202,4,2,1,70,1,0
1649,-100,4,2,1,5,0,0
1741,-100,4,2,1,70,0,0
2201,-100,4,2,1,70,0,0
12231,-100,4,2,1,5,0,0
12323,-100,4,2,1,70,0,0
12415,-100,4,2,1,5,0,0
12507,-100,4,2,1,70,0,0
13980,-133.333333333333,4,2,1,65,0,0
19593,-133.333333333333,4,2,1,5,0,0
19685,-133.333333333333,4,2,1,65,0,0
21250,-133.333333333333,4,2,1,5,0,0
21342,-133.333333333333,4,2,1,65,0,0
25759,-111.111111111111,4,2,1,65,0,0
26035,-111.111111111111,4,2,1,5,0,0
26127,-111.111111111111,4,2,1,70,0,0
36802,-100,4,2,1,65,0,0
37538,-153.846153846153,4,2,1,65,0,0
40023,-153.846153846153,4,2,1,5,0,0
40115,-153.846153846153,4,2,1,65,0,0
41863,-153.846153846153,4,2,1,5,0,0
41955,-153.846153846153,4,2,1,65,0,0
42968,-153.846153846153,4,2,1,5,0,0
43060,-153.846153846153,4,2,1,65,0,0
45912,-153.846153846153,4,2,1,5,0,0
46004,-153.846153846153,4,2,1,65,0,0
48857,-153.846153846153,4,2,1,5,0,0
48949,-153.846153846153,4,2,1,65,0,0
51802,-153.846153846153,4,2,1,5,0,0
51894,-153.846153846153,4,2,1,65,0,0
54747,-153.846153846153,4,2,1,5,0,0
54839,-153.846153846153,4,2,1,65,0,0
55207,-100,4,2,1,70,0,0
55483,-100,4,2,1,5,0,0
55575,-100,4,2,1,70,0,0
61096,-90.9090909090909,4,2,1,80,0,1
63949,-90.9090909090909,4,2,1,5,0,1
64041,-90.9090909090909,4,2,1,80,0,1
71495,-90.9090909090909,4,2,1,5,0,1
71587,-90.9090909090909,4,2,1,80,0,1
71679,-90.9090909090909,4,2,1,5,0,1
71771,-76.9230769230769,4,2,1,70,0,1
72139,-90.9090909090909,4,2,1,80,0,1
72231,-90.9090909090909,4,2,1,5,0,1
72323,-90.9090909090909,4,2,1,80,0,1
72415,-90.9090909090909,4,2,1,5,0,1
72507,-90.9090909090909,4,2,1,80,0,1
73152,-90.9090909090909,4,2,1,5,0,1
73244,-90.9090909090909,4,2,1,80,0,1
77569,-90.9090909090909,4,2,1,5,0,1
77661,-90.9090909090909,4,2,1,80,0,1
78765,-111.111111111111,4,2,1,80,0,1
80238,-90.9090909090909,4,2,1,80,0,1
81710,-100,4,2,1,70,0,0
85851,-100,4,2,1,5,0,0
85943,-100,4,2,1,70,0,0
86035,-100,4,2,1,5,0,0
86127,-100,4,2,1,70,0,0

[Colours]
Combo1 : 128,128,128
Combo2 : 255,91,91
Combo3 : 255,165,74

[HitObjects]
151,89,738,5,0,3:2:0:0:
292,200,1107,5,0,3:2:0:0:
401,49,1465,5,4,1:2:0:0:
270,58,1741,5,0,1:2:0:0:
270,58,1833,1,8,0:0:0:0:
270,58,1925,2,0,L|280:114,2,37.5,4|8|4,1:3|1:3|1:3,0:0:0:0:
231,31,2201,6,0,P|198:18|154:23,1,75,6|0,1:2|1:2,0:0:0:0:
69,58,2569,1,10,0:2:0:0:
143,136,2753,1,0,1:2:0:0:
143,136,2845,1,8,0:2:0:0:
143,136,2937,2,0,L|129:218,1,75,2|0,1:2|1:2,0:0:0:0:
41,250,3305,2,0,L|27:332,1,75,10|0,0:2|1:2,0:0:0:0:
117,362,3673,6,0,P|146:374|206:362,1,75,2|0,1:2|1:2,0:0:0:0:
273,323,4041,1,10,0:2:0:0:
227,241,4225,1,0,1:2:0:0:
227,241,4317,1,8,0:2:0:0:
227,241,4409,2,0,L|237:148,1,75,2|0,1:2|1:2,0:0:0:0:
247,69,4777,1,10,0:2:0:0:
332,135,4961,1,0,1:2:0:0:
332,135,5053,1,8,0:2:0:0:
332,135,5145,6,0,B|399:127|399:127|416:136|416:136|485:125,1,150,2|8,1:2|0:2,0:0:0:0:
500,230,5698,1,0,1:2:0:0:
500,230,5790,1,8,0:0:0:0:
500,230,5882,2,0,L|488:314,1,75,2|0,1:2|1:2,0:0:0:0:
411,363,6250,1,10,0:2:0:0:
323,319,6434,1,0,1:2:0:0:
323,319,6526,1,8,0:2:0:0:
323,319,6618,6,0,L|232:334,1,75,0|0,1:2|1:2,0:0:0:0:
164,282,6986,1,10,0:2:0:0:
238,219,7170,1,0,1:2:0:0:
238,219,7262,1,8,0:2:0:0:
238,219,7354,2,0,L|248:122,1,75,2|0,1:2|1:2,0:0:0:0:
196,60,7722,2,0,B|148:32|148:32|74:66,1,112.5,10|8,0:2|0:2,0:0:0:0:
78,101,8090,6,0,L|56:207,1,75,6|0,1:2|1:2,0:0:0:0:
46,270,8458,1,8,0:2:0:0:
119,350,8642,1,0,1:2:0:0:
119,350,8734,1,8,0:2:0:0:
119,350,8826,2,0,L|218:342,1,75,0|0,1:2|1:2,0:0:0:0:
284,309,9195,1,8,0:2:0:0:
362,366,9379,1,0,1:2:0:0:
441,309,9563,6,0,P|455:270|441:220,1,75,2|0,1:2|1:2,0:0:0:0:
391,159,9931,1,8,0:2:0:0:
312,216,10115,1,2,1:2:0:0:
312,216,10207,1,8,0:2:0:0:
312,216,10299,2,0,L|229:197,1,75,0|0,1:2|1:2,0:0:0:0:
148,162,10667,2,0,P|149:124|164:90,1,75,10|0,0:2|1:2,0:0:0:0:
249,38,11035,6,0,B|315:31|315:31|331:40|331:40|402:30,1,150,14|0,0:2|1:2,0:0:0:0:
462,101,11587,2,0,B|479:146|479:146|447:246,1,150,14|0,0:2|1:2,0:0:0:0:
402,329,12139,1,14,0:2:0:0:
337,256,12323,1,2,1:2:0:0:
288,340,12507,6,0,L|206:349,1,75,14|0,0:2|1:2,0:0:0:0:
116,356,12876,1,0,1:2:0:0:
100,259,13060,1,2,1:2:0:0:
190,223,13244,2,0,L|205:149,1,75,2|2,0:0|1:2,0:0:0:0:
115,111,13612,2,0,L|130:37,1,75,2|8,0:0|0:0,0:0:0:0:
34,62,13980,5,6,1:2:0:0:
34,62,14164,2,0,B|13:112|13:112|31:182,1,112.500004291535,2|2,1:2|0:2,0:0:0:0:
43,268,14716,2,0,P|87:301|154:289,1,112.500004291535,2|2,0:2|0:2,0:0:0:0:
240,274,15268,1,2,0:2:0:0:
307,354,15452,6,0,L|435:344,1,112.500004291535,2|2,0:2|0:2,0:0:0:0:
468,263,16004,2,0,B|480:220|480:220|458:131,1,112.500004291535,2|0,0:2|1:2,0:0:0:0:
322,25,16741,1,2,1:2:0:0:
322,25,16925,6,0,L|311:98,1,56.2500021457673,2|2,1:2|1:2,0:0:0:0:
300,175,17293,1,2,0:2:0:0:
221,120,17477,2,0,P|166:126|127:166,1,112.500004291535,2|2,0:2|0:2,0:0:0:0:
115,261,18029,2,0,L|131:330,1,56.2500021457673,2|2,0:2|0:2,0:0:0:0:
42,359,18397,6,0,L|29:304,1,56.2500021457673,2|2,0:2|0:2,0:0:0:0:
5,211,18765,2,0,B|-8:171|-8:171|17:93,1,112.500004291535,2|0,0:2|0:2,0:0:0:0:
62,21,19317,1,0,1:2:0:0:
212,139,19685,1,2,1:2:0:0:
212,139,19869,6,0,L|284:132,1,56.2500021457673,2|2,1:2|1:2,0:0:0:0:
333,63,20238,2,0,L|405:70,1,56.2500021457673,2|2,0:2|0:2,0:0:0:0:
464,126,20606,2,0,P|479:157|480:202,1,56.2500021457673,2|2,0:2|0:2,0:0:0:0:
409,240,20974,2,0,L|424:327,1,84.3750032186509,2|0,0:2|0:2,0:0:0:0:
406,368,21342,6,0,L|324:363,1,56.2500021457673,2|2,0:2|0:2,0:0:0:0:
259,332,21710,1,2,0:2:0:0:
173,374,21894,2,0,P|154:320|175:262,1,112.500004291535,2|0,0:2|1:2,0:0:0:0:
260,224,22446,1,2,0:2:0:0:
308,43,22814,6,0,L|186:21,1,112.500004291535,2|2,1:2|0:2,0:0:0:0:
101,37,23366,2,0,P|83:65|77:90,1,56.2500021457673,2|0,0:2|0:2,0:0:0:0:
6,151,23734,2,0,P|24:179|30:204,1,56.2500021457673,2|0,0:2|0:2,0:0:0:0:
17,295,24103,1,2,0:2:0:0:
102,337,24287,6,0,L|175:328,1,56.2500021457673,0|0,1:2|0:2,0:0:0:0:
249,358,24655,2,0,L|322:349,1,56.2500021457673,0|2,1:2|0:2,0:0:0:0:
383,296,25023,1,2,1:2:0:0:
469,337,25207,1,2,2:2:0:0:
479,233,25391,2,0,L|468:190,3,28.1250010728836,8|8|10|8,0:2|0:2|0:2|0:2,0:0:0:0:
460,154,25759,6,0,P|409:116|338:128,1,134.999995880127,6|10,1:2|0:2,0:0:0:0:
273,187,26311,1,2,0:2:0:0:
197,250,26495,2,0,L|117:243,1,67.4999979400635,2|0,1:2|1:2,0:0:0:0:
49,189,26863,2,0,B|30:147|30:147|58:78,1,101.249996910095,10|0,0:2|0:0,0:0:0:0:
83,58,27231,6,0,P|121:44|167:44,1,67.4999979400635,2|2,1:2|1:2,0:0:0:0:
244,72,27599,1,10,0:2:0:0:
335,29,27784,2,0,P|386:22|414:31,1,67.4999979400635,2|0,0:2|1:2,0:0:0:0:
482,85,28152,1,0,1:2:0:0:
409,155,28336,2,0,B|399:197|399:197|423:259,1,101.249996910095,8|0,0:2|0:0,0:0:0:0:
436,299,28704,6,0,L|421:369,1,67.4999979400635,2|0,1:2|0:2,0:0:0:0:
320,373,29072,2,0,L|335:303,1,67.4999979400635,10|0,0:2|0:2,0:0:0:0:
258,239,29440,2,0,P|231:224|189:220,1,67.4999979400635,2|2,1:2|1:2,0:0:0:0:
140,134,29808,2,0,P|173:130|202:114,1,67.4999979400635,10|2,0:2|0:2,0:0:0:0:
277,45,30176,6,0,P|215:8|134:35,1,134.999995880127,2|10,1:2|0:2,0:0:0:0:
74,78,30728,2,0,P|57:142|95:211,1,134.999995880127,2|0,0:2|1:2,0:0:0:0:
47,296,31280,1,8,0:2:0:0:
139,360,31464,1,2,0:2:0:0:
139,360,31557,1,0,0:2:0:0:
139,360,31649,6,0,L|217:350,1,67.4999979400635,2|2,1:2|0:2,0:0:0:0:
296,305,32017,2,0,L|374:315,1,67.4999979400635,10|2,0:2|0:2,0:0:0:0:
458,347,32385,1,2,1:2:0:0:
506,258,32569,1,2,1:2:0:0:
426,194,32753,2,0,L|414:111,1,67.4999979400635,10|2,0:2|0:2,0:0:0:0:
331,72,33121,6,0,L|319:155,1,67.4999979400635,2|2,1:2|1:2,0:0:0:0:
264,222,33489,1,10,0:2:0:0:
169,184,33673,2,0,B|125:167|125:167|29:194,1,134.999995880127,2|0,0:2|1:2,0:0:0:0:
14,99,34225,2,0,L|31:24,1,67.4999979400635,10|0,0:2|0:2,0:0:0:0:
126,6,34593,6,0,P|181:47|263:31,1,134.999995880127,2|10,1:2|0:2,0:0:0:0:
342,15,35145,2,0,L|416:24,1,67.4999979400635,2|0,0:2|1:2,0:0:0:0:
469,104,35514,2,0,P|484:141|483:174,1,67.4999979400635,2|8,1:2|0:2,0:0:0:0:
454,264,35882,1,2,0:2:0:0:
426,361,36066,6,0,L|344:346,1,67.4999979400635,4|0,1:2|1:2,0:0:0:0:
260,329,36434,1,8,0:2:0:0:
328,249,36618,1,2,1:2:0:0:
328,249,36710,1,8,0:2:0:0:
328,249,36802,2,0,L|383:258,2,37.5,6|8|2,1:2|0:2|1:2,0:0:0:0:
277,165,37170,1,8,0:2:0:0:
203,229,37354,1,8,0:2:0:0:
203,229,37446,1,8,0:2:0:0:
203,229,37538,6,0,B|140:221|140:221|116:232|116:232|52:225,1,146.249993305207,4|0,1:2|1:2,0:0:0:0:
28,294,38274,1,8,0:2:0:0:
28,294,38458,2,0,P|65:325|130:320,1,97.4999955368044,0|0,1:2|0:2,0:0:0:0:
185,327,39011,6,0,L|272:340,2,73.1249966526033,0|0|0,1:2|1:2|1:2,0:0:0:0:
197,254,39747,2,0,B|188:215|188:215|203:165,1,73.1249966526033,8|0,0:2|0:2,0:0:0:0:
207,148,40115,2,0,L|265:135,1,48.7499977684022,2|8,1:2|0:2,0:0:0:0:
300,80,40483,6,0,L|358:93,1,48.7499977684022,6|0,1:2|0:2,0:0:0:0:
418,107,40851,2,0,P|429:144|430:173,1,48.7499977684022,2|0,0:2|1:2,0:0:0:0:
430,227,41219,2,0,L|324:243,1,97.4999955368044,10|2,0:2|0:2,0:0:0:0:
152,337,41955,6,0,B|119:323|119:323|68:343,2,73.1249966526033,0|0|0,1:2|1:2|1:2,0:0:0:0:
220,363,42691,2,0,P|233:320|224:282,1,73.1249966526033,8|0,0:2|0:2,0:0:0:0:
223,256,43060,1,2,1:2:0:0:
158,222,43244,1,8,0:2:0:0:
87,239,43428,6,0,B|70:189|70:189|94:77,1,146.249993305207,6|0,1:2|1:2,0:0:0:0:
127,37,44164,1,8,0:2:0:0:
127,37,44348,2,0,B|167:35|167:35|183:46|183:46|226:43,1,97.4999955368044,0|0,1:2|0:2,0:0:0:0:
280,85,44900,6,0,L|291:167,2,73.1249966526033,0|0|0,1:2|1:2|1:2,0:0:0:0:
229,138,45636,2,0,L|217:223,1,73.1249966526033,8|0,0:2|0:2,0:0:0:0:
212,246,46004,2,0,P|235:263|261:275,1,48.7499977684022,2|8,1:2|0:2,0:0:0:0:
298,329,46372,6,0,P|319:317|338:303,1,48.7499977684022,6|0,1:2|0:2,0:0:0:0:
412,298,46741,2,0,L|424:237,1,48.7499977684022,2|0,0:2|1:2,0:0:0:0:
464,191,47109,2,0,L|437:92,1,97.4999955368044,10|2,0:2|0:2,0:0:0:0:
272,55,47845,6,0,P|233:52|201:26,2,73.1249966526033,2|0|0,1:2|1:2|1:2,0:0:0:0:
307,119,48581,2,0,P|318:161|303:208,1,73.1249966526033,10|0,0:0|0:0,0:0:0:0:
307,225,48949,1,0,1:2:0:0:
234,234,49133,1,8,0:2:0:0:
181,284,49317,6,0,B|113:311|113:311|39:256,1,146.249993305207,6|0,1:2|1:2,0:0:0:0:
16,211,50053,1,10,0:2:0:0:
16,211,50238,2,0,L|32:114,1,97.4999955368044,0|0,1:2|0:2,0:0:0:0:
82,62,50790,6,0,P|120:49|160:53,2,73.1249966526033,0|0|0,1:2|1:2|1:2,0:0:0:0:
122,122,51526,2,0,L|112:202,1,73.1249966526033,8|0,0:2|0:2,0:0:0:0:
128,227,51894,2,0,L|197:241,1,48.7499977684022,2|8,1:2|0:2,0:0:0:0:
248,244,52262,6,0,L|349:231,1,97.4999955368044,6|2,1:2|0:2,0:0:0:0:
413,201,52814,1,0,1:2:0:0:
413,201,52998,2,0,L|427:83,1,97.4999955368044,10|2,0:2|0:2,0:0:0:0:
293,133,53734,6,0,L|205:117,2,73.1249966526033,2|0|0,1:2|1:2|1:2,0:0:0:0:
349,180,54471,2,0,P|367:205|365:263,1,73.1249966526033,10|0,0:2|0:2,0:0:0:0:
369,282,54839,2,0,L|366:325,3,24.3749988842011,10|8|8|8,0:2|0:2|0:2|0:2,0:0:0:0:
337,354,55207,6,0,B|268:346|268:346|249:356|249:356|182:346,1,150,6|10,1:2|0:2,0:0:0:0:
108,294,55759,1,2,1:2:0:0:
16,301,55943,2,0,P|-1:262|13:215,1,75,10|2,0:2|1:2,0:0:0:0:
80,150,56311,1,10,0:2:0:0:
164,219,56495,1,0,1:2:0:0:
164,219,56587,1,0,1:2:0:0:
164,219,56679,6,0,L|247:210,1,75,10|2,0:2|1:2,0:0:0:0:
323,162,57047,1,10,0:2:0:0:
393,229,57231,2,0,P|462:208|460:140,1,150,2|0,1:2|1:2,0:0:0:0:
411,55,57784,1,8,0:2:0:0:
318,31,57968,1,2,1:2:0:0:
318,31,58060,1,0,1:2:0:0:
318,31,58152,6,0,B|249:2|249:2|164:37,1,150,6|2,1:2|1:2,0:0:0:0:
81,21,58704,1,2,1:2:0:0:
33,105,58888,2,0,L|49:184,1,75,14|2,0:2|1:2,0:0:0:0:
145,176,59256,2,0,L|130:249,1,75,2|2,1:2|1:2,0:0:0:0:
69,325,59624,6,0,P|100:344|137:348,1,75,14|2,0:2|1:2,0:0:0:0:
232,372,59992,1,2,1:2:0:0:
288,292,60176,2,0,B|330:276|330:276|395:290,1,112.5,10|0,0:0|0:0,0:0:0:0:
443,301,60544,1,8,1:2:0:0:
493,384,60728,1,8,1:2:0:0:
474,160,61096,6,0,B|481:116|481:116|453:85,1,82.5000025177003,6|2,1:2|0:2,0:0:0:0:
373,32,61464,1,10,0:2:0:0:
319,117,61649,1,2,1:2:0:0:
319,117,61741,1,8,0:2:0:0:
319,117,61833,2,0,L|164:103,1,123.75000377655,2|0,1:2|0:0,0:0:0:0:
146,104,62201,1,10,0:2:0:0:
60,53,62385,1,2,0:2:0:0:
22,144,62569,6,0,L|6:227,1,82.5000025177003,2|0,1:2|1:2,0:0:0:0:
34,319,62937,1,10,0:2:0:0:
137,300,63121,1,2,1:2:0:0:
137,300,63213,1,8,0:2:0:0:
137,300,63305,2,0,L|231:318,1,82.5000025177003,0|0,1:2|1:2,0:0:0:0:
308,356,63673,1,8,0:2:0:0:
337,261,63857,1,0,0:0:0:0:
248,216,64041,6,0,L|238:120,1,82.5000025177003,2|2,1:2|0:2,0:0:0:0:
282,44,64409,1,10,0:2:0:0:
370,107,64593,1,2,1:2:0:0:
370,107,64685,1,8,0:2:0:0:
370,107,64777,2,0,L|456:94,1,82.5000025177003,2|2,1:2|1:2,0:0:0:0:
488,186,65145,2,0,L|406:198,1,82.5000025177003,10|2,0:2|0:2,0:0:0:0:
337,261,65514,6,0,P|321:295|315:346,1,82.5000025177003,2|2,1:2|1:2,0:0:0:0:
223,378,65882,1,10,0:2:0:0:
140,321,66066,1,2,1:2:0:0:
140,321,66158,1,8,0:2:0:0:
140,321,66250,1,0,1:2:0:0:
50,363,66434,1,0,1:2:0:0:
28,266,66618,2,0,B|17:219|17:219|46:127,1,123.75000377655,8|0,0:2|0:0,0:0:0:0:
68,106,66986,6,0,L|172:84,1,82.5000025177003,6|0,1:2|0:2,0:0:0:0:
225,26,67354,2,0,L|329:48,1,82.5000025177003,10|0,0:2|1:2,0:0:0:0:
399,73,67722,1,2,1:2:0:0:
334,148,67906,1,2,1:2:0:0:
238,123,68090,2,0,P|222:162|220:213,1,82.5000025177003,10|2,0:2|0:2,0:0:0:0:
293,267,68458,6,0,P|308:304|312:345,1,82.5000025177003,2|2,1:2|1:2,0:0:0:0:
406,374,68826,1,10,0:2:0:0:
476,305,69011,1,2,1:2:0:0:
476,305,69103,1,8,0:2:0:0:
476,305,69195,2,0,L|466:221,1,82.5000025177003,2|2,1:2|1:2,0:0:0:0:
403,146,69563,2,0,L|413:62,1,82.5000025177003,10|2,0:2|0:2,0:0:0:0:
317,35,69931,6,0,P|287:20|222:18,1,82.5000025177003,0|2,1:2|0:2,0:0:0:0:
152,63,70299,1,10,0:2:0:0:
59,28,70483,1,2,1:2:0:0:
59,28,70575,1,8,0:2:0:0:
59,28,70667,2,0,L|46:119,1,82.5000025177003,2|2,1:2|1:2,0:0:0:0:
75,204,71035,1,10,0:2:0:0:
161,156,71219,1,2,0:2:0:0:
224,233,71403,6,0,L|316:242,1,82.5000025177003,4|0,1:2|1:2,0:0:0:0:
404,250,71771,1,8,0:2:0:0:
450,347,71955,1,8,1:3:0:0:
450,347,72047,1,4,1:3:0:0:
450,347,72139,1,4,1:2:0:0:
351,360,72323,1,0,1:2:0:0:
259,323,72507,2,0,L|198:333,3,41.2500012588501,8|8|10|8,0:2|0:2|0:2|0:2,0:0:0:0:
169,339,72876,6,0,B|119:332|119:332|99:343|99:343|47:337,1,123.75000377655,6|0,1:2|0:2,0:0:0:0:
17,298,73244,1,10,0:2:0:0:
47,203,73428,1,2,1:2:0:0:
47,203,73520,1,8,0:0:0:0:
47,203,73612,2,0,B|95:176|134:193|134:193|153:236|217:231,1,165.000005035401,2|10,1:2|0:2,0:0:0:0:
215,134,74164,1,2,0:2:0:0:
291,196,74348,6,0,P|290:248|274:284,1,82.5000025177003,2|0,1:2|1:2,0:0:0:0:
236,365,74716,1,10,0:2:0:0:
343,368,74900,1,2,1:2:0:0:
343,368,74992,1,8,0:2:0:0:
343,368,75084,2,0,P|381:354|422:355,1,82.5000025177003,0|0,1:2|1:2,0:0:0:0:
452,260,75452,2,0,L|430:132,1,123.75000377655,8|0,0:2|0:0,0:0:0:0:
422,89,75820,6,0,L|338:78,1,82.5000025177003,2|0,1:2|0:2,0:0:0:0:
244,52,76188,1,10,0:2:0:0:
152,23,76372,1,2,1:2:0:0:
152,23,76464,1,8,0:2:0:0:
152,23,76557,2,0,L|69:32,1,82.5000025177003,2|2,1:2|1:2,0:0:0:0:
14,113,76925,2,0,P|3:147|8:205,1,82.5000025177003,10|2,0:2|0:2,0:0:0:0:
67,270,77293,6,0,B|118:266|118:266|137:277|137:277|194:272,1,123.75000377655,2|0,1:2|0:2,0:0:0:0:
236,269,77661,1,10,0:2:0:0:
292,365,77845,1,2,1:2:0:0:
292,365,77937,1,8,0:2:0:0:
292,365,78029,2,0,L|204:376,1,82.5000025177003,2|0,1:2|1:2,0:0:0:0:
124,326,78397,1,8,0:2:0:0:
34,368,78581,1,2,0:2:0:0:
31,266,78765,6,0,P|66:208|39:133,1,134.999995880127,6|2,1:2|0:2,0:0:0:0:
14,58,79317,1,2,1:2:0:0:
105,33,79501,2,0,L|184:40,1,67.4999979400635,10|2,0:2|0:0,0:0:0:0:
262,48,79869,1,2,0:2:0:0:
198,122,80053,1,2,1:2:0:0:
279,175,80238,6,0,L|289:263,1,82.5000025177003,6|0,1:2|1:2,0:0:0:0:
320,357,80606,1,10,0:2:0:0:
320,357,80698,1,8,0:2:0:0:
320,357,80790,1,0,1:2:0:0:
410,316,80974,2,0,L|462:330,2,41.2500012588501,10|8|6,0:2|0:2|1:3,0:0:0:0:
377,222,81342,1,10,0:2:0:0:
459,165,81526,1,10,0:2:0:0:
459,165,81618,1,8,0:2:0:0:
459,165,81710,6,0,L|469:79,1,75,6|0,1:2|1:2,0:0:0:0:
394,26,82078,1,10,0:2:0:0:
321,91,82262,1,0,1:2:0:0:
321,91,82354,1,8,0:2:0:0:
321,91,82446,2,0,P|304:125|300:167,1,75,2|0,1:2|1:2,0:0:0:0:
256,248,82814,2,0,L|170:258,1,75,10|0,0:2|1:2,0:0:0:0:
122,334,83182,6,0,L|36:324,1,75,2|0,1:2|1:2,0:0:0:0:
12,234,83550,1,10,0:2:0:0:
93,180,83734,1,0,1:2:0:0:
93,180,83826,1,8,0:2:0:0:
93,180,83918,2,0,L|101:94,1,75,2|0,1:2|1:2,0:0:0:0:
161,29,84287,1,10,0:2:0:0:
241,102,84471,1,0,1:2:0:0:
241,102,84563,1,0,1:2:0:0:
241,102,84655,6,0,L|330:92,1,75,14|0,0:2|1:2,0:0:0:0:
411,79,85023,1,0,1:2:0:0:
369,167,85207,2,0,P|353:201|349:238,1,75,14|0,0:2|1:2,0:0:0:0:
384,329,85575,1,0,1:2:0:0:
289,353,85759,2,0,P|226:335|204:334,1,75,14|2,0:2|1:2,0:0:0:0:
149,264,86127,6,0,L|129:169,1,75,14|0,0:2|1:2,0:0:0:0:
110,95,86495,1,0,1:2:0:0:
26,145,86679,1,0,1:2:0:0:
24,242,86863,2,0,L|42:335,1,75,2|2,0:0|1:2,0:0:0:0:
134,337,87231,2,0,L|148:263,1,75,2|8,0:0|0:0,0:0:0:0:
244,246,87599,6,0,L|338:228,1,75,14|0,0:2|1:2,0:0:0:0:
398,286,87968,1,0,1:2:0:0:
476,345,88152,2,0,P|488:269|438:199,1,150,12|0,0:2|0:0,0:0:0:0:
367,158,88704,2,0,L|360:73,1,75,14|0,0:2|1:2,0:0:0:0:
289,16,89072,5,0,1:2:0:0:
222,87,89256,2,0,B|162:76|162:76|142:91|142:91|68:77,1,150,12|10,0:2|1:2,0:0:0:0:
33,165,89808,2,0,P|18:212|20:241,1,75,8|8,0:2|0:2,0:0:0:0:
82,311,90176,1,8,0:2:0:0:
162,256,90360,1,8,0:2:0:0:
