osu file format v14

[General]
AudioFilename: audio.mp3
AudioLeadIn: 0
PreviewTime: 60928
Countdown: 0
SampleSet: None
StackLeniency: 0.7
Mode: 0
LetterboxInBreaks: 0
WidescreenStoryboard: 0

[Editor]
Bookmarks: 93504,139182
DistanceSpacing: 0.8
BeatDivisor: 4
GridSize: 32
TimelineZoom: 1.5

[Metadata]
Title:Boku no Friend
TitleUnicode:ぼくのフレンド
Artist:Mewhan
ArtistUnicode:Mewhan
Creator:Onlybiscuit
Version:My Dearest Friend
Source:
Tags:
BeatmapID:1826944
BeatmapSetID:874076

[Difficulty]
HPDrainRate:5.7
CircleSize:3.8
OverallDifficulty:9.2
ApproachRate:9.2
SliderMultiplier:1.63
SliderTickRate:1

[Events]
//Background and Video events
0,0,"cropped-1920-1080-837859.png",0,0
//Break Periods
//Storyboard Layer 0 (Background)
//Storyboard Layer 1 (Fail)
//Storyboard Layer 2 (Pass)
//Storyboard Layer 3 (Foreground)
//Storyboard Sound Samples

[TimingPoints]
744,368.098159509202,4,2,1,75,1,0
2216,-83.3333333333333,4,2,1,75,0,0
13995,-125,4,2,1,75,0,0
24302,-111.111111111111,4,2,1,75,0,0
25774,-100,4,2,1,75,0,0
37553,-142.857142857143,4,2,1,75,0,0
55222,-100,4,2,1,75,0,0
60743,-333.333333333333,4,2,1,75,0,0
61112,-71.4285714285714,4,2,1,75,0,1
81725,-83.3333333333333,4,2,1,75,0,0
93326,368.098159509202,4,2,1,75,1,0
93510,-100,4,2,1,75,0,0
106761,-71.4285714285714,4,2,1,75,0,1
127375,-83.3333333333333,4,2,1,75,0,0

[Colours]
Combo1 : 255,255,255
Combo2 : 128,255,255
Combo3 : 255,255,128
Combo4 : 192,192,192

[HitObjects]
83,97,743,5,2,0:0:0:0:
86,113,1112,1,2,0:0:0:0:
88,127,1480,2,0,P|97:173|102:216,1,81.5,4|0,1:2|0:0,0:0:0:0:
102,255,1756,1,0,1:2:0:0:
102,255,1848,2,0,P|109:278|112:298,1,40.75,8|8,0:0|0:3,0:0:0:0:
207,362,2032,2,0,P|210:341|216:322,1,40.75,8|8,0:3|0:3,0:0:0:0:
446,183,2216,6,0,P|399:191|349:195,1,97.799997015381,6|0,1:2|1:2,0:0:0:0:
155,56,2584,2,0,P|202:48|252:44,1,97.799997015381,8|0,0:0|0:0,0:0:0:0:
292,58,2860,1,8,0:0:0:0:
292,58,2952,1,2,0:0:0:0:
202,156,3136,1,0,1:2:0:0:
360,276,3320,1,10,0:0:0:0:
293,142,3504,1,0,1:2:0:0:
192,337,3688,6,0,L|206:234,1,97.799997015381,6|0,1:2|0:0,0:0:0:0:
83,91,4056,1,10,0:0:0:0:
20,259,4240,1,0,1:2:0:0:
20,259,4332,1,8,0:0:0:0:
20,259,4424,2,0,P|63:226|116:216,1,97.799997015381,2|0,0:0|1:2,0:0:0:0:
276,379,4793,2,0,P|229:366|191:336,1,97.799997015381,10|0,0:0|1:2,0:0:0:0:
177,306,5069,1,8,0:0:0:0:
177,306,5161,5,6,1:2:0:0:
289,218,5345,1,0,0:0:0:0:
110,106,5529,1,8,0:0:0:0:
302,21,5713,1,0,0:0:0:0:
302,21,5805,1,8,0:0:0:0:
302,21,5897,2,0,P|297:85|293:127,1,97.799997015381,2|0,0:0|1:2,0:0:0:0:
464,258,6265,2,0,P|459:209|455:160,1,97.799997015381,10|8,0:0|1:2,0:0:0:0:
441,131,6541,1,8,0:0:0:0:
441,131,6633,5,6,1:2:0:0:
319,218,6817,1,0,1:2:0:0:
483,362,7001,2,0,P|442:335|388:329,1,97.799997015381,10|0,0:0|1:2,0:0:0:0:
364,360,7277,1,8,0:0:0:0:
364,360,7369,1,2,1:2:0:0:
289,218,7553,1,0,1:2:0:0:
169,361,7737,1,10,0:0:0:0:
65,196,7921,1,0,1:2:0:0:
65,196,8013,1,8,0:0:0:0:
65,196,8105,5,6,1:2:0:0:
156,345,8290,1,0,1:2:0:0:
289,218,8474,2,0,P|347:216|403:208,1,97.799997015381,10|0,0:0|0:0,0:0:0:0:
416,184,8750,1,8,0:0:0:0:
416,184,8842,1,2,0:0:0:0:
267,110,9026,1,0,1:2:0:0:
443,35,9210,1,8,0:0:0:0:
343,144,9394,1,0,1:2:0:0:
188,21,9578,6,0,L|178:120,1,97.799997015381,6|0,1:2|1:2,0:0:0:0:
9,269,9946,2,0,L|0:171,1,97.799997015381,10|0,0:0|1:2,0:0:0:0:
16,143,10222,1,8,0:0:0:0:
16,143,10314,1,2,0:0:0:0:
144,235,10498,1,0,1:2:0:0:
6,362,10682,1,10,0:0:0:0:
98,160,10866,1,0,1:2:0:0:
98,160,10958,1,8,0:0:0:0:
98,160,11050,5,12,0:0:0:0:
195,299,11234,1,0,1:2:0:0:
9,269,11418,1,0,1:2:0:0:
196,120,11602,5,10,0:0:0:0:
213,289,11786,1,0,1:2:0:0:
374,178,11970,1,0,1:2:0:0:
175,112,12155,5,10,0:0:0:0:
355,21,12339,1,0,1:2:0:0:
263,193,12523,6,0,P|255:242|250:295,1,97.799997015381,14|0,0:0|1:2,0:0:0:0:
355,171,12891,2,0,P|328:122|283:98,1,97.799997015381,0|0,1:2|1:2,0:0:0:0:
201,263,13259,2,0,P|241:236|262:192,1,97.799997015381,2|2,0:0|1:2,0:0:0:0:
175,112,13627,1,2,0:0:0:0:
17,248,13811,1,10,0:0:0:0:
97,181,13995,5,6,1:2:0:0:
90,336,14179,2,0,B|160:318|148:364|223:348,1,130.4,2|2,1:2|0:0,0:0:0:0:
343,297,14731,2,0,P|307:285|268:285,1,65.2,2|0,0:0|0:0,0:0:0:0:
428,224,15099,2,0,P|464:212|503:212,1,65.2,2|2,0:0|0:0,0:0:0:0:
354,361,15467,6,0,P|348:320|338:281,1,65.2,2|0,0:0|0:0,0:0:0:0:
428,224,15836,1,2,0:0:0:0:
468,365,16020,2,0,P|474:324|484:285,1,65.2,2|0,0:0|0:0,0:0:0:0:
510,174,16388,1,0,1:2:0:0:
403,102,16572,1,0,1:2:0:0:
508,33,16756,1,0,1:2:0:0:
424,209,16940,6,0,P|393:202|348:201,1,65.2,2|2,1:2|1:2,0:0:0:0:
282,258,17308,1,2,0:0:0:0:
253,102,17492,2,0,P|270:138|276:172,1,65.2,2|0,0:0|0:0,0:0:0:0:
282,280,17860,1,2,0:0:0:0:
173,155,18044,2,0,P|156:191|150:225,1,65.2,2|0,0:0|0:0,0:0:0:0:
41,331,18412,6,0,P|74:306|105:296,1,65.2,2|2,0:0|0:0,0:0:0:0:
205,248,18780,2,0,P|172:223|141:213,1,65.2,2|0,0:0|0:0,0:0:0:0:
51,129,19148,1,0,1:2:0:0:
16,224,19332,1,0,1:2:0:0:
54,109,19517,1,0,1:2:0:0:
149,214,19701,1,0,1:2:0:0:
261,77,19885,6,0,P|299:83|328:86,1,65.2,2|2,1:2|1:2,0:0:0:0:
459,11,20253,2,0,P|426:14|394:19,1,65.2,2|2,0:0|0:0,0:0:0:0:
315,132,20621,1,2,0:0:0:0:
427,99,20805,1,2,0:0:0:0:
461,257,20989,2,0,P|424:216|375:209,1,97.8,2|0,0:0|0:0,0:0:0:0:
367,233,21357,6,0,P|374:265|379:298,1,65.2,2|2,0:0|0:0,0:0:0:0:
458,367,21725,1,2,0:0:0:0:
312,355,21909,2,0,P|275:344|237:343,1,65.2,2|0,0:0|0:0,0:0:0:0:
156,290,22277,1,0,1:2:0:0:
303,246,22461,2,0,P|340:235|378:234,1,65.2,2|0,0:0|1:2,0:0:0:0:
204,148,22829,6,0,P|204:185|209:221,1,65.2,2|0,1:2|1:2,0:0:0:0:
150,303,23197,1,2,0:0:0:0:
17,200,23382,2,0,P|53:183|86:180,1,65.2,2|0,0:0|0:0,0:0:0:0:
204,148,23750,2,0,P|168:131|135:128,1,65.2,2|0,0:0|0:0,0:0:0:0:
56,85,24118,1,2,0:0:0:0:
70,269,24302,6,0,P|68:306|61:354,1,73.3499977615357,0|0,1:2|0:0,0:0:0:0:
210,220,24670,2,0,P|205:183|203:147,1,73.3499977615357,0|0,1:2|0:0,0:0:0:0:
296,340,25038,1,0,1:2:0:0:
150,303,25222,1,0,0:0:0:0:
305,190,25406,1,8,1:2:0:0:
341,185,25498,1,8,1:2:0:0:
376,192,25590,1,8,1:2:0:0:
405,213,25682,1,8,1:2:0:0:
419,246,25774,6,0,P|418:291|415:335,1,81.5,6|0,1:2|0:0,0:0:0:0:
305,190,26142,1,10,0:0:0:0:
438,126,26326,1,2,0:0:0:0:
273,52,26510,2,0,P|231:39|182:48,1,81.5,2|0,1:2|1:2,0:0:0:0:
184,197,26878,2,0,P|214:170|226:131,1,81.5,10|0,0:0|0:0,0:0:0:0:
48,61,27247,5,2,1:2:0:0:
140,124,27431,1,0,1:2:0:0:
22,222,27615,2,0,P|29:272|34:315,1,81.5,10|2,0:0|0:0,0:0:0:0:
173,280,27983,1,0,1:2:0:0:
31,202,28167,1,0,1:2:0:0:
98,354,28351,6,0,P|126:321|182:305,1,81.5,8|2,0:0|0:0,0:0:0:0:
315,368,28719,2,0,P|278:351|252:320,1,81.5,6|2,1:2|0:0,0:0:0:0:
343,195,29087,2,0,L|336:277,1,81.5,10|2,0:0|0:0,0:0:0:0:
261,151,29455,1,2,1:2:0:0:
368,111,29639,1,2,1:2:0:0:
229,243,29823,1,10,0:0:0:0:
336,277,30007,1,2,0:0:0:0:
230,151,30191,6,0,P|189:160|154:193,1,81.5,6|0,1:2|1:2,0:0:0:0:
292,60,30559,1,10,0:0:0:0:
343,195,30743,1,2,0:0:0:0:
189,55,30928,2,0,P|157:29|118:21,1,81.5,0|0,1:2|1:2,0:0:0:0:
368,111,31296,2,0,P|407:102|438:77,1,81.5,8|2,0:0|0:0,0:0:0:0:
230,151,31664,6,0,P|226:191|221:239,1,81.5,6|2,1:2|0:0,0:0:0:0:
90,336,32032,1,10,0:0:0:0:
144,191,32216,1,2,0:0:0:0:
241,349,32400,2,0,P|205:317|165:306,1,81.5,2|2,1:2|1:2,0:0:0:0:
5,280,32768,2,0,P|41:312|81:323,1,81.5,10|2,0:0|0:0,0:0:0:0:
152,160,33136,5,6,1:2:0:0:
5,253,33320,1,0,1:2:0:0:
221,232,33504,1,10,0:0:0:0:
70,144,33688,1,2,0:0:0:0:
251,89,33872,1,2,1:2:0:0:
152,160,34056,1,0,1:2:0:0:
365,81,34240,2,0,B|345:146|390:142|365:221,1,122.25,10|0,0:0|0:0,0:0:0:0:
379,244,34609,6,0,P|429:224|463:224,1,81.5,6|0,1:2|0:0,0:0:0:0:
299,342,34977,1,10,0:0:0:0:
221,232,35161,2,0,P|171:212|137:212,1,81.5,2|0,0:0|1:2,0:0:0:0:
287,157,35529,1,2,1:2:0:0:
157,301,35713,2,0,P|107:321|73:321,1,81.5,8|2,0:0|0:0,0:0:0:0:
124,132,36081,6,0,P|139:182|144:215,1,81.5,6|0,1:2|1:2,0:0:0:0:
0,343,36449,2,0,P|7:302|19:264,1,81.5,8|2,0:0|1:2,0:0:0:0:
20,215,36725,1,8,0:0:0:0:
20,215,36817,2,0,P|47:197|87:192,2,40.75,2|8|0,1:2|0:0|1:2,0:0:0:0:
109,364,37185,1,8,0:0:0:0:
240,174,37369,1,8,0:0:0:0:
240,174,37461,1,8,0:0:0:0:
240,174,37553,6,0,B|313:164|275:212|361:204,1,114.099996517944,6|2,1:2|0:0,0:0:0:0:
440,117,38105,2,0,P|457:85|462:52,2,57.0499982589722,2|8|2,1:2|0:0|1:2,0:0:0:0:
357,56,38658,2,0,P|314:45|284:45,1,57.0499982589722,0|2,0:0|0:0,0:0:0:0:
157,10,39026,6,0,P|166:47|175:109,1,85.5749973884583,6|0,1:2|1:2,0:0:0:0:
144,129,39394,2,0,P|136:158|132:195,1,57.0499982589722,2|0,0:0|1:2,0:0:0:0:
255,314,39762,2,0,P|251:285|243:258,1,57.0499982589722,8|0,0:0|0:0,0:0:0:0:
108,314,40130,2,0,P|144:312|175:299,1,57.0499982589722,2|8,1:2|0:0,0:0:0:0:
319,210,40498,6,0,P|270:171|203:181,1,114.099996517944,6|2,1:2|0:0,0:0:0:0:
243,258,41050,1,0,1:2:0:0:
388,155,41234,2,0,P|428:148|454:147,1,57.0499982589722,10|0,0:0|1:2,0:0:0:0:
305,91,41602,2,0,P|264:84|239:83,1,57.0499982589722,2|0,0:0|0:0,0:0:0:0:
404,243,41970,6,0,P|422:291|434:341,1,85.5749973884583,6|0,1:2|1:2,0:0:0:0:
393,358,42339,2,0,P|385:322|376:295,1,57.0499982589722,2|0,0:0|1:2,0:0:0:0:
220,172,42707,2,0,P|211:199|205:227,1,57.0499982589722,8|0,0:0|0:0,0:0:0:0:
237,323,43075,1,2,1:2:0:0:
103,219,43259,1,8,0:0:0:0:
267,102,43443,6,0,B|332:92|310:141|392:131,1,114.099996517944,6|2,1:2|0:0,0:0:0:0:
468,179,43995,2,0,P|484:218|493:257,2,57.0499982589722,0|8|0,1:2|0:0|1:2,0:0:0:0:
393,79,44547,2,0,P|381:105|372:132,1,57.0499982589722,0|0,0:0|0:0,0:0:0:0:
209,43,44915,6,0,P|164:31|113:30,1,85.5749973884583,6|0,1:2|1:2,0:0:0:0:
96,60,45283,2,0,P|126:60|155:65,1,57.0499982589722,2|0,0:0|1:2,0:0:0:0:
272,186,45651,2,0,P|242:186|213:191,1,57.0499982589722,8|0,0:0|0:0,0:0:0:0:
68,292,46020,2,0,P|62:255|55:220,1,57.0499982589722,2|8,1:2|0:0,0:0:0:0:
215,190,46388,6,0,P|208:252|204:309,1,114.099996517944,6|2,1:2|0:0,0:0:0:0:
284,364,46940,1,0,1:2:0:0:
365,215,47124,2,0,P|370:243|371:272,1,57.0499982589722,10|0,0:0|1:2,0:0:0:0:
243,202,47492,2,0,P|238:230|237:259,1,57.0499982589722,2|0,0:0|0:0,0:0:0:0:
360,124,47860,6,0,P|404:131|435:158,1,85.5749973884583,6|0,1:2|1:2,0:0:0:0:
474,141,48228,2,0,P|449:118|424:109,1,57.0499982589722,2|0,0:0|1:2,0:0:0:0:
280,75,48596,2,0,P|305:52|330:43,1,57.0499982589722,8|0,0:0|0:0,0:0:0:0:
336,150,48964,1,2,1:2:0:0:
214,19,49148,1,8,0:0:0:0:
71,128,49332,6,0,P|77:181|82:255,1,114.099996517944,6|2,1:2|0:0,0:0:0:0:
124,339,49885,1,0,1:2:0:0:
211,209,50069,2,0,P|243:216|281:223,1,57.0499982589722,10|0,0:0|1:2,0:0:0:0:
357,297,50437,1,0,0:0:0:0:
357,297,50805,6,0,P|363:243|375:203,1,85.5749973884583,6|0,1:2|1:2,0:0:0:0:
400,188,51173,2,0,P|400:149|396:126,1,57.0499982589722,2|0,0:0|1:2,0:0:0:0:
252,27,51541,2,0,B|242:90|288:78|283:149,1,114.099996517944,8|2,0:0|1:2,0:0:0:0:
395,36,52093,1,8,0:0:0:0:
500,228,52277,6,0,P|458:194|394:189,1,114.099996517944,6|2,1:2|0:0,0:0:0:0:
314,223,52829,1,0,1:2:0:0:
424,344,53013,2,0,L|418:288,1,57.0499982589722,10|0,0:0|1:2,0:0:0:0:
314,223,53382,2,0,L|307:279,1,57.0499982589722,2|0,0:0|0:0,0:0:0:0:
144,310,53750,6,0,P|181:278|233:270,1,85.5749973884583,6|0,1:2|1:2,0:0:0:0:
253,263,54118,2,0,P|278:275|306:278,1,57.0499982589722,2|0,0:0|1:2,0:0:0:0:
156,184,54486,2,0,P|127:187|102:199,1,57.0499982589722,10|0,0:0|0:0,0:0:0:0:
260,89,54854,1,8,0:0:0:0:
287,82,54946,1,8,0:0:0:0:
315,79,55038,1,8,0:0:0:0:
343,82,55130,1,8,0:0:0:0:
370,91,55222,6,0,P|377:137|386:179,1,81.5,14|0,1:2|1:2,0:0:0:0:
311,327,55590,5,10,0:0:0:0:
187,98,55774,1,2,1:2:0:0:
200,367,55958,5,10,0:0:0:0:
301,169,56142,1,2,1:2:0:0:
65,180,56326,5,10,0:0:0:0:
306,337,56510,1,0,1:2:0:0:
306,336,56602,1,0,1:2:0:0:
306,337,56694,5,10,0:0:0:0:
73,366,56878,1,2,1:2:0:0:
216,114,57063,5,10,0:0:0:0:
165,333,57247,1,2,1:2:0:0:
326,136,57431,5,8,0:0:0:0:
418,350,57615,1,0,1:2:0:0:
476,81,57799,5,8,0:0:0:0:
319,257,57983,1,2,1:2:0:0:
319,257,58075,1,0,1:2:0:0:
319,257,58167,5,14,0:0:0:0:
337,26,58351,1,2,1:2:0:0:
499,215,58535,1,2,1:2:0:0:
235,55,58719,1,2,1:2:0:0:
505,91,58903,1,14,0:0:0:0:
194,166,59087,1,2,1:2:0:0:
490,8,59271,1,2,1:2:0:0:
131,81,59455,1,2,1:2:0:0:
491,236,59639,5,10,0:0:0:0:
172,310,59823,1,2,1:2:0:0:
332,33,60007,1,2,1:2:0:0:
452,346,60191,1,10,0:0:0:0:
183,88,60559,5,8,0:0:0:0:
102,332,60743,2,0,L|145:322,1,36.6749988807679,8|0,0:0|0:0,0:0:0:0:
172,310,61112,6,0,P|177:246|182:193,1,114.099996517944,6|2,1:2|0:0,0:0:0:0:
0,34,61480,1,10,0:0:0:0:
75,232,61664,1,2,0:0:0:0:
75,232,61756,1,8,0:0:0:0:
75,232,61848,2,0,P|132:202|192:197,1,114.099996517944,2|0,0:0|1:2,0:0:0:0:
374,348,62216,2,0,P|317:339|268:312,1,114.099996517944,10|2,0:0|0:0,0:0:0:0:
329,95,62584,5,6,1:2:0:0:
445,254,62768,1,0,1:2:0:0:
320,74,62952,1,10,0:0:0:0:
203,228,63136,1,2,0:0:0:0:
203,228,63228,1,8,0:0:0:0:
203,228,63320,1,2,0:0:0:0:
403,161,63504,1,0,1:2:0:0:
211,77,63688,2,0,P|152:72|85:65,1,114.099996517944,8|2,0:0|0:0,0:0:0:0:
195,320,64056,6,0,P|260:299|288:254,1,114.099996517944,6|2,1:2|0:0,0:0:0:0:
87,180,64424,1,10,0:0:0:0:
281,133,64609,1,2,0:0:0:0:
281,133,64701,1,8,0:0:0:0:
281,133,64793,1,2,0:0:0:0:
135,255,64977,1,0,1:2:0:0:
359,300,65161,1,10,0:0:0:0:
200,190,65345,1,2,0:0:0:0:
110,379,65529,6,0,P|105:311|101:264,1,114.099996517944,6|2,1:2|1:2,0:0:0:0:
281,133,65897,2,0,P|276:189|272:246,1,114.099996517944,10|2,0:0|0:0,0:0:0:0:
288,271,66173,1,8,0:0:0:0:
288,271,66265,1,2,0:0:0:0:
182,109,66449,1,0,1:2:0:0:
400,56,66633,1,8,0:0:0:0:
281,133,66817,1,2,0:0:0:0:
462,294,67001,6,0,B|329:292|393:378|252:357,1,228.199993035889,6|10,1:2|0:0,0:0:0:0:
146,215,67553,1,0,0:0:0:0:
146,215,67645,1,8,0:0:0:0:
146,215,67737,1,2,0:0:0:0:
34,373,67921,1,0,1:2:0:0:
243,255,68105,2,0,P|248:194|256:131,1,114.099996517944,8|2,0:0|0:0,0:0:0:0:
45,35,68474,5,6,1:2:0:0:
143,210,68658,1,2,1:2:0:0:
264,26,68842,1,10,0:0:0:0:
102,122,69026,1,2,0:0:0:0:
102,122,69118,1,8,0:0:0:0:
102,122,69210,1,2,0:0:0:0:
313,189,69394,1,2,1:2:0:0:
130,236,69578,1,10,0:0:0:0:
336,86,69762,1,2,0:0:0:0:
219,290,69946,6,0,P|274:295|340:307,1,114.099996517944,4|2,1:2|0:0,0:0:0:0:
512,137,70314,2,0,P|455:142|399:152,1,114.099996517944,10|2,0:0|0:0,0:0:0:0:
375,184,70590,1,8,0:0:0:0:
375,184,70682,1,2,0:0:0:0:
487,40,70866,1,0,1:2:0:0:
505,238,71050,2,0,P|498:298|497:357,1,114.099996517944,10|2,0:0|0:0,0:0:0:0:
299,228,71418,5,4,1:2:0:0:
512,137,71602,1,0,1:2:0:0:
294,72,71786,1,8,0:0:0:0:
405,269,71970,1,8,0:3:0:0:
405,269,72063,1,8,0:3:0:0:
405,269,72155,1,8,1:3:0:0:
397,51,72339,1,0,1:2:0:0:
267,241,72523,1,8,0:0:0:0:
233,272,72615,1,8,0:0:0:0:
189,284,72707,1,8,0:0:0:0:
144,274,72799,1,8,0:0:0:0:
113,239,72891,6,0,P|113:171|132:120,1,114.099996517944,14|0,1:2|0:0,0:0:0:0:
313,45,73259,2,0,P|269:79|204:90,1,114.099996517944,10|2,0:0|0:0,0:0:0:0:
183,65,73535,1,8,0:0:0:0:
183,65,73627,1,2,0:0:0:0:
315,176,73811,1,0,1:2:0:0:
113,239,73995,2,0,P|54:238|-7:230,1,114.099996517944,10|2,0:0|0:0,0:0:0:0:
232,149,74363,5,6,1:2:0:0:
159,352,74547,1,0,1:2:0:0:
27,142,74731,1,8,0:0:0:0:
256,282,74915,1,2,0:0:0:0:
256,282,75007,1,8,0:0:0:0:
256,282,75099,1,2,0:0:0:0:
0,233,75283,1,0,1:2:0:0:
232,149,75467,2,0,P|244:86|251:28,1,114.099996517944,8|2,0:0|0:0,0:0:0:0:
113,239,75836,6,0,P|120:295|131:351,1,114.099996517944,6|2,1:2|0:0,0:0:0:0:
260,154,76204,1,10,0:0:0:0:
408,360,76388,1,2,0:0:0:0:
408,360,76480,1,8,0:0:0:0:
408,360,76572,1,2,0:0:0:0:
217,271,76756,1,0,1:2:0:0:
458,159,76940,2,0,L|480:279,1,114.099996517944,8|2,0:0|0:0,0:0:0:0:
236,175,77308,5,6,1:2:0:0:
469,77,77492,1,0,1:2:0:0:
210,83,77676,1,10,0:0:0:0:
392,225,77860,1,2,0:0:0:0:
392,225,77952,1,8,0:0:0:0:
392,225,78044,1,2,0:0:0:0:
189,287,78228,1,0,1:2:0:0:
360,124,78412,1,8,0:0:0:0:
210,83,78596,1,2,0:0:0:0:
366,249,78780,6,0,P|423:262|495:272,1,114.099996517944,6|2,1:2|0:0,0:0:0:0:
236,175,79148,2,0,P|179:183|124:196,1,114.099996517944,2|2,0:0|1:2,0:0:0:0:
360,124,79517,2,0,P|380:70|397:16,1,114.099996517944,10|2,0:0|0:0,0:0:0:0:
236,175,79885,2,0,P|252:229|273:282,1,114.099996517944,2|2,0:0|1:2,0:0:0:0:
124,58,80253,6,0,P|65:40|7:41,1,114.099996517944,6|0,1:2|1:2,0:0:0:0:
0,261,80621,1,10,0:0:0:0:
0,261,80713,2,0,P|80:263|140:187,1,171.149994776917,10|10,0:0|0:0,0:0:0:0:
129,164,81081,1,8,0:0:0:0:
129,164,81173,1,8,0:3:0:0:
201,364,81357,1,8,0:3:0:0:
357,170,81541,1,8,0:3:0:0:
357,170,81633,1,8,0:3:0:0:
357,170,81725,6,0,P|360:222|369:281,1,97.799997015381,6|0,1:2|1:2,0:0:0:0:
202,121,82093,2,0,P|208:72|211:23,1,97.799997015381,8|0,0:0|0:0,0:0:0:0:
185,3,82369,1,8,0:0:0:0:
185,3,82461,1,2,0:0:0:0:
127,165,82645,1,0,1:2:0:0:
326,70,82829,2,0,P|382:56|439:51,1,97.799997015381,10|0,0:0|1:2,0:0:0:0:
235,211,83197,6,0,P|186:204|139:192,1,97.799997015381,6|0,1:2|0:0,0:0:0:0:
366,267,83566,1,10,0:0:0:0:
141,360,83750,1,0,1:2:0:0:
141,360,83842,1,8,0:0:0:0:
141,360,83934,1,2,0:0:0:0:
235,211,84118,1,0,1:2:0:0:
379,369,84302,2,0,P|384:316|394:256,1,97.799997015381,10|0,0:0|1:2,0:0:0:0:
410,239,84578,5,8,0:0:0:0:
410,239,84670,1,6,1:2:0:0:
506,371,84854,1,0,0:0:0:0:
284,306,85038,2,0,P|233:291|166:289,1,97.799997015381,8|0,0:0|0:0,0:0:0:0:
154,324,85314,1,8,0:0:0:0:
154,324,85406,1,2,0:0:0:0:
300,219,85590,1,0,1:2:0:0:
80,165,85774,2,0,P|131:150|198:148,1,97.799997015381,10|8,0:0|1:2,0:0:0:0:
216,149,86050,1,8,0:0:0:0:
216,149,86142,5,6,1:2:0:0:
31,76,86326,1,0,1:2:0:0:
146,241,86510,1,10,0:0:0:0:
276,69,86694,1,0,1:2:0:0:
276,69,86786,1,8,0:0:0:0:
276,69,86878,2,0,P|300:109|308:174,1,97.799997015381,2|0,1:2|1:2,0:0:0:0:
81,165,87247,2,0,P|89:117|114:75,1,97.799997015381,10|0,0:0|1:2,0:0:0:0:
147,45,87523,5,8,0:0:0:0:
147,45,87615,1,6,1:2:0:0:
216,149,87799,1,0,1:2:0:0:
386,57,87983,2,0,P|442:53|493:45,1,97.799997015381,10|0,0:0|0:0,0:0:0:0:
511,21,88259,1,8,0:0:0:0:
511,21,88351,1,2,0:0:0:0:
340,134,88535,1,0,1:2:0:0:
512,285,88719,1,8,0:0:0:0:
479,131,88903,1,0,1:2:0:0:
366,339,89087,6,0,P|359:281|349:233,1,97.799997015381,6|0,1:2|1:2,0:0:0:0:
172,153,89455,1,10,0:0:0:0:
228,348,89639,1,0,1:2:0:0:
228,348,89731,1,8,0:0:0:0:
228,348,89823,1,2,0:0:0:0:
291,153,90007,1,0,1:2:0:0:
128,349,90191,1,10,0:0:0:0:
29,146,90375,1,0,1:2:0:0:
29,146,90467,1,8,0:0:0:0:
29,146,90559,5,12,0:0:0:0:
208,253,90743,1,0,1:2:0:0:
30,362,90928,1,0,1:2:0:0:
253,96,91112,5,10,0:0:0:0:
291,311,91296,1,0,1:2:0:0:
89,226,91480,1,0,1:2:0:0:
373,134,91664,5,10,0:0:0:0:
134,40,91848,1,0,1:2:0:0:
202,278,92032,5,14,0:0:0:0:
339,30,92216,1,0,1:2:0:0:
404,278,92400,5,0,1:2:0:0:
236,17,92584,1,0,1:2:0:0:
236,17,92676,1,0,0:0:0:0:
236,17,92768,5,10,0:0:0:0:
116,212,92952,1,0,1:2:0:0:
417,108,93136,5,10,0:0:0:0:
98,78,93326,1,0,0:0:0:0:
98,78,93418,1,0,1:2:0:0:
98,78,93510,6,0,P|94:156|82:264,1,163,6|2,1:2|0:0,0:0:0:0:
158,364,94062,1,2,1:2:0:0:
296,259,94246,2,0,P|253:261|209:283,1,81.5,10|0,0:0|1:2,0:0:0:0:
357,381,94615,2,0,P|317:379|280:364,1,81.5,2|8,0:0|0:0,0:0:0:0:
406,212,94983,6,0,P|389:253|381:303,1,81.5,6|8,1:2|0:0,0:0:0:0:
456,373,95351,1,2,0:0:0:0:
296,259,95535,1,2,1:2:0:0:
474,142,95719,2,0,P|491:183|499:233,1,81.5,8|0,0:0|0:0,0:0:0:0:
316,62,96087,2,0,B|246:46|268:101|188:80,1,122.25,8|0,0:0|0:0,0:0:0:0:
127,48,96455,6,0,P|143:87|149:137,1,81.5,6|2,1:2|0:0,0:0:0:0:
3,228,96823,2,0,P|9:187|24:150,1,81.5,2|2,0:0|1:2,0:0:0:0:
171,251,97191,1,10,0:0:0:0:
64,321,97376,1,2,1:2:0:0:
118,181,97560,1,2,0:0:0:0:
227,330,97744,1,10,0:0:0:0:
227,330,97836,1,0,0:0:0:0:
227,330,97928,6,0,P|272:319|311:320,1,81.5,6|10,1:2|0:0,0:0:0:0:
427,217,98296,1,2,0:0:0:0:
370,384,98480,1,2,1:2:0:0:
271,227,98664,2,0,P|261:178|252:142,1,81.5,8|0,0:0|0:0,0:0:0:0:
444,137,99032,2,0,P|434:176|426:216,1,81.5,8|0,0:0|0:0,0:0:0:0:
318,61,99400,5,14,0:0:0:0:
271,227,99584,1,0,1:2:0:0:
198,28,99768,5,10,0:0:0:0:
356,169,99952,1,0,1:2:0:0:
99,192,100136,5,10,0:0:0:0:
326,54,100320,1,0,1:2:0:0:
326,54,100412,1,0,1:2:0:0:
326,54,100504,5,10,0:0:0:0:
108,15,100688,1,0,1:2:0:0:
150,263,100872,5,10,0:0:0:0:
220,9,101057,1,0,1:2:0:0:
293,244,101241,5,10,0:0:0:0:
22,160,101424,1,0,1:2:0:0:
303,120,101608,5,10,0:0:0:0:
213,378,101793,1,0,1:2:0:0:
213,378,101885,1,0,1:2:0:0:
213,378,101977,5,8,0:0:0:0:
99,192,102161,1,0,1:2:0:0:
329,251,102345,5,14,0:0:0:0:
82,370,102529,1,0,1:2:0:0:
369,355,102713,5,8,0:0:0:0:
91,225,102897,1,0,1:2:0:0:
377,141,103081,5,8,0:0:0:0:
164,306,103265,1,0,1:2:0:0:
164,306,103357,1,0,1:2:0:0:
164,306,103449,1,8,0:0:0:0:
329,251,103633,1,2,1:2:0:0:
50,69,103817,5,10,0:0:0:0:
196,327,104001,1,2,1:2:0:0:
199,34,104185,5,10,0:0:0:0:
78,349,104369,1,2,1:2:0:0:
297,9,104553,5,10,0:0:0:0:
399,303,104737,2,0,P|409:323|419:359,1,40.75,2|0,0:0|1:0,0:0:0:0:
210,172,104921,6,0,P|181:161|150:156,1,40.75,8|8,0:0|0:0,0:0:0:0:
408,64,105105,2,0,P|437:53|468:48,1,40.75,8|8,0:0|0:0,0:0:0:0:
418,324,105289,5,8,0:0:0:0:
302,120,105473,2,0,P|294:87|286:66,1,40.75,0|8,1:2|0:3,0:0:0:0:
155,273,105657,2,0,P|148:292|144:312,1,40.75,8|8,1:3|0:3,0:0:0:0:
71,84,105841,1,8,0:0:0:0:
0,275,106025,1,0,1:2:0:0:
17,297,106117,1,8,0:3:0:0:
45,312,106209,1,0,1:2:0:0:
81,311,106301,1,0,1:2:0:0:
116,291,106393,1,8,0:0:0:0:
153,266,106485,1,8,0:0:0:0:
197,269,106577,1,8,0:0:0:0:
231,297,106669,1,8,0:0:0:0:
247,338,106761,6,0,P|303:325|368:315,1,114.099996517944,6|2,1:2|0:0,0:0:0:0:
146,185,107129,2,0,P|90:172|25:162,1,114.099996517944,10|2,0:0|0:0,0:0:0:0:
6,184,107405,1,8,0:0:0:0:
6,184,107497,1,2,0:0:0:0:
153,266,107681,1,0,1:2:0:0:
48,57,107865,1,10,0:0:0:0:
57,247,108049,1,2,0:0:0:0:
213,24,108233,6,0,P|216:81|224:145,1,114.099996517944,6|0,1:2|1:2,0:0:0:0:
416,263,108602,1,10,0:0:0:0:
316,80,108786,1,2,0:0:0:0:
316,80,108878,1,8,0:0:0:0:
316,80,108970,1,2,0:0:0:0:
225,299,109154,1,0,1:2:0:0:
413,106,109338,1,8,0:0:0:0:
231,171,109522,1,2,0:0:0:0:
406,376,109706,6,0,P|412:319|415:262,1,114.099996517944,6|2,1:2|0:0,0:0:0:0:
215,185,110074,2,0,P|217:241|224:298,1,114.099996517944,10|2,0:0|0:0,0:0:0:0:
240,334,110350,1,8,0:0:0:0:
240,334,110442,1,2,0:0:0:0:
335,165,110626,1,0,1:2:0:0:
109,277,110810,1,10,0:0:0:0:
331,284,110994,1,2,0:0:0:0:
102,133,111178,5,6,1:2:0:0:
219,311,111362,1,2,1:2:0:0:
190,76,111546,1,10,0:0:0:0:
82,310,111730,1,2,0:0:0:0:
82,310,111822,1,8,0:0:0:0:
82,310,111914,1,2,0:0:0:0:
215,185,112098,1,0,1:2:0:0:
16,136,112283,2,0,P|9:69|-1:16,1,114.099996517944,8|2,0:0|0:0,0:0:0:0:
215,185,112651,6,0,P|170:227|116:234,1,114.099996517944,6|0,1:2|0:0,0:0:0:0:
300,73,113019,2,0,P|355:82|395:122,1,114.099996517944,10|0,0:0|0:0,0:0:0:0:
408,158,113295,1,8,0:0:0:0:
408,158,113387,1,2,0:0:0:0:
212,186,113571,1,0,1:2:0:0:
408,364,113755,2,0,P|417:300|431:243,1,114.099996517944,8|2,0:0|0:0,0:0:0:0:
212,186,114123,5,6,1:2:0:0:
102,362,114307,1,2,1:2:0:0:
317,220,114491,1,10,0:0:0:0:
81,199,114675,1,2,0:0:0:0:
81,199,114767,1,8,0:0:0:0:
81,199,114859,1,2,0:0:0:0:
265,312,115043,1,2,1:2:0:0:
23,297,115227,1,10,0:0:0:0:
212,186,115411,1,2,0:0:0:0:
102,362,115595,6,0,P|160:348|226:346,1,114.099996517944,4|2,1:2|0:0,0:0:0:0:
428,251,115963,2,0,P|370:237|304:235,1,114.099996517944,10|2,0:0|0:0,0:0:0:0:
286,253,116240,1,8,0:0:0:0:
286,253,116332,1,2,0:0:0:0:
445,121,116516,1,0,1:2:0:0:
348,328,116700,1,10,0:0:0:0:
269,154,116884,1,2,0:0:0:0:
472,347,117068,5,4,1:2:0:0:
249,265,117252,1,0,1:2:0:0:
481,202,117436,1,8,0:0:0:0:
255,71,117620,1,8,0:3:0:0:
255,71,117712,1,8,0:3:0:0:
255,71,117804,1,8,1:3:0:0:
459,12,117988,1,0,1:2:0:0:
292,150,118172,1,8,0:0:0:0:
258,180,118264,1,8,0:0:0:0:
214,192,118356,1,8,0:0:0:0:
168,189,118448,1,8,0:0:0:0:
128,166,118540,6,0,P|121:98|110:49,1,114.099996517944,14|0,1:2|0:0,0:0:0:0:
338,215,118908,2,0,P|326:270|321:327,1,114.099996517944,10|2,0:0|0:0,0:0:0:0:
347,357,119184,1,8,0:0:0:0:
347,357,119276,1,2,0:0:0:0:
214,192,119460,1,0,1:2:0:0:
115,363,119644,2,0,P|54:335|5:327,1,114.099996517944,10|2,0:0|0:0,0:0:0:0:
219,168,120013,5,6,1:2:0:0:
318,347,120197,1,0,1:2:0:0:
225,141,120381,1,8,0:0:0:0:
132,355,120565,1,2,0:0:0:0:
132,355,120657,1,8,0:0:0:0:
132,355,120749,1,2,0:0:0:0:
299,241,120933,1,0,1:2:0:0:
75,184,121117,2,0,P|65:110|56:69,1,114.099996517944,8|2,0:0|0:0,0:0:0:0:
313,113,121485,6,0,P|253:162|197:165,1,114.099996517944,6|2,1:2|0:0,0:0:0:0:
25,255,121853,2,0,P|79:269|119:309,1,114.099996517944,10|2,0:0|0:0,0:0:0:0:
132,355,122129,1,8,0:0:0:0:
132,355,122221,1,2,0:0:0:0:
299,241,122405,1,0,1:2:0:0:
75,184,122589,1,8,0:0:0:0:
212,306,122773,1,2,0:0:0:0:
385,126,122957,5,6,1:2:0:0:
214,196,123141,1,0,1:2:0:0:
466,223,123325,1,10,0:0:0:0:
263,106,123509,1,2,0:0:0:0:
263,106,123602,1,8,0:0:0:0:
263,106,123694,1,2,0:0:0:0:
464,39,123878,1,0,1:2:0:0:
370,256,124062,2,0,P|361:318|356:373,1,114.099996517944,8|2,0:0|0:0,0:0:0:0:
447,197,124430,6,0,P|402:163|332:165,1,114.099996517944,6|2,1:2|0:0,0:0:0:0:
187,285,124798,2,0,P|243:282|287:248,1,114.099996517944,2|2,0:0|1:2,0:0:0:0:
219,82,125166,2,0,L|212:201,1,114.099996517944,10|2,0:0|0:0,0:0:0:0:
96,303,125534,1,2,0:0:0:0:
75,174,125718,1,2,1:2:0:0:
0,375,125902,5,6,1:2:0:0:
170,77,127006,5,8,0:3:0:0:
267,202,127190,1,8,0:3:0:0:
267,202,127283,1,8,0:3:0:0:
267,202,127375,6,0,P|320:198|374:193,1,97.799997015381,6|0,1:2|1:2,0:0:0:0:
170,77,127743,2,0,P|119:67|70:65,1,97.799997015381,8|0,0:0|0:0,0:0:0:0:
51,91,128019,1,8,0:0:0:0:
51,91,128111,1,2,0:0:0:0:
170,174,128295,1,0,1:2:0:0:
47,339,128479,1,10,0:0:0:0:
79,187,128663,1,0,1:2:0:0:
239,342,128847,6,0,P|197:312|146:308,1,97.799997015381,6|0,1:2|0:0,0:0:0:0:
364,194,129215,2,0,P|406:164|457:160,1,97.799997015381,10|0,0:0|1:2,0:0:0:0:
477,174,129491,1,8,0:0:0:0:
477,174,129583,1,2,0:0:0:0:
314,274,129767,1,0,1:2:0:0:
297,68,129951,1,10,0:0:0:0:
447,262,130135,1,0,1:2:0:0:
447,262,130227,1,8,0:0:0:0:
447,262,130319,6,0,P|442:309|438:371,1,97.799997015381,6|0,1:2|0:0,0:0:0:0:
239,198,130687,2,0,P|235:149|230:100,1,97.799997015381,8|0,0:0|0:0,0:0:0:0:
215,71,130963,1,8,0:0:0:0:
215,71,131056,1,2,0:0:0:0:
368,0,131240,1,0,1:2:0:0:
142,180,131424,2,0,P|88:192|26:198,1,97.799997015381,10|8,0:0|1:2,0:0:0:0:
19,175,131700,1,8,0:0:0:0:
19,175,131792,5,6,1:2:0:0:
215,71,131976,1,0,1:2:0:0:
109,282,132160,1,10,0:0:0:0:
38,76,132344,1,0,1:2:0:0:
38,76,132436,1,8,0:0:0:0:
38,76,132528,1,2,1:2:0:0:
109,255,132712,1,0,1:2:0:0:
225,49,132896,1,10,0:0:0:0:
331,219,133080,1,0,1:2:0:0:
331,219,133172,1,8,0:0:0:0:
331,219,133264,6,0,P|388:204|438:204,1,97.799997015381,6|0,1:2|1:2,0:0:0:0:
204,298,133632,2,0,P|155:295|108:281,1,97.799997015381,10|0,0:0|0:0,0:0:0:0:
109,255,133908,1,8,0:0:0:0:
109,255,134000,1,2,0:0:0:0:
278,136,134184,1,0,1:2:0:0:
74,107,134368,1,8,0:0:0:0:
225,221,134552,1,0,1:2:0:0:
22,259,134736,6,0,P|15:316|6:367,1,97.799997015381,6|0,1:2|1:2,0:0:0:0:
225,221,135105,2,0,P|216:172|211:124,1,97.799997015381,10|0,0:0|1:2,0:0:0:0:
234,81,135381,1,8,0:0:0:0:
234,81,135473,1,2,0:0:0:0:
132,226,135657,1,0,1:2:0:0:
381,150,135841,1,10,0:0:0:0:
141,43,136025,1,0,1:2:0:0:
141,43,136117,1,8,0:0:0:0:
141,43,136209,5,12,0:0:0:0:
225,221,136393,1,0,1:2:0:0:
360,24,136577,1,0,1:2:0:0:
102,158,136761,5,10,0:0:0:0:
334,271,136945,1,0,1:2:0:0:
102,367,137129,1,0,1:2:0:0:
261,127,137313,5,10,0:0:0:0:
387,356,137497,1,0,1:2:0:0:
164,109,137681,5,14,0:0:0:0:
86,337,137865,1,0,1:2:0:0:
297,220,138049,1,0,1:2:0:0:
34,144,138233,1,0,1:2:0:0:
204,248,138417,2,0,P|252:227|317:219,1,97.799997015381,10|0,0:0|1:2,0:0:0:0:
126,172,138786,2,0,P|78:151|13:143,1,97.799997015381,10|8,0:0|0:0,0:0:0:0:
274,34,139154,5,8,0:0:0:0:
322,296,139338,1,0,1:2:0:0:
126,172,139522,1,0,1:2:0:0:
422,35,139706,1,8,0:0:0:0:
423,336,140258,5,8,0:0:0:0:
305,108,140442,1,0,1:2:0:0:
205,325,140626,1,0,1:2:0:0:
60,79,140810,1,8,0:0:0:0:
60,79,141178,5,8,0:0:0:0:
286,197,141362,1,0,1:2:0:0:
11,360,141546,1,0,1:2:0:0:
219,16,141730,1,8,0:0:0:0:
423,354,141914,1,8,0:0:0:0:
