osu file format v14

[General]
AudioFilename: audio.mp3
AudioLeadIn: 0
PreviewTime: -1
Countdown: 0
SampleSet: None
StackLeniency: 0.7
Mode: 2
LetterboxInBreaks: 0
WidescreenStoryboard: 1

[Editor]
DistanceSpacing: 0.8
BeatDivisor: 4
GridSize: 4
TimelineZoom: 1

[Metadata]
Title:Wiggles
TitleUnicode:Wiggles
Artist:Metronome
ArtistUnicode:Metronome
Creator:VelperK
Version:Silly
Source:
Tags:
BeatmapID:2106889
BeatmapSetID:1006231

[Difficulty]
HPDrainRate:0
CircleSize:4
OverallDifficulty:9.8
ApproachRate:9.8
SliderMultiplier:0.999999904632569
SliderTickRate:1

[Events]
//Background and Video events
//Break Periods
2,9299,10036
2,17840,20951
2,28335,30093
2,37105,41179
2,47857,52068
//Storyboard Layer 0 (Background)
//Storyboard Layer 1 (Fail)
//Storyboard Layer 2 (Pass)
//Storyboard Layer 3 (Foreground)
//Storyboard Sound Samples

[TimingPoints]
1499,400,4,3,0,10,1,0
10515,375,4,3,0,10,1,0
21430,352.941176470588,4,3,0,10,1,0
30572,333.333333333333,4,3,0,10,1,0
41658,315.789473684211,4,3,0,10,1,0
52547,300,4,3,0,10,1,0

[HitObjects]
204,192,1499,5,0,0:0:0:0:
304,192,1599,1,0,0:0:0:0:
204,192,1699,1,0,0:0:0:0:
304,192,1799,1,0,0:0:0:0:
204,192,1899,1,0,0:0:0:0:
304,192,1999,1,0,0:0:0:0:
204,192,2099,1,0,0:0:0:0:
304,192,2199,1,0,0:0:0:0:
204,192,2299,1,0,0:0:0:0:
304,192,2399,1,0,0:0:0:0:
204,192,2499,1,0,0:0:0:0:
304,192,2599,1,0,0:0:0:0:
204,192,2699,1,0,0:0:0:0:
304,192,3099,5,0,0:0:0:0:
204,192,3199,1,0,0:0:0:0:
304,192,3299,1,0,0:0:0:0:
204,192,3399,1,0,0:0:0:0:
304,192,3499,1,0,0:0:0:0:
204,192,3599,1,0,0:0:0:0:
304,192,3699,1,0,0:0:0:0:
204,192,3799,1,0,0:0:0:0:
304,192,3899,1,0,0:0:0:0:
204,192,3999,1,0,0:0:0:0:
304,192,4099,1,0,0:0:0:0:
204,192,4199,1,0,0:0:0:0:
304,192,4299,1,0,0:0:0:0:
204,192,4699,5,0,0:0:0:0:
304,192,4799,1,0,0:0:0:0:
204,192,4899,1,0,0:0:0:0:
304,192,4999,1,0,0:0:0:0:
204,192,5099,1,0,0:0:0:0:
304,192,5199,1,0,0:0:0:0:
204,192,5299,1,0,0:0:0:0:
304,192,5399,1,0,0:0:0:0:
204,192,5499,1,0,0:0:0:0:
304,192,5599,1,0,0:0:0:0:
204,192,5699,1,0,0:0:0:0:
304,192,5799,1,0,0:0:0:0:
204,192,5899,1,0,0:0:0:0:
304,192,6299,5,0,0:0:0:0:
204,192,6399,1,0,0:0:0:0:
304,192,6499,1,0,0:0:0:0:
204,192,6599,1,0,0:0:0:0:
304,192,6699,1,0,0:0:0:0:
204,192,6799,1,0,0:0:0:0:
304,192,6899,1,0,0:0:0:0:
204,192,6999,1,0,0:0:0:0:
304,192,7099,1,0,0:0:0:0:
204,192,7199,1,0,0:0:0:0:
304,192,7299,1,0,0:0:0:0:
204,192,7399,1,0,0:0:0:0:
304,192,7499,1,0,0:0:0:0:
204,192,7899,5,0,0:0:0:0:
304,192,7999,1,0,0:0:0:0:
204,192,8099,1,0,0:0:0:0:
304,192,8199,1,0,0:0:0:0:
204,192,8299,1,0,0:0:0:0:
304,192,8399,1,0,0:0:0:0:
204,192,8499,1,0,0:0:0:0:
304,192,8599,1,0,0:0:0:0:
204,192,8699,1,0,0:0:0:0:
304,192,8799,1,0,0:0:0:0:
204,192,8899,1,0,0:0:0:0:
304,192,8999,1,0,0:0:0:0:
204,192,9099,1,0,0:0:0:0:
204,192,10515,5,0,0:0:0:0:
304,192,10608,1,0,0:0:0:0:
204,192,10702,1,0,0:0:0:0:
304,192,10796,1,0,0:0:0:0:
204,192,10890,1,0,0:0:0:0:
304,192,10983,1,0,0:0:0:0:
204,192,11077,1,0,0:0:0:0:
304,192,11171,1,0,0:0:0:0:
204,192,11265,1,0,0:0:0:0:
304,192,11358,1,0,0:0:0:0:
204,192,11452,1,0,0:0:0:0:
304,192,11546,1,0,0:0:0:0:
204,192,11640,1,0,0:0:0:0:
304,192,12015,5,0,0:0:0:0:
204,192,12108,1,0,0:0:0:0:
304,192,12202,1,0,0:0:0:0:
204,192,12296,1,0,0:0:0:0:
304,192,12390,1,0,0:0:0:0:
204,192,12483,1,0,0:0:0:0:
304,192,12577,1,0,0:0:0:0:
204,192,12671,1,0,0:0:0:0:
304,192,12765,1,0,0:0:0:0:
204,192,12858,1,0,0:0:0:0:
304,192,12952,1,0,0:0:0:0:
204,192,13046,1,0,0:0:0:0:
304,192,13140,1,0,0:0:0:0:
204,192,13515,5,0,0:0:0:0:
304,192,13608,1,0,0:0:0:0:
204,192,13702,1,0,0:0:0:0:
304,192,13796,1,0,0:0:0:0:
204,192,13890,1,0,0:0:0:0:
304,192,13983,1,0,0:0:0:0:
204,192,14077,1,0,0:0:0:0:
304,192,14171,1,0,0:0:0:0:
204,192,14265,1,0,0:0:0:0:
304,192,14358,1,0,0:0:0:0:
204,192,14452,1,0,0:0:0:0:
304,192,14546,1,0,0:0:0:0:
204,192,14640,1,0,0:0:0:0:
304,192,15015,5,0,0:0:0:0:
204,192,15108,1,0,0:0:0:0:
304,192,15202,1,0,0:0:0:0:
204,192,15296,1,0,0:0:0:0:
304,192,15390,1,0,0:0:0:0:
204,192,15483,1,0,0:0:0:0:
304,192,15577,1,0,0:0:0:0:
204,192,15671,1,0,0:0:0:0:
304,192,15765,1,0,0:0:0:0:
204,192,15858,1,0,0:0:0:0:
304,192,15952,1,0,0:0:0:0:
204,192,16046,1,0,0:0:0:0:
304,192,16140,1,0,0:0:0:0:
204,192,16515,5,0,0:0:0:0:
304,192,16608,1,0,0:0:0:0:
204,192,16702,1,0,0:0:0:0:
304,192,16796,1,0,0:0:0:0:
204,192,16890,1,0,0:0:0:0:
304,192,16983,1,0,0:0:0:0:
204,192,17077,1,0,0:0:0:0:
304,192,17171,1,0,0:0:0:0:
204,192,17265,1,0,0:0:0:0:
304,192,17358,1,0,0:0:0:0:
204,192,17452,1,0,0:0:0:0:
304,192,17546,1,0,0:0:0:0:
204,192,17640,1,0,0:0:0:0:
204,192,21430,5,0,0:0:0:0:
304,192,21518,1,0,0:0:0:0:
204,192,21606,1,0,0:0:0:0:
304,192,21694,1,0,0:0:0:0:
204,192,21782,1,0,0:0:0:0:
304,192,21871,1,0,0:0:0:0:
204,192,21959,1,0,0:0:0:0:
304,192,22047,1,0,0:0:0:0:
204,192,22135,1,0,0:0:0:0:
304,192,22224,1,0,0:0:0:0:
204,192,22312,1,0,0:0:0:0:
304,192,22400,1,0,0:0:0:0:
204,192,22488,1,0,0:0:0:0:
304,192,22841,5,0,0:0:0:0:
204,192,22929,1,0,0:0:0:0:
304,192,23017,1,0,0:0:0:0:
204,192,23105,1,0,0:0:0:0:
304,192,23193,1,0,0:0:0:0:
204,192,23282,1,0,0:0:0:0:
304,192,23370,1,0,0:0:0:0:
204,192,23458,1,0,0:0:0:0:
304,192,23546,1,0,0:0:0:0:
204,192,23635,1,0,0:0:0:0:
304,192,23723,1,0,0:0:0:0:
204,192,23811,1,0,0:0:0:0:
304,192,23899,1,0,0:0:0:0:
204,192,24253,5,0,0:0:0:0:
304,192,24341,1,0,0:0:0:0:
204,192,24429,1,0,0:0:0:0:
304,192,24517,1,0,0:0:0:0:
204,192,24605,1,0,0:0:0:0:
304,192,24694,1,0,0:0:0:0:
204,192,24782,1,0,0:0:0:0:
304,192,24870,1,0,0:0:0:0:
204,192,24958,1,0,0:0:0:0:
304,192,25047,1,0,0:0:0:0:
204,192,25135,1,0,0:0:0:0:
304,192,25223,1,0,0:0:0:0:
204,192,25311,1,0,0:0:0:0:
304,192,25664,5,0,0:0:0:0:
204,192,25752,1,0,0:0:0:0:
304,192,25840,1,0,0:0:0:0:
204,192,25928,1,0,0:0:0:0:
304,192,26016,1,0,0:0:0:0:
204,192,26105,1,0,0:0:0:0:
304,192,26193,1,0,0:0:0:0:
204,192,26281,1,0,0:0:0:0:
304,192,26369,1,0,0:0:0:0:
204,192,26458,1,0,0:0:0:0:
304,192,26546,1,0,0:0:0:0:
204,192,26634,1,0,0:0:0:0:
304,192,26722,1,0,0:0:0:0:
204,192,27077,5,0,0:0:0:0:
304,192,27165,1,0,0:0:0:0:
204,192,27253,1,0,0:0:0:0:
304,192,27341,1,0,0:0:0:0:
204,192,27429,1,0,0:0:0:0:
304,192,27518,1,0,0:0:0:0:
204,192,27606,1,0,0:0:0:0:
304,192,27694,1,0,0:0:0:0:
204,192,27782,1,0,0:0:0:0:
304,192,27871,1,0,0:0:0:0:
204,192,27959,1,0,0:0:0:0:
304,192,28047,1,0,0:0:0:0:
204,192,28135,1,0,0:0:0:0:
204,192,30572,5,0,0:0:0:0:
304,192,30655,1,0,0:0:0:0:
204,192,30738,1,0,0:0:0:0:
304,192,30822,1,0,0:0:0:0:
204,192,30905,1,0,0:0:0:0:
304,192,30988,1,0,0:0:0:0:
204,192,31072,1,0,0:0:0:0:
304,192,31155,1,0,0:0:0:0:
204,192,31238,1,0,0:0:0:0:
304,192,31322,1,0,0:0:0:0:
204,192,31405,1,0,0:0:0:0:
304,192,31488,1,0,0:0:0:0:
204,192,31572,1,0,0:0:0:0:
304,192,31905,5,0,0:0:0:0:
204,192,31988,1,0,0:0:0:0:
304,192,32071,1,0,0:0:0:0:
204,192,32155,1,0,0:0:0:0:
304,192,32238,1,0,0:0:0:0:
204,192,32321,1,0,0:0:0:0:
304,192,32405,1,0,0:0:0:0:
204,192,32488,1,0,0:0:0:0:
304,192,32571,1,0,0:0:0:0:
204,192,32655,1,0,0:0:0:0:
304,192,32738,1,0,0:0:0:0:
204,192,32821,1,0,0:0:0:0:
304,192,32905,1,0,0:0:0:0:
204,192,33238,5,0,0:0:0:0:
304,192,33321,1,0,0:0:0:0:
204,192,33404,1,0,0:0:0:0:
304,192,33488,1,0,0:0:0:0:
204,192,33571,1,0,0:0:0:0:
304,192,33654,1,0,0:0:0:0:
204,192,33738,1,0,0:0:0:0:
304,192,33821,1,0,0:0:0:0:
204,192,33904,1,0,0:0:0:0:
304,192,33988,1,0,0:0:0:0:
204,192,34071,1,0,0:0:0:0:
304,192,34154,1,0,0:0:0:0:
204,192,34238,1,0,0:0:0:0:
304,192,34571,5,0,0:0:0:0:
204,192,34654,1,0,0:0:0:0:
304,192,34737,1,0,0:0:0:0:
204,192,34821,1,0,0:0:0:0:
304,192,34904,1,0,0:0:0:0:
204,192,34987,1,0,0:0:0:0:
304,192,35071,1,0,0:0:0:0:
204,192,35154,1,0,0:0:0:0:
304,192,35237,1,0,0:0:0:0:
204,192,35321,1,0,0:0:0:0:
304,192,35404,1,0,0:0:0:0:
204,192,35487,1,0,0:0:0:0:
304,192,35571,1,0,0:0:0:0:
204,192,35905,5,0,0:0:0:0:
304,192,35988,1,0,0:0:0:0:
204,192,36071,1,0,0:0:0:0:
304,192,36155,1,0,0:0:0:0:
204,192,36238,1,0,0:0:0:0:
304,192,36321,1,0,0:0:0:0:
204,192,36405,1,0,0:0:0:0:
304,192,36488,1,0,0:0:0:0:
204,192,36571,1,0,0:0:0:0:
304,192,36655,1,0,0:0:0:0:
204,192,36738,1,0,0:0:0:0:
304,192,36821,1,0,0:0:0:0:
204,192,36905,1,0,0:0:0:0:
204,192,41658,5,0,0:0:0:0:
304,192,41736,1,0,0:0:0:0:
204,192,41815,1,0,0:0:0:0:
304,192,41894,1,0,0:0:0:0:
204,192,41973,1,0,0:0:0:0:
304,192,42052,1,0,0:0:0:0:
204,192,42131,1,0,0:0:0:0:
304,192,42210,1,0,0:0:0:0:
204,192,42289,1,0,0:0:0:0:
304,192,42368,1,0,0:0:0:0:
204,192,42447,1,0,0:0:0:0:
304,192,42526,1,0,0:0:0:0:
204,192,42605,1,0,0:0:0:0:
304,192,42921,5,0,0:0:0:0:
204,192,42999,1,0,0:0:0:0:
304,192,43078,1,0,0:0:0:0:
204,192,43157,1,0,0:0:0:0:
304,192,43236,1,0,0:0:0:0:
204,192,43315,1,0,0:0:0:0:
304,192,43394,1,0,0:0:0:0:
204,192,43473,1,0,0:0:0:0:
304,192,43552,1,0,0:0:0:0:
204,192,43631,1,0,0:0:0:0:
304,192,43710,1,0,0:0:0:0:
204,192,43789,1,0,0:0:0:0:
304,192,43868,1,0,0:0:0:0:
204,192,44184,5,0,0:0:0:0:
304,192,44262,1,0,0:0:0:0:
204,192,44341,1,0,0:0:0:0:
304,192,44420,1,0,0:0:0:0:
204,192,44499,1,0,0:0:0:0:
304,192,44578,1,0,0:0:0:0:
204,192,44657,1,0,0:0:0:0:
304,192,44736,1,0,0:0:0:0:
204,192,44815,1,0,0:0:0:0:
304,192,44894,1,0,0:0:0:0:
204,192,44973,1,0,0:0:0:0:
304,192,45052,1,0,0:0:0:0:
204,192,45131,1,0,0:0:0:0:
304,192,45447,5,0,0:0:0:0:
204,192,45525,1,0,0:0:0:0:
304,192,45604,1,0,0:0:0:0:
204,192,45683,1,0,0:0:0:0:
304,192,45762,1,0,0:0:0:0:
204,192,45841,1,0,0:0:0:0:
304,192,45920,1,0,0:0:0:0:
204,192,45999,1,0,0:0:0:0:
304,192,46078,1,0,0:0:0:0:
204,192,46157,1,0,0:0:0:0:
304,192,46236,1,0,0:0:0:0:
204,192,46315,1,0,0:0:0:0:
304,192,46394,1,0,0:0:0:0:
204,192,46710,5,0,0:0:0:0:
304,192,46788,1,0,0:0:0:0:
204,192,46867,1,0,0:0:0:0:
304,192,46946,1,0,0:0:0:0:
204,192,47025,1,0,0:0:0:0:
304,192,47104,1,0,0:0:0:0:
204,192,47183,1,0,0:0:0:0:
304,192,47262,1,0,0:0:0:0:
204,192,47341,1,0,0:0:0:0:
304,192,47420,1,0,0:0:0:0:
204,192,47499,1,0,0:0:0:0:
304,192,47578,1,0,0:0:0:0:
204,192,47657,1,0,0:0:0:0:
204,192,52547,5,0,0:0:0:0:
304,192,52622,1,0,0:0:0:0:
204,192,52697,1,0,0:0:0:0:
304,192,52772,1,0,0:0:0:0:
204,192,52847,1,0,0:0:0:0:
304,192,52922,1,0,0:0:0:0:
204,192,52997,1,0,0:0:0:0:
304,192,53072,1,0,0:0:0:0:
204,192,53147,1,0,0:0:0:0:
304,192,53222,1,0,0:0:0:0:
204,192,53297,1,0,0:0:0:0:
304,192,53372,1,0,0:0:0:0:
204,192,53447,1,0,0:0:0:0:
304,192,53747,5,0,0:0:0:0:
204,192,53822,1,0,0:0:0:0:
304,192,53897,1,0,0:0:0:0:
204,192,53972,1,0,0:0:0:0:
304,192,54047,1,0,0:0:0:0:
204,192,54122,1,0,0:0:0:0:
304,192,54197,1,0,0:0:0:0:
204,192,54272,1,0,0:0:0:0:
304,192,54347,1,0,0:0:0:0:
204,192,54422,1,0,0:0:0:0:
304,192,54497,1,0,0:0:0:0:
204,192,54572,1,0,0:0:0:0:
304,192,54647,1,0,0:0:0:0:
204,192,54947,5,0,0:0:0:0:
304,192,55022,1,0,0:0:0:0:
204,192,55097,1,0,0:0:0:0:
304,192,55172,1,0,0:0:0:0:
204,192,55247,1,0,0:0:0:0:
304,192,55322,1,0,0:0:0:0:
204,192,55397,1,0,0:0:0:0:
304,192,55472,1,0,0:0:0:0:
204,192,55547,1,0,0:0:0:0:
304,192,55622,1,0,0:0:0:0:
204,192,55697,1,0,0:0:0:0:
304,192,55772,1,0,0:0:0:0:
204,192,55847,1,0,0:0:0:0:
304,192,56147,5,0,0:0:0:0:
204,192,56222,1,0,0:0:0:0:
304,192,56297,1,0,0:0:0:0:
204,192,56372,1,0,0:0:0:0:
304,192,56447,1,0,0:0:0:0:
204,192,56522,1,0,0:0:0:0:
304,192,56597,1,0,0:0:0:0:
204,192,56672,1,0,0:0:0:0:
304,192,56747,1,0,0:0:0:0:
204,192,56822,1,0,0:0:0:0:
304,192,56897,1,0,0:0:0:0:
204,192,56972,1,0,0:0:0:0:
304,192,57047,1,0,0:0:0:0:
204,192,57347,5,0,0:0:0:0:
304,192,57422,1,0,0:0:0:0:
204,192,57497,1,0,0:0:0:0:
304,192,57572,1,0,0:0:0:0:
204,192,57647,1,0,0:0:0:0:
304,192,57722,1,0,0:0:0:0:
204,192,57797,1,0,0:0:0:0:
304,192,57872,1,0,0:0:0:0:
204,192,57947,1,0,0:0:0:0:
304,192,58022,1,0,0:0:0:0:
204,192,58097,1,0,0:0:0:0:
304,192,58172,1,0,0:0:0:0:
204,192,58247,1,0,0:0:0:0:
