osu file format v14

[General]
AudioFilename: audio.mp3
AudioLeadIn: 0
PreviewTime: -1
Countdown: 0
SampleSet: None
StackLeniency: 0.7
Mode: 2
LetterboxInBreaks: 0
WidescreenStoryboard: 1

[Editor]
DistanceSpacing: 0.8
BeatDivisor: 4
GridSize: 4
TimelineZoom: 1

[Metadata]
Title:Wiggles
TitleUnicode:Wiggles
Artist:Metronome
ArtistUnicode:Metronome
Creator:VelperK
Version:180 BPM (Dash) Wiggles
Source:
Tags:
BeatmapID:2106886
BeatmapSetID:1006231

[Difficulty]
HPDrainRate:0
CircleSize:4
OverallDifficulty:9.8
ApproachRate:9.8
SliderMultiplier:0.999999904632569
SliderTickRate:1

[Events]
//Background and Video events
//Break Periods
//Storyboard Layer 0 (Background)
//Storyboard Layer 1 (Fail)
//Storyboard Layer 2 (Pass)
//Storyboard Layer 3 (Foreground)
//Storyboard Sound Samples

[TimingPoints]
1499,400,4,3,0,10,1,0
10515,375,4,3,0,10,1,0
21430,352.941176470588,4,3,0,10,1,0
30572,333.333333333333,4,3,0,10,1,0
41658,315.789473684211,4,3,0,10,1,0
52547,300,4,3,0,10,1,0

[HitObjects]
204,192,30572,5,0,0:0:0:0:
304,192,30655,1,0,0:0:0:0:
204,192,30738,1,0,0:0:0:0:
304,192,30822,1,0,0:0:0:0:
204,192,30905,1,0,0:0:0:0:
304,192,30988,1,0,0:0:0:0:
204,192,31072,1,0,0:0:0:0:
304,192,31155,1,0,0:0:0:0:
204,192,31238,1,0,0:0:0:0:
304,192,31322,1,0,0:0:0:0:
204,192,31405,1,0,0:0:0:0:
304,192,31488,1,0,0:0:0:0:
204,192,31572,1,0,0:0:0:0:
304,192,31905,5,0,0:0:0:0:
204,192,31988,1,0,0:0:0:0:
304,192,32071,1,0,0:0:0:0:
204,192,32155,1,0,0:0:0:0:
304,192,32238,1,0,0:0:0:0:
204,192,32321,1,0,0:0:0:0:
304,192,32405,1,0,0:0:0:0:
204,192,32488,1,0,0:0:0:0:
304,192,32571,1,0,0:0:0:0:
204,192,32655,1,0,0:0:0:0:
304,192,32738,1,0,0:0:0:0:
204,192,32821,1,0,0:0:0:0:
304,192,32905,1,0,0:0:0:0:
204,192,33238,5,0,0:0:0:0:
304,192,33321,1,0,0:0:0:0:
204,192,33404,1,0,0:0:0:0:
304,192,33488,1,0,0:0:0:0:
204,192,33571,1,0,0:0:0:0:
304,192,33654,1,0,0:0:0:0:
204,192,33738,1,0,0:0:0:0:
304,192,33821,1,0,0:0:0:0:
204,192,33904,1,0,0:0:0:0:
304,192,33988,1,0,0:0:0:0:
204,192,34071,1,0,0:0:0:0:
304,192,34154,1,0,0:0:0:0:
204,192,34238,1,0,0:0:0:0:
304,192,34571,5,0,0:0:0:0:
204,192,34654,1,0,0:0:0:0:
304,192,34737,1,0,0:0:0:0:
204,192,34821,1,0,0:0:0:0:
304,192,34904,1,0,0:0:0:0:
204,192,34987,1,0,0:0:0:0:
304,192,35071,1,0,0:0:0:0:
204,192,35154,1,0,0:0:0:0:
304,192,35237,1,0,0:0:0:0:
204,192,35321,1,0,0:0:0:0:
304,192,35404,1,0,0:0:0:0:
204,192,35487,1,0,0:0:0:0:
304,192,35571,1,0,0:0:0:0:
204,192,35905,5,0,0:0:0:0:
304,192,35988,1,0,0:0:0:0:
204,192,36071,1,0,0:0:0:0:
304,192,36155,1,0,0:0:0:0:
204,192,36238,1,0,0:0:0:0:
304,192,36321,1,0,0:0:0:0:
204,192,36405,1,0,0:0:0:0:
304,192,36488,1,0,0:0:0:0:
204,192,36571,1,0,0:0:0:0:
304,192,36655,1,0,0:0:0:0:
204,192,36738,1,0,0:0:0:0:
304,192,36821,1,0,0:0:0:0:
204,192,36905,1,0,0:0:0:0:
