osu file format v14

[General]
AudioFilename: audio.mp3
AudioLeadIn: 0
PreviewTime: -1
Countdown: 0
SampleSet: None
StackLeniency: 0.7
Mode: 2
LetterboxInBreaks: 0
WidescreenStoryboard: 1

[Editor]
DistanceSpacing: 0.8
BeatDivisor: 4
GridSize: 4
TimelineZoom: 1

[Metadata]
Title:Wiggles
TitleUnicode:Wiggles
Artist:Metronome
ArtistUnicode:Metronome
Creator:VelperK
Version:150 BPM Hyper Wiggles
Source:
Tags:
BeatmapID:2106861
BeatmapSetID:1006231

[Difficulty]
HPDrainRate:0
CircleSize:4
OverallDifficulty:9.8
ApproachRate:9.8
SliderMultiplier:0.999999904632569
SliderTickRate:1

[Events]
//Background and Video events
//Break Periods
//Storyboard Layer 0 (Background)
//Storyboard Layer 1 (Fail)
//Storyboard Layer 2 (Pass)
//Storyboard Layer 3 (Foreground)
//Storyboard Sound Samples

[TimingPoints]
1499,400,4,3,0,10,1,0
10515,375,4,3,0,10,1,0
21430,352.941176470588,4,3,0,10,1,0
30572,333.333333333333,4,3,0,10,1,0
41658,315.789473684211,4,3,0,10,1,0
52547,300,4,3,0,10,1,0

[HitObjects]
336,192,1499,5,0,0:0:0:0:
176,192,1599,1,0,0:0:0:0:
336,192,1699,1,0,0:0:0:0:
176,192,1799,1,0,0:0:0:0:
336,192,1899,1,0,0:0:0:0:
176,192,1999,1,0,0:0:0:0:
336,192,2099,1,0,0:0:0:0:
176,192,2199,1,0,0:0:0:0:
336,192,2299,1,0,0:0:0:0:
176,192,2399,1,0,0:0:0:0:
336,192,2499,1,0,0:0:0:0:
176,192,2599,1,0,0:0:0:0:
336,192,2699,1,0,0:0:0:0:
176,192,3099,5,0,0:0:0:0:
336,192,3199,1,0,0:0:0:0:
176,192,3299,1,0,0:0:0:0:
336,192,3399,1,0,0:0:0:0:
176,192,3499,1,0,0:0:0:0:
336,192,3599,1,0,0:0:0:0:
176,192,3699,1,0,0:0:0:0:
336,192,3799,1,0,0:0:0:0:
176,192,3899,1,0,0:0:0:0:
336,192,3999,1,0,0:0:0:0:
176,192,4099,1,0,0:0:0:0:
336,192,4199,1,0,0:0:0:0:
176,192,4299,1,0,0:0:0:0:
336,192,4699,5,0,0:0:0:0:
176,192,4799,1,0,0:0:0:0:
336,192,4899,1,0,0:0:0:0:
176,192,4999,1,0,0:0:0:0:
336,192,5099,1,0,0:0:0:0:
176,192,5199,1,0,0:0:0:0:
336,192,5299,1,0,0:0:0:0:
176,192,5399,1,0,0:0:0:0:
336,192,5499,1,0,0:0:0:0:
176,192,5599,1,0,0:0:0:0:
336,192,5699,1,0,0:0:0:0:
176,192,5799,1,0,0:0:0:0:
336,192,5899,1,0,0:0:0:0:
176,192,6299,5,0,0:0:0:0:
336,192,6399,1,0,0:0:0:0:
176,192,6499,1,0,0:0:0:0:
336,192,6599,1,0,0:0:0:0:
176,192,6699,1,0,0:0:0:0:
336,192,6799,1,0,0:0:0:0:
176,192,6899,1,0,0:0:0:0:
336,192,6999,1,0,0:0:0:0:
176,192,7099,1,0,0:0:0:0:
336,192,7199,1,0,0:0:0:0:
176,192,7299,1,0,0:0:0:0:
336,192,7399,1,0,0:0:0:0:
176,192,7499,1,0,0:0:0:0:
