osu file format v14

[General]
AudioFilename: audio.mp3
AudioLeadIn: 0
PreviewTime: 211175
Countdown: 0
SampleSet: Soft
StackLeniency: 0.5
Mode: 0
LetterboxInBreaks: 0
WidescreenStoryboard: 1

[Editor]
Bookmarks: 2899,5658,8416,11175,13934,16692,19451,22209,24968,27727,30485,33244,36003,38761,41520,44278,64623,66347,87037,92209,96692,102209,107727,113244,118761,124278,144623,146347,165485,179451,182209,184968,187727,190485,210830,212554,233244,234623
DistanceSpacing: 1
BeatDivisor: 4
GridSize: 4
TimelineZoom: 1.9

[Metadata]
Title:We Got It (feat. Rothwell)
TitleUnicode:We Got It (feat. Rothwell)
Artist:Metrik
ArtistUnicode:Metrik
Creator:evth
Version:Watch The World
Source:
Tags:-ckopoctb- 619 moonl1ght liquid funk dnb drum and bass d&b stream longstream deathstream electronic english liquicity regret hostpital records ginger sadie sink -_-_makrica_-_- female vocal
BeatmapID:3956011
BeatmapSetID:1522116

[Difficulty]
HPDrainRate:4.8
CircleSize:4.2
OverallDifficulty:9.4
ApproachRate:9.2
SliderMultiplier:1.74
SliderTickRate:1

[Events]
//Background and Video events
0,0,"Sadie.png",0,0
//Break Periods
2,168616,176122
//Storyboard Layer 0 (Background)
//Storyboard Layer 1 (Fail)
//Storyboard Layer 2 (Pass)
//Storyboard Layer 3 (Foreground)
//Storyboard Layer 4 (Overlay)
//Storyboard Sound Samples

[TimingPoints]
141,344.827586206897,4,2,1,30,1,0
141,-166.666666666667,4,2,1,30,0,0
2899,-166.666666666667,4,2,1,32,0,0
5658,-166.666666666667,4,2,1,34,0,0
8416,-166.666666666667,4,2,1,36,0,0
11175,-153.846153846154,4,2,1,38,0,0
13934,-153.846153846154,4,2,1,40,0,0
16692,-153.846153846154,4,2,1,42,0,0
19451,-153.846153846154,4,2,1,44,0,0
22209,-153.846153846154,4,2,1,46,0,0
24968,-153.846153846154,4,2,1,48,0,0
27727,-153.846153846154,4,2,1,50,0,0
30485,-153.846153846154,4,2,1,52,0,0
33244,-142.857142857143,4,2,1,54,0,0
36003,-142.857142857143,4,2,1,56,0,0
38761,-142.857142857143,4,2,1,58,0,0
41520,-142.857142857143,4,2,1,60,0,0
42899,-125,4,2,1,65,0,0
44278,-250,4,2,1,70,0,1
44968,-100,4,2,1,70,0,1
45485,-133.333333333333,4,2,1,70,0,1
48761,-100,4,2,1,70,0,1
49451,-133.333333333333,4,2,1,70,0,1
49796,-250,4,2,1,70,0,1
50485,-100,4,2,1,70,0,1
51003,-133.333333333333,4,2,1,70,0,1
51520,-100,4,2,1,70,0,1
52209,-133.333333333333,4,2,1,70,0,1
55313,-250,4,2,1,70,0,1
56003,-83.3333333333333,4,2,1,70,0,1
56692,-100,4,2,1,70,0,1
57727,-133.333333333333,4,2,1,70,0,1
61865,-100,4,2,1,70,0,1
63244,-83.3333333333333,4,2,1,70,0,1
64623,-250,4,2,1,50,0,0
64968,-133.333333333333,4,2,1,50,0,0
65313,-250,4,2,1,50,0,0
66347,-71.4285714285714,4,2,1,80,0,1
67037,-133.333333333333,4,2,1,80,0,1
68072,-100,4,2,1,80,0,1
68761,-133.333333333333,4,2,1,80,0,1
71865,-250,4,2,1,80,0,1
72554,-100,4,2,1,80,0,1
73244,-133.333333333333,4,2,1,80,0,1
75141,-100,4,2,1,80,0,1
75830,-133.333333333333,4,2,1,80,0,1
77382,-71.4285714285714,4,2,1,80,0,1
78072,-133.333333333333,4,2,1,80,0,1
79106,-100,4,2,1,80,0,1
79796,-133.333333333333,4,2,1,80,0,1
82899,-250,4,2,1,80,0,1
83589,-100,4,2,1,80,0,1
84278,-133.333333333333,4,2,1,80,0,1
86175,-100,4,2,1,80,0,1
86865,-133.333333333333,4,2,1,80,0,0
87382,-133.333333333333,4,2,1,60,0,0
87899,-133.333333333333,4,2,1,40,0,0
88416,-250,4,2,1,40,0,0
88933,-250,4,2,1,5,0,0
91175,-250,4,2,1,40,0,0
92209,-250,4,2,1,35,0,0
92554,-153.846153846153,4,2,1,35,0,0
96692,-153.846153846153,4,2,1,40,0,0
102209,-153.846153846153,4,2,1,45,0,0
107727,-153.846153846153,4,2,1,50,0,0
113244,-153.846153846153,4,2,1,55,0,0
114278,-142.857142857143,4,2,1,55,0,0
118761,-142.857142857143,4,2,1,60,0,0
122899,-125,4,2,1,65,0,0
124278,-200,4,2,1,70,0,1
124968,-90.9090909090909,4,2,1,70,0,1
125485,-117.647058823529,4,2,1,70,0,1
128761,-90.9090909090909,4,2,1,70,0,1
129451,-117.647058823529,4,2,1,70,0,1
129796,-200,4,2,1,70,0,1
130485,-90.9090909090909,4,2,1,70,0,1
131003,-117.647058823529,4,2,1,70,0,1
131520,-90.9090909090909,4,2,1,70,0,1
132209,-117.647058823529,4,2,1,70,0,1
135313,-200,4,2,1,70,0,1
136003,-76.9230769230769,4,2,1,70,0,1
136692,-90.9090909090909,4,2,1,70,0,1
137727,-117.647058823529,4,2,1,70,0,1
141865,-90.9090909090909,4,2,1,70,0,1
143244,-76.9230769230769,4,2,1,70,0,1
144623,-200,4,2,1,50,0,0
144968,-117.647058823529,4,2,1,50,0,0
145313,-200,4,2,1,50,0,0
146347,-66.6666666666667,4,2,1,80,0,1
147037,-117.647058823529,4,2,1,80,0,1
148072,-90.9090909090909,4,2,1,80,0,1
148761,-117.647058823529,4,2,1,80,0,1
151865,-200,4,2,1,80,0,1
152554,-90.9090909090909,4,2,1,80,0,1
153244,-117.647058823529,4,2,1,80,0,1
155141,-90.9090909090909,4,2,1,80,0,1
155830,-117.647058823529,4,2,1,80,0,1
157382,-66.6666666666667,4,2,1,80,0,1
158072,-117.647058823529,4,2,1,80,0,1
159106,-90.9090909090909,4,2,1,80,0,1
159796,-117.647058823529,4,2,1,80,0,1
162899,-200,4,2,1,80,0,1
163589,-90.9090909090909,4,2,1,80,0,1
164278,-117.647058823529,4,2,1,80,0,1
164968,-200,4,2,1,80,0,0
165485,-166.666666666667,4,2,1,50,0,0
167726,-166.666666666667,4,2,1,5,0,0
168416,-166.666666666667,4,2,1,70,0,0
179451,-166.666666666667,4,2,1,45,0,0
182209,-153.846153846154,4,2,1,50,0,0
184968,-142.857142857143,4,2,1,55,0,0
187727,-166.666666666667,4,2,1,60,0,0
189106,-166.666666666667,4,2,1,65,0,0
190141,-125,4,2,1,65,0,0
190485,-166.666666666667,4,2,1,70,0,1
191175,-83.3333333333333,4,2,1,70,0,1
191692,-105.263157894737,4,2,1,70,0,1
194968,-83.3333333333333,4,2,1,70,0,1
195658,-105.263157894737,4,2,1,70,0,1
196003,-166.666666666667,4,2,1,70,0,1
196692,-83.3333333333333,4,2,1,70,0,1
197209,-105.263157894737,4,2,1,70,0,1
197727,-83.3333333333333,4,2,1,70,0,1
198416,-105.263157894737,4,2,1,70,0,1
201520,-166.666666666667,4,2,1,70,0,1
202209,-71.4285714285714,4,2,1,70,0,1
202899,-83.3333333333333,4,2,1,70,0,1
203934,-105.263157894737,4,2,1,70,0,1
208072,-83.3333333333333,4,2,1,70,0,1
209451,-71.4285714285714,4,2,1,70,0,1
210830,-166.666666666667,4,2,1,50,0,0
211175,-105.263157894737,4,2,1,50,0,0
211520,-166.666666666667,4,2,1,50,0,0
212554,-62.5,4,2,1,80,0,1
213244,-105.263157894737,4,2,1,80,0,1
214278,-83.3333333333333,4,2,1,80,0,1
214968,-105.263157894737,4,2,1,80,0,1
218072,-166.666666666667,4,2,1,80,0,1
218761,-83.3333333333333,4,2,1,80,0,1
219451,-105.263157894737,4,2,1,80,0,1
221347,-83.3333333333333,4,2,1,80,0,1
222037,-105.263157894737,4,2,1,80,0,1
223589,-62.5,4,2,1,80,0,1
224278,-105.263157894737,4,2,1,80,0,1
226003,-105.263157894737,4,2,1,80,0,1
229106,-166.666666666667,4,2,1,80,0,1
229796,-83.3333333333333,4,2,1,80,0,1
230485,-105.263157894737,4,2,1,80,0,1
232382,-83.3333333333333,4,2,1,80,0,1
233072,-105.263157894737,4,2,1,80,0,0
233244,-100,4,2,1,60,0,0
233589,-133.333333333333,4,2,1,60,0,0
234106,-100,4,2,1,40,0,0
234623,-142.857142857143,4,2,1,40,0,0
237037,-122.59097994361,4,2,1,5,0,0

[Colours]
Combo1 : 128,255,128
Combo2 : 128,128,255
Combo3 : 255,128,64
Combo4 : 255,128,192

[HitObjects]
213,131,141,6,0,P|116:114|69:200,2,208.8,2|0|0,2:0|2:0|2:0,2:0:0:0:
213,131,2209,2,0,L|228:195,1,52.1999999999999,0|0,2:0|2:0,2:0:0:0:
295,244,2554,2,0,L|283:294,1,52.1999999999999,0|0,2:0|2:0,2:0:0:0:
206,349,2899,6,0,B|132:275|132:275|24:305,2,208.8,2|0|0,2:0|2:0|2:0,2:0:0:0:
206,349,4968,2,0,B|226:335|226:335|255:335,1,52.1999999999999,0|0,2:0|2:0,2:0:0:0:
318,266,5313,2,0,B|342:268|342:268|364:286,1,52.1999999999999,0|0,2:0|2:0,2:0:0:0:
431,351,5658,5,2,2:0:0:0:
312,128,6347,1,2,2:0:0:0:
151,188,7037,1,2,2:0:0:0:
67,133,7727,2,0,P|56:108|55:73,1,52.1999999999999,0|0,2:0|2:0,2:0:0:0:
164,138,8072,2,0,P|161:163|150:187,1,52.1999999999999,0|0,2:0|2:0,2:0:0:0:
130,279,8416,6,0,P|163:331|247:250,2,208.8,2|0|2,2:0|2:0|2:0,2:0:0:0:
130,279,10485,2,0,L|119:218,1,52.1999999999999,0|0,2:0|2:0,2:0:0:0:
56,158,10830,2,0,L|67:97,1,52.1999999999999,0|0,2:0|2:0,2:0:0:0:
203,44,11175,6,0,B|245:28|288:53|288:53|322:15|322:15|358:32|408:14,1,226.2,2|0,3:2|2:0,2:0:0:0:
473,91,12037,1,0,2:0:0:0:
473,91,12209,2,0,P|488:119|489:155,1,56.5499999999999,0|0,2:0|2:0,2:0:0:0:
457,239,12554,5,2,2:0:0:0:
396,338,12899,1,2,2:0:0:0:
350,203,13244,1,2,2:0:0:0:
247,287,13589,2,0,P|219:287|184:272,1,56.5499999999999,0|0,2:0|2:0,2:0:0:0:
138,190,13934,2,0,B|120:159|120:159|108:241,1,113.1,2|0,2:0|2:0,2:0:0:0:
92,351,14623,1,0,2:0:0:0:
247,287,14968,6,0,L|304:278,1,56.5499999999999,0|0,2:0|2:0,2:0:0:0:
403,261,15313,1,2,2:0:0:0:
374,370,15658,1,2,2:0:0:0:
486,304,16003,2,0,P|497:272|497:246,1,56.5499999999999,2|0,2:0|2:0,2:0:0:0:
437,167,16347,2,0,P|426:135|426:109,1,56.5499999999999,0|0,2:0|2:0,2:0:0:0:
366,29,16692,6,0,P|299:14|219:134,2,226.2,2|0|2,3:2|2:0|2:0,2:0:0:0:
256,206,18761,2,0,P|232:215|198:212,1,56.5499999999999,0|0,2:0|2:0,2:0:0:0:
169,294,19106,2,0,P|144:285|120:261,1,56.5499999999999,0|0,2:0|2:0,2:0:0:0:
42,237,19451,6,0,B|18:222|13:170|43:146|104:137|137:205|119:280,1,226.2,2|0,3:2|2:0,2:0:0:0:
144,370,20830,2,0,P|190:329|250:331,2,113.1,2|0|0,2:0|2:0|2:0,2:0:0:0:
201,213,21865,1,0,2:0:0:0:
352,374,22209,5,2,3:2:0:0:
403,193,22899,2,0,P|430:180|459:179,1,56.5499999999999,0|0,2:0|2:0,2:0:0:0:
407,283,23244,2,0,P|378:281|353:268,1,56.5499999999999,0|0,2:0|2:0,2:0:0:0:
308,177,23589,2,0,L|289:49,1,113.1,2|0,2:0|2:0,2:0:0:0:
124,160,24278,2,0,B|183:168|183:168|220:122,1,113.1,0|0,2:0|2:0,2:0:0:0:
37,111,24968,6,0,B|-3:240|102:207|69:342,1,226.2,2|0,3:2|2:0,2:0:0:0:
161,273,25830,1,0,2:0:0:0:
161,273,26003,2,0,P|186:260|218:261,1,56.5499999999999,0|0,2:0|2:0,2:0:0:0:
300,312,26347,2,0,L|312:373,1,56.5499999999999,2|0,2:0|2:0,2:0:0:0:
397,314,26692,2,0,P|421:278|414:205,1,113.1,0|0,2:0|2:0,2:0:0:0:
368,120,27209,1,0,2:0:0:0:
368,120,27382,2,0,L|307:108,1,56.5499999999999,0|0,2:0|2:0,2:0:0:0:
246,186,27727,6,0,B|166:206|166:206|114:186|114:186|26:208,2,226.2,2|2|2,3:2|2:0|2:0,2:0:0:0:
202,292,29451,2,0,L|257:279,1,56.5499999999999,0|0,2:0|2:0,2:0:0:0:
356,255,29796,1,0,2:0:0:0:
356,255,29968,2,0,B|371:198|371:198|347:134,1,113.1,0|0,2:0|2:0,2:0:0:0:
417,76,30485,6,0,B|460:187|460:187|430:310,2,226.2,2|0|2,3:2|2:0|2:0,2:0:0:0:
246,247,32209,1,0,2:0:0:0:
351,147,32554,1,0,2:0:0:0:
476,352,32899,1,0,2:0:0:0:
327,297,33244,6,0,P|351:286|387:283,1,60.8999999999999,0|0,3:2|2:0,2:0:0:0:
244,346,33589,2,0,P|234:322|256:231,1,121.8,8|2,2:0|2:0,2:0:0:0:
385,282,34106,1,2,3:2:0:0:
309,168,34278,2,0,P|275:149|249:145,1,60.8999999999999,10|2,2:0|2:0,2:0:0:0:
192,81,34623,6,0,P|226:62|252:58,1,60.8999999999999,2|0,3:2|2:0,2:0:0:0:
111,150,34968,2,0,L|83:28,1,121.8,10|2,2:0|2:0,2:0:0:0:
2,134,35485,1,2,3:2:0:0:
70,246,35658,2,0,L|136:257,1,60.8999999999999,10|0,2:0|2:0,2:0:0:0:
72,356,36003,6,0,L|6:367,1,60.8999999999999,2|0,3:2|2:0,2:0:0:0:
208,314,36347,2,0,P|222:284|208:200,1,121.8,8|2,2:0|2:0,2:0:0:0:
70,246,36865,1,2,3:2:0:0:
149,130,37037,2,0,P|173:115|220:112,1,60.8999999999999,10|0,2:0|2:0,2:0:0:0:
259,44,37382,6,0,P|235:29|188:26,1,60.8999999999999,2|0,3:2|2:0,2:0:0:0:
339,133,37727,2,0,L|370:6,1,121.8,10|2,2:0|2:0,2:0:0:0:
458,101,38244,1,2,3:2:0:0:
388,222,38416,2,0,L|314:235,1,60.8999999999999,10|0,2:0|2:0,2:0:0:0:
374,326,38675,1,0,2:0:0:0:
374,326,38761,6,0,L|462:345,1,60.8999999999999,0|0,3:2|2:0,2:0:0:0:
257,156,39106,2,0,P|213:131|129:150,1,121.8,8|2,2:0|2:0,2:0:0:0:
77,240,39623,1,0,3:2:0:0:
28,151,39796,2,0,L|14:82,1,60.8999999999999,10|2,2:0|2:0,2:0:0:0:
192,213,40141,6,0,L|182:273,1,60.8999999999999,0|0,3:2|2:0,2:0:0:0:
207,83,40485,1,8,2:0:0:0:
276,239,40658,1,2,2:0:0:0:
302,249,40744,1,0,2:0:0:0:
330,250,40830,1,2,2:0:0:0:
356,240,40916,1,0,2:0:0:0:
377,221,41003,1,2,3:2:0:0:
458,101,41175,2,0,L|472:30,1,60.8999999999999,10|0,2:0|2:0,2:0:0:0:
337,13,41520,5,2,3:2:0:0:
318,169,41692,1,0,3:2:0:0:
207,83,41865,1,2,3:2:0:0:
259,277,42037,1,0,3:2:0:0:
458,101,42209,5,2,3:2:0:0:
176,187,42382,1,0,3:2:0:0:
434,255,42554,1,2,3:2:0:0:
337,13,42727,1,0,3:2:0:0:
267,243,42899,6,0,L|257:281,3,34.8,10|0|0|0,2:0|2:0|3:2|2:0,2:0:0:0:
231,107,43244,2,0,L|203:79,3,34.8,10|0|0|0,2:0|2:0|3:2|2:0,2:0:0:0:
361,146,43589,2,0,L|398:135,3,34.8,8|0|2|0,2:0|2:0|3:2|2:0,2:0:0:0:
465,252,43934,6,0,B|476:287|476:287|461:329,1,69.6,10|0,2:0|2:0,2:0:0:0:
363,306,44278,5,6,3:2:0:0:
353,291,44364,1,0,2:0:0:0:
340,279,44450,1,0,2:0:0:0:
325,271,44536,1,0,2:0:0:0:
308,266,44622,1,8,2:0:0:0:
291,265,44709,1,0,2:0:0:0:
274,269,44795,1,0,2:0:0:0:
258,276,44881,1,0,2:0:0:0:
243,291,44968,5,2,2:0:0:0:
260,251,45054,1,0,2:0:0:0:
257,208,45140,1,0,3:2:0:0:
235,172,45226,1,0,2:0:0:0:
197,150,45312,1,8,2:0:0:0:
154,148,45399,1,0,2:0:0:0:
112,167,45485,2,0,L|99:211,1,32.625001244545,2|0,2:0|2:0,2:0:0:0:
16,249,45658,2,0,L|25:280,3,32.625001244545,2|0|0|0,3:2|2:0|2:0|2:0,2:0:0:0:
100,350,46003,5,10,2:0:0:0:
100,350,46089,1,0,2:0:0:0:
100,350,46175,2,0,P|115:357|131:359,1,32.625001244545,0|0,2:0|2:0,2:0:0:0:
212,299,46347,1,0,2:0:0:0:
212,299,46433,1,0,2:0:0:0:
212,299,46519,2,0,P|227:292|243:290,1,32.625001244545,0|0,3:2|2:0,2:0:0:0:
338,341,46692,5,10,2:0:0:0:
369,347,46778,1,0,2:0:0:0:
401,353,46864,1,0,2:0:0:0:
433,360,46950,1,0,2:0:0:0:
466,363,47037,2,0,L|475:321,3,32.625001244545,0|0|0|0,3:0|2:0|2:0|2:0,2:0:0:0:
413,237,47382,5,10,2:0:0:0:
383,223,47468,1,0,2:0:0:0:
360,200,47554,1,0,2:0:0:0:
345,171,47640,1,0,2:0:0:0:
340,139,47726,1,0,2:0:0:0:
346,107,47813,1,0,2:0:0:0:
362,79,47899,1,0,3:0:0:0:
386,57,47985,1,0,2:0:0:0:
416,45,48072,6,0,P|434:47|461:55,3,32.625001244545,10|0|0|0,2:0|2:0|2:0|2:0,2:0:0:0:
372,133,48416,2,0,P|356:136|339:138,3,32.625001244545,2|0|0|0,3:2|2:0|2:0|2:0,2:0:0:0:
256,72,48761,5,10,2:0:0:0:
226,41,48847,1,0,2:0:0:0:
185,27,48933,1,0,2:0:0:0:
142,35,49019,1,0,2:0:0:0:
108,61,49105,1,0,2:0:0:0:
91,101,49192,1,0,2:0:0:0:
94,144,49278,1,0,3:2:0:0:
117,180,49364,1,0,2:0:0:0:
156,199,49451,2,0,P|176:206|198:206,3,32.625001244545,8|0|0|0,2:0|2:0|2:0|2:0,2:0:0:0:
297,183,49796,5,2,3:2:0:0:
309,171,49882,1,0,2:0:0:0:
325,163,49968,1,0,2:0:0:0:
342,159,50054,1,0,2:0:0:0:
359,160,50140,1,8,2:0:0:0:
375,164,50227,1,0,2:0:0:0:
391,173,50313,1,0,2:0:0:0:
403,186,50399,1,0,2:0:0:0:
416,199,50485,5,2,2:0:0:0:
458,191,50571,1,0,2:0:0:0:
489,161,50657,1,0,3:2:0:0:
499,119,50744,1,0,2:0:0:0:
486,79,50830,1,8,2:0:0:0:
452,52,50916,1,0,2:0:0:0:
408,54,51003,2,0,L|395:105,1,32.625001244545,2|0,2:0|2:0,2:0:0:0:
306,129,51175,2,0,L|319:180,3,32.625001244545,2|0|0|0,3:2|2:0|2:0|2:0,2:0:0:0:
281,280,51520,5,10,2:0:0:0:
259,317,51606,1,0,2:0:0:0:
221,336,51692,1,0,2:0:0:0:
178,332,51778,1,0,2:0:0:0:
144,306,51864,1,0,2:0:0:0:
130,266,51951,1,0,2:0:0:0:
139,224,52037,1,0,3:2:0:0:
170,194,52123,1,0,2:0:0:0:
211,187,52209,5,10,2:0:0:0:
224,157,52295,1,0,2:0:0:0:
216,126,52381,1,0,2:0:0:0:
191,107,52467,1,0,2:0:0:0:
158,103,52554,2,0,P|142:108|116:127,3,32.625001244545,0|0|0|0,3:2|2:0|2:0|2:0,2:0:0:0:
43,184,52899,5,10,2:0:0:0:
43,184,52985,1,0,2:0:0:0:
43,184,53072,2,0,L|30:231,1,32.625001244545,0|0,2:0|2:0,2:0:0:0:
115,294,53244,1,0,2:0:0:0:
115,294,53330,1,0,2:0:0:0:
115,294,53417,2,0,L|128:341,1,32.625001244545,0|0,3:2|2:0,2:0:0:0:
226,289,53589,5,10,2:0:0:0:
257,282,53675,1,0,2:0:0:0:
289,275,53761,1,0,2:0:0:0:
321,269,53847,1,0,2:0:0:0:
353,262,53934,2,0,L|392:254,3,32.625001244545,2|0|0|0,3:2|2:0|2:0|2:0,2:0:0:0:
318,163,54278,5,10,2:0:0:0:
301,135,54364,1,0,2:0:0:0:
296,103,54450,1,0,2:0:0:0:
305,72,54536,1,0,2:0:0:0:
329,49,54623,2,0,P|346:42|364:42,1,32.625001244545,2|0,2:0|2:0,2:0:0:0:
448,39,54796,2,0,P|461:51|468:68,1,32.625001244545,0|0,3:2|2:0,2:0:0:0:
506,148,54968,2,0,P|499:165|487:178,3,32.625001244545,10|0|0|0,2:0|2:0|2:0|2:0,2:0:0:0:
445,274,55313,5,2,3:2:0:0:
434,259,55399,1,0,2:0:0:0:
422,248,55485,1,0,2:0:0:0:
406,239,55571,1,0,2:0:0:0:
390,234,55657,1,8,2:0:0:0:
373,232,55744,1,0,2:0:0:0:
355,235,55830,1,0,2:0:0:0:
339,241,55916,1,0,2:0:0:0:
323,254,56003,5,2,2:0:0:0:
314,203,56089,1,0,2:0:0:0:
279,165,56175,1,0,3:2:0:0:
229,153,56261,1,0,2:0:0:0:
180,169,56347,1,8,2:0:0:0:
149,210,56434,1,0,2:0:0:0:
145,261,56520,1,0,2:0:0:0:
170,306,56606,1,0,2:0:0:0:
216,322,56692,5,2,3:2:0:0:
239,286,56778,1,0,2:0:0:0:
237,243,56864,1,0,2:0:0:0:
209,211,56950,1,0,2:0:0:0:
167,203,57036,5,10,2:0:0:0:
129,221,57123,1,0,2:0:0:0:
85,225,57209,1,0,2:0:0:0:
44,211,57295,1,0,2:0:0:0:
14,180,57381,1,0,2:0:0:0:
0,139,57467,1,0,2:0:0:0:
6,97,57553,1,0,3:2:0:0:
29,60,57640,1,0,2:0:0:0:
66,43,57727,5,10,2:0:0:0:
74,73,57813,1,0,2:0:0:0:
99,93,57899,1,0,2:0:0:0:
131,95,57985,1,0,2:0:0:0:
161,82,58072,2,0,L|171:41,3,32.625001244545,0|0|0|0,3:2|2:0|2:0|2:0,2:0:0:0:
271,85,58416,5,10,2:0:0:0:
271,85,58503,1,0,2:0:0:0:
271,85,58589,2,0,L|312:95,1,32.625001244545,0|0,2:0|2:0,2:0:0:0:
386,44,58761,1,0,2:0:0:0:
386,44,58848,1,0,2:0:0:0:
386,44,58934,2,0,L|427:34,1,32.625001244545,0|0,3:2|2:0,2:0:0:0:
478,116,59106,6,0,P|484:133|488:156,3,32.625001244545,10|0|0|0,2:0|2:0|2:0|2:0,0:0:0:0:
412,207,59451,2,0,P|406:224|402:247,3,32.625001244545,2|0|0|0,3:2|2:0|2:0|2:0,0:0:0:0:
440,330,59796,6,0,L|481:340,1,32.625001244545,10|0,2:0|2:0,0:0:0:0:
458,353,59968,2,0,L|499:363,1,32.625001244545,0|0,2:0|2:0,2:0:0:0:
330,300,60141,2,0,L|289:310,1,32.625001244545,0|0,2:0|2:0,2:0:0:0:
312,323,60313,2,0,L|271:333,1,32.625001244545,0|0,3:2|2:0,2:0:0:0:
182,291,60485,2,0,L|172:250,3,32.625001244545,8|0|0|0,2:0|2:0|2:0|2:0,2:0:0:0:
237,171,60830,5,2,3:2:0:0:
259,148,60916,1,0,2:0:0:0:
271,117,61002,1,0,2:0:0:0:
271,85,61088,1,0,2:0:0:0:
258,55,61174,1,8,2:0:0:0:
235,33,61261,1,0,2:0:0:0:
202,27,61347,6,0,P|181:29|148:45,1,32.625001244545,2|0,2:0|2:0,2:0:0:0:
79,47,61520,2,0,P|72:66|73:103,1,32.625001244545,2|0,2:0|2:0,2:0:0:0:
28,163,61692,2,0,P|43:177|77:191,1,32.625001244545,2|0,3:2|2:0,2:0:0:0:
171,219,61865,5,10,2:0:0:0:
197,185,61951,1,0,2:0:0:0:
237,171,62037,1,0,2:0:0:0:
279,179,62123,1,0,2:0:0:0:
310,209,62209,1,0,3:2:0:0:
321,251,62296,1,0,2:0:0:0:
308,291,62382,1,0,2:0:0:0:
275,320,62468,1,0,2:0:0:0:
232,329,62554,6,0,L|179:316,3,43.5,10|0|0|0,2:0|2:0|2:0|2:0,2:0:0:0:
137,236,62899,2,0,L|126:193,1,43.5,2|0,2:0|2:0,2:0:0:0:
42,286,63072,2,0,L|31:328,1,43.5,2|0,3:2|2:0,2:0:0:0:
31,178,63244,5,10,2:0:0:0:
55,132,63330,1,0,2:0:0:0:
99,105,63416,1,2,2:0:0:0:
150,104,63502,1,0,2:0:0:0:
195,129,63588,1,0,3:2:0:0:
227,171,63675,1,0,2:0:0:0:
264,206,63761,1,0,2:0:0:0:
314,219,63847,1,0,2:0:0:0:
359,207,63933,1,8,2:0:0:0:
391,180,64019,1,0,2:0:0:0:
403,145,64106,1,0,2:0:0:0:
403,113,64192,1,0,2:0:0:0:
394,88,64278,1,0,2:0:0:0:
380,72,64364,1,0,2:0:0:0:
368,61,64450,1,0,3:2:0:0:
357,57,64537,1,0,2:0:0:0:
346,56,64623,6,0,L|317:64,3,17.4,8|0|0|0,2:0|2:0|2:0|2:0,2:0:0:0:
212,120,64968,2,0,B|184:115|184:115|172:107|172:107|137:101,1,65.2500024890901,2|0,3:2|2:0,2:0:0:0:
76,235,65313,5,10,2:0:0:0:
76,235,65399,1,0,2:0:0:0:
76,235,65485,2,0,L|47:244,2,17.4,0|0|2,2:0|2:0|2:0,2:0:0:0:
172,315,65830,5,8,2:0:0:0:
172,315,65916,1,0,2:0:0:0:
172,315,66002,2,0,L|203:321,2,17.4,2|0|0,2:0|2:0|2:0,2:0:0:0:
260,217,66347,5,6,3:2:0:0:
289,164,66433,1,0,2:0:0:0:
343,137,66519,1,0,2:0:0:0:
403,145,66605,1,0,2:0:0:0:
448,184,66691,1,8,2:0:0:0:
465,241,66778,1,0,2:0:0:0:
447,299,66864,1,0,2:0:0:0:
400,336,66950,1,0,2:0:0:0:
342,330,67037,5,2,2:0:0:0:
340,297,67123,1,0,2:0:0:0:
327,267,67209,1,0,3:2:0:0:
305,243,67295,1,0,2:0:0:0:
276,229,67381,1,8,2:0:0:0:
244,225,67468,1,0,2:0:0:0:
212,232,67554,1,0,2:0:0:0:
185,250,67640,1,0,2:0:0:0:
168,278,67727,2,0,L|158:327,3,32.625001244545,2|0|0|0,3:2|2:0|2:0|2:0,2:0:0:0:
66,267,68072,5,10,2:0:0:0:
37,234,68158,1,0,2:0:0:0:
27,192,68244,1,0,2:0:0:0:
38,150,68330,1,0,2:0:0:0:
66,118,68416,1,0,2:0:0:0:
107,103,68503,1,0,2:0:0:0:
149,107,68589,1,0,3:2:0:0:
185,132,68675,1,0,2:0:0:0:
203,174,68761,5,10,2:0:0:0:
233,164,68847,1,0,2:0:0:0:
256,141,68933,1,0,2:0:0:0:
264,109,69019,1,0,2:0:0:0:
257,78,69105,1,0,3:2:0:0:
236,54,69192,1,0,2:0:0:0:
205,43,69278,1,0,2:0:0:0:
174,47,69364,1,0,2:0:0:0:
149,68,69451,2,0,L|139:117,3,32.625001244545,10|0|0|0,2:0|2:0|2:0|2:0,2:0:0:0:
150,226,69796,5,2,2:0:0:0:
176,244,69882,1,0,2:0:0:0:
208,249,69968,1,0,3:2:0:0:
239,239,70054,1,0,2:0:0:0:
265,218,70141,1,8,2:0:0:0:
291,200,70227,1,0,2:0:0:0:
323,195,70313,1,0,2:0:0:0:
354,205,70399,1,0,2:0:0:0:
377,227,70485,6,0,L|387:276,3,32.625001244545,2|0|0|0,3:2|2:0|2:0|2:0,2:0:0:0:
473,207,70830,2,0,L|479:175,3,32.625001244545,10|0|0|0,2:0|2:0|2:0|2:0,2:0:0:0:
377,127,71175,2,0,L|345:120,1,32.625001244545,2|0,2:0|2:0,2:0:0:0:
462,71,71347,2,0,L|493:64,1,32.625001244545,0|0,3:2|2:0,2:0:0:0:
380,22,71520,2,0,L|348:15,3,32.625001244545,10|0|0|0,2:0|2:0|2:0|2:0,2:0:0:0:
239,28,71865,5,2,3:2:0:0:
225,38,71951,1,0,2:0:0:0:
215,52,72037,1,0,2:0:0:0:
208,68,72123,1,0,2:0:0:0:
206,86,72209,1,8,2:0:0:0:
207,103,72296,1,0,2:0:0:0:
214,119,72382,1,0,2:0:0:0:
223,133,72468,1,0,2:0:0:0:
235,148,72554,6,0,L|287:158,3,43.5,2|0|0|0,2:0|2:0|3:2|2:0,0:0:0:0:
178,233,72899,2,0,L|135:241,3,43.5,10|0|0|0,2:0|2:0|2:0|2:0,0:0:0:0:
49,160,73244,5,0,3:2:0:0:
30,133,73330,1,0,2:0:0:0:
23,101,73416,1,0,2:0:0:0:
31,70,73502,1,0,2:0:0:0:
50,44,73588,1,10,2:0:0:0:
78,28,73675,1,0,2:0:0:0:
111,25,73761,1,0,2:0:0:0:
141,36,73847,1,0,2:0:0:0:
161,61,73934,6,0,L|168:101,3,32.625001244545,2|0|0|0,2:0|2:0|3:2|2:0,2:0:0:0:
243,18,74278,2,0,L|249:51,1,32.625001244545,10|0,2:0|2:0,2:0:0:0:
339,76,74451,2,0,L|334:44,3,32.625001244545,2|0|0|0,2:0|2:0|3:2|2:0,2:0:0:0:
419,10,74796,2,0,L|424:42,3,32.625001244545,2|0|8|0,2:0|2:0|2:0|2:0,2:0:0:0:
468,134,75141,5,2,2:0:0:0:
425,129,75227,1,0,2:0:0:0:
384,145,75313,1,0,2:0:0:0:
356,177,75399,1,0,2:0:0:0:
345,219,75485,1,0,3:2:0:0:
354,261,75572,1,0,2:0:0:0:
381,295,75658,1,8,2:0:0:0:
421,312,75744,1,0,2:0:0:0:
463,301,75830,6,0,L|474:250,3,32.625001244545,2|0|0|0,2:0|2:0|3:2|2:0,2:0:0:0:
412,197,76175,2,0,L|418:165,1,32.625001244545,2|0,2:0|2:0,2:0:0:0:
321,248,76347,2,0,L|289:241,3,32.625001244545,10|0|0|0,2:0|2:0|2:0|2:0,2:0:0:0:
208,176,76692,2,0,L|176:182,3,32.625001244545,2|0|0|0,2:0|2:0|3:2|2:0,2:0:0:0:
100,247,77037,2,0,L|68:240,3,32.625001244545,10|0|0|0,2:0|2:0|2:0|2:0,2:0:0:0:
98,130,77382,5,6,3:2:0:0:
136,83,77468,1,0,2:0:0:0:
192,61,77554,1,0,2:0:0:0:
251,71,77640,1,0,2:0:0:0:
298,108,77726,1,8,2:0:0:0:
320,164,77813,1,0,2:0:0:0:
311,224,77899,1,0,2:0:0:0:
273,271,77985,1,0,2:0:0:0:
215,280,78072,5,2,2:0:0:0:
202,250,78158,1,0,2:0:0:0:
177,230,78244,1,0,3:2:0:0:
145,225,78330,1,0,2:0:0:0:
115,237,78416,1,8,2:0:0:0:
95,263,78503,1,0,2:0:0:0:
91,295,78589,1,0,2:0:0:0:
103,324,78675,1,0,2:0:0:0:
124,348,78761,6,0,L|165:356,3,32.625001244545,2|0|0|0,3:2|2:0|2:0|2:0,2:0:0:0:
246,305,79106,1,10,2:0:0:0:
273,271,79192,1,0,2:0:0:0:
282,229,79278,1,0,2:0:0:0:
270,188,79364,1,0,2:0:0:0:
239,157,79450,1,0,2:0:0:0:
198,144,79537,1,0,2:0:0:0:
156,152,79623,1,0,3:2:0:0:
122,179,79709,1,0,2:0:0:0:
101,219,79796,5,10,2:0:0:0:
72,204,79882,1,0,2:0:0:0:
54,177,79968,1,0,2:0:0:0:
50,145,80054,1,0,2:0:0:0:
63,115,80140,1,0,3:2:0:0:
88,95,80227,1,0,2:0:0:0:
120,89,80313,1,0,2:0:0:0:
151,100,80399,1,0,2:0:0:0:
171,124,80485,2,0,L|180:169,3,32.625001244545,10|0|0|0,2:0|2:0|2:0|2:0,2:0:0:0:
266,102,80830,5,2,2:0:0:0:
282,74,80916,1,0,2:0:0:0:
310,58,81002,1,0,3:2:0:0:
342,58,81088,1,0,2:0:0:0:
370,73,81174,1,8,2:0:0:0:
387,101,81261,1,0,2:0:0:0:
387,133,81347,1,0,2:0:0:0:
372,162,81433,1,0,2:0:0:0:
345,181,81520,6,0,L|305:187,3,32.625001244545,2|0|0|0,3:2|2:0|2:0|2:0,2:0:0:0:
230,142,81865,2,0,L|197:137,3,32.625001244545,10|0|0|0,2:0|2:0|2:0|2:0,2:0:0:0:
89,159,82209,2,0,P|79:179|75:201,1,32.625001244545,2|0,2:0|2:0,2:0:0:0:
35,261,82382,2,0,P|47:279|64:294,1,32.625001244545,0|0,3:2|2:0,2:0:0:0:
114,352,82554,2,0,P|136:350|157:343,3,32.625001244545,10|0|0|0,2:0|2:0|2:0|2:0,2:0:0:0:
220,272,82899,5,2,3:2:0:0:
232,260,82985,1,0,2:0:0:0:
248,252,83071,1,0,2:0:0:0:
265,250,83157,1,0,2:0:0:0:
282,253,83243,1,8,2:0:0:0:
298,261,83330,1,0,2:0:0:0:
310,273,83416,1,0,2:0:0:0:
319,288,83502,1,0,2:0:0:0:
322,305,83589,6,0,L|315:352,3,43.5,2|0|0|0,2:0|2:0|3:2|2:0,0:0:0:0:
220,272,83934,2,0,L|213:228,3,43.5,10|0|0|0,2:0|2:0|2:0|2:0,0:0:0:0:
272,148,84278,5,0,3:2:0:0:
290,121,84364,1,0,2:0:0:0:
295,89,84450,1,0,2:0:0:0:
286,58,84536,1,0,2:0:0:0:
265,34,84622,1,8,2:0:0:0:
235,21,84709,1,0,2:0:0:0:
203,22,84795,1,0,2:0:0:0:
174,37,84881,1,0,2:0:0:0:
157,65,84968,6,0,L|148:110,3,32.625001244545,2|0|0|0,2:0|2:0|3:2|2:0,2:0:0:0:
71,161,85313,2,0,L|80:206,1,32.625001244545,10|0,2:0|2:0,2:0:0:0:
181,222,85485,2,0,L|226:231,3,32.625001244545,2|0|0|0,2:0|2:0|3:2|2:0,2:0:0:0:
109,299,85830,2,0,L|64:308,3,32.625001244545,2|0|8|0,2:0|2:0|2:0|2:0,2:0:0:0:
268,307,86175,5,2,2:0:0:0:
295,274,86261,1,0,2:0:0:0:
307,233,86347,1,0,2:0:0:0:
299,190,86433,1,0,2:0:0:0:
273,154,86520,1,0,3:2:0:0:
264,111,86606,1,0,2:0:0:0:
276,70,86692,1,10,2:0:0:0:
305,38,86778,1,0,2:0:0:0:
348,29,86865,6,0,P|368:30|393:45,1,32.625001244545,2|0,2:0|2:0,2:0:0:0:
444,109,87037,1,0,3:2:0:0:
338,224,87382,5,10,2:0:0:0:
322,203,87468,1,0,2:0:0:0:
299,190,87554,1,0,2:0:0:0:
274,186,87640,1,0,2:0:0:0:
249,184,87727,2,0,P|232:187|210:198,1,32.625001244545,2|0,2:0|0:0,0:0:0:0:
146,300,87899,5,8,2:0:0:0:
135,316,87986,1,0,2:0:0:0:
120,328,88072,1,0,2:0:0:0:
101,333,88158,1,8,2:0:0:0:
81,332,88244,1,0,2:0:0:0:
63,325,88330,1,8,2:0:0:0:
46,314,88416,6,0,L|28:174,1,139.2,10|0,2:0|0:0,2:0:0:0:
256,192,89278,12,6,91175,3:2:0:0:
451,115,92209,5,2,2:0:0:0:
404,205,92382,1,2,2:0:0:0:
324,141,92554,2,0,P|299:131|254:134,1,56.5499999999999,2|2,2:0|2:0,2:0:0:0:
238,259,92899,2,0,P|258:242|277:201,1,56.5499999999999,2|2,2:0|2:0,2:0:0:0:
180,133,93244,2,0,P|182:158|208:196,1,56.5499999999999,2|0,2:0|2:0,2:0:0:0:
224,60,93589,2,0,B|185:41|185:41|132:57,1,84.8249999999999,2|0,2:0|2:0,2:0:0:0:
72,108,93934,2,0,B|58:186|58:186|65:216|65:216|48:241|48:241|31:336,1,226.2,2|0,2:0|2:0,2:0:0:0:
186,366,94968,5,2,2:0:0:0:
238,259,95141,1,2,2:0:0:0:
303,342,95313,2,0,L|386:356,2,84.8249999999999,2|2|2,2:0|2:0|2:0,2:0:0:0:
370,245,96003,2,0,L|453:230,2,84.8249999999999,2|2|2,2:0|2:0|2:0,2:0:0:0:
355,107,96692,6,0,P|331:62|220:62,1,169.65,2|0,2:0|2:0,2:0:0:0:
161,180,97382,2,0,P|135:188|93:186,1,56.5499999999999,2|0,2:0|2:0,2:0:0:0:
60,272,97727,2,0,P|37:257|11:223,1,56.5499999999999,2|0,2:0|2:0,2:0:0:0:
30,123,98072,1,2,2:0:0:0:
30,123,98761,6,0,B|86:135|86:135|140:95,2,113.1,2|0|2,2:0|2:0|2:0,2:0:0:0:
130,101,100830,5,2,2:0:0:0:
130,101,102209,6,0,P|205:87|232:215,1,226.2,2|0,2:0|2:0,2:0:0:0:
147,268,103244,1,2,2:0:0:0:
239,207,103416,1,2,2:0:0:0:
257,312,103589,2,0,L|267:378,1,56.5499999999999,2|2,2:0|2:0,2:0:0:0:
367,314,103934,2,0,P|380:285|380:253,1,56.5499999999999,2|0,2:0|2:0,2:0:0:0:
314,175,104278,2,0,B|281:139|281:139|295:63|295:63|338:45,1,169.65,2|2,2:0|2:0,2:0:0:0:
224,37,104968,2,0,B|200:153|200:153|147:196,1,169.65,0|0,2:0|2:0,2:0:0:0:
74,244,105658,1,0,2:0:0:0:
74,244,106003,6,0,L|3:257,1,56.5499999999999,2|0,2:0|2:0,2:0:0:0:
91,343,106347,2,0,L|162:356,1,56.5499999999999,2|0,2:0|2:0,2:0:0:0:
226,275,106692,1,2,2:0:0:0:
303,356,106865,1,2,2:0:0:0:
306,224,107037,2,0,P|269:186|198:184,1,113.1,2|0,2:0|2:0,2:0:0:0:
115,236,107554,1,2,2:0:0:0:
53,133,107727,2,0,B|48:90|48:90|32:68|32:68|27:9,2,113.1,2|0|0,2:0|2:0|2:0,2:0:0:0:
163,85,108761,6,0,L|173:13,1,56.5499999999999,2|0,2:0|2:0,2:0:0:0:
273,65,109106,2,0,B|303:113|303:113|281:186,1,113.1,2|0,2:0|2:0,2:0:0:0:
226,275,109796,2,0,P|194:288|150:281,1,56.5499999999999,2|0,2:0|2:0,2:0:0:0:
116,187,110141,2,0,P|84:174|40:181,1,56.5499999999999,0|2,2:0|2:0,2:0:0:0:
5,267,110485,5,2,2:0:0:0:
256,192,110572,12,0,113072,2:0:0:0:
256,192,113244,5,0,3:2:0:0:
206,42,113589,1,8,2:0:0:0:
256,192,113934,5,2,2:0:0:0:
331,124,114106,1,2,3:2:0:0:
411,214,114278,2,0,B|425:243|425:243|418:285,1,60.8999999999999,10|2,2:0|2:0,2:0:0:0:
316,344,114623,2,0,L|320:278,1,60.8999999999999,2|0,3:2|2:0,2:0:0:0:
201,306,114968,5,10,2:0:0:0:
201,306,115141,1,2,2:0:0:0:
146,197,115313,2,0,P|116:184|81:186,1,60.8999999999999,2|0,2:0|3:2,2:0:0:0:
193,91,115658,2,0,B|219:76|219:76|253:78,1,60.8999999999999,10|2,2:0|2:0,2:0:0:0:
330,162,116003,6,0,B|350:201|350:201|369:112,1,121.8,2|8,3:2|2:0,2:0:0:0:
388,22,116520,1,2,2:0:0:0:
388,22,116606,1,0,2:0:0:0:
388,22,116692,1,2,2:0:0:0:
241,77,116865,1,2,3:2:0:0:
351,203,117037,2,0,L|417:215,1,60.8999999999999,10|2,2:0|2:0,2:0:0:0:
335,318,117382,6,0,B|307:329|307:329|269:320,1,60.8999999999999,0|2,3:2|2:0,2:0:0:0:
200,214,117727,1,8,2:0:0:0:
127,344,117899,1,2,2:0:0:0:
127,344,117985,1,0,2:0:0:0:
127,344,118072,1,2,2:0:0:0:
80,180,118244,1,2,3:2:0:0:
18,343,118416,2,0,B|22:315|22:315|30:300|30:300|34:263,1,60.8999999999999,10|0,2:0|2:0,2:0:0:0:
131,105,118761,6,0,P|98:86|72:86,1,60.8999999999999,0|0,3:2|2:0,2:0:0:0:
200,214,119106,1,8,2:0:0:0:
227,225,119192,1,0,2:0:0:0:
257,224,119278,1,2,2:0:0:0:
284,211,119365,1,0,2:0:0:0:
303,187,119451,1,2,2:0:0:0:
308,63,119623,1,0,3:2:0:0:
400,143,119796,2,0,L|463:154,1,60.8999999999999,10|2,2:0|2:0,2:0:0:0:
406,263,120141,6,0,B|394:288|394:288|409:348,1,60.8999999999999,0|0,3:2|2:0,2:0:0:0:
303,187,120485,1,10,2:0:0:0:
218,335,120658,1,2,2:0:0:0:
213,303,120744,1,0,2:0:0:0:
209,274,120830,1,2,2:0:0:0:
204,244,120916,1,0,2:0:0:0:
200,214,121003,1,2,3:2:0:0:
75,85,121175,2,0,L|60:151,1,60.8999999999999,10|0,2:0|2:0,2:0:0:0:
31,284,121520,5,2,3:2:0:0:
200,214,121692,1,0,3:2:0:0:
75,85,121865,5,2,3:2:0:0:
219,198,122037,1,0,3:2:0:0:
50,304,122209,5,2,3:2:0:0:
192,67,122382,1,0,3:2:0:0:
305,317,122554,5,2,3:2:0:0:
182,48,122727,1,0,3:2:0:0:
139,295,122899,6,0,L|131:337,3,34.8,10|0|0|0,2:0|2:0|3:2|2:0,2:0:0:0:
86,149,123244,2,0,L|52:121,3,34.8,10|0|0|0,2:0|2:0|3:2|2:0,2:0:0:0:
232,179,123589,2,0,L|271:163,3,34.8,8|0|0|0,2:0|2:0|3:2|2:0,2:0:0:0:
371,51,123934,6,0,B|406:40|406:40|448:55,1,69.6,10|0,2:0|2:0,2:0:0:0:
452,186,124278,5,6,3:2:0:0:
435,171,124364,1,0,2:0:0:0:
415,163,124450,1,0,2:0:0:0:
394,163,124537,1,0,2:0:0:0:
373,171,124623,1,8,2:0:0:0:
357,185,124709,1,0,2:0:0:0:
347,204,124795,1,0,2:0:0:0:
344,225,124881,1,0,2:0:0:0:
348,250,124968,5,2,2:0:0:0:
390,229,125054,1,0,2:0:0:0:
435,240,125140,1,0,3:2:0:0:
462,279,125226,1,0,2:0:0:0:
457,325,125312,1,8,2:0:0:0:
423,358,125399,1,0,2:0:0:0:
376,365,125485,2,0,L|315:350,1,36.9750007052422,2|0,2:0|2:0,2:0:0:0:
245,310,125658,2,0,L|209:318,3,36.9750007052422,2|0|0|0,3:2|2:0|2:0|2:0,2:0:0:0:
108,345,126003,5,10,2:0:0:0:
108,345,126089,1,0,2:0:0:0:
108,345,126175,2,0,L|99:380,1,36.9750007052422,0|0,2:0|2:0,2:0:0:0:
19,278,126347,1,0,2:0:0:0:
19,278,126433,1,0,2:0:0:0:
19,278,126519,2,0,L|10:242,1,36.9750007052422,0|0,3:2|2:0,2:0:0:0:
48,135,126692,5,10,2:0:0:0:
65,103,126778,1,0,2:0:0:0:
96,83,126864,1,0,2:0:0:0:
133,81,126950,1,0,2:0:0:0:
169,91,127037,2,0,P|182:110|189:137,3,36.9750007052422,0|0|0|0,3:0|2:0|2:0|2:0,2:0:0:0:
250,228,127382,5,8,2:0:0:0:
277,252,127468,1,0,2:0:0:0:
313,260,127554,1,0,2:0:0:0:
348,250,127641,1,0,2:0:0:0:
374,225,127727,1,0,2:0:0:0:
384,189,127813,1,0,2:0:0:0:
376,154,127899,1,0,3:0:0:0:
351,127,127985,1,0,2:0:0:0:
314,119,128072,6,0,L|246:136,3,36.9750007052422,10|0|0|0,2:0|2:0|2:0|2:0,2:0:0:0:
374,225,128416,2,0,L|442:242,3,36.9750007052422,2|0|0|0,3:2|2:0|2:0|2:0,2:0:0:0:
482,323,128761,5,10,2:0:0:0:
434,328,128847,1,0,2:0:0:0:
386,334,128933,1,0,2:0:0:0:
339,339,129019,1,0,2:0:0:0:
291,345,129105,1,0,2:0:0:0:
244,351,129192,1,0,2:0:0:0:
196,356,129278,1,0,3:2:0:0:
149,362,129364,1,0,2:0:0:0:
101,366,129451,2,0,L|44:373,3,36.9750007052422,8|0|0|0,2:0|2:0|2:0|2:0,2:0:0:0:
91,273,129796,5,2,3:2:0:0:
109,262,129882,1,0,2:0:0:0:
122,244,129968,1,0,2:0:0:0:
127,223,130054,1,0,2:0:0:0:
123,202,130140,1,8,2:0:0:0:
111,184,130227,1,0,2:0:0:0:
93,172,130313,1,0,2:0:0:0:
72,169,130399,1,0,2:0:0:0:
49,172,130485,5,2,2:0:0:0:
16,139,130571,1,0,2:0:0:0:
9,92,130657,1,0,3:2:0:0:
32,51,130743,1,0,2:0:0:0:
75,32,130829,1,8,2:0:0:0:
120,42,130916,1,0,2:0:0:0:
154,74,131003,2,0,L|144:128,1,36.9750007052422,2|0,2:0|2:0,2:0:0:0:
71,168,131175,2,0,L|81:222,3,36.9750007052422,2|0|0|0,3:2|2:0|2:0|2:0,2:0:0:0:
111,301,131520,5,10,2:0:0:0:
152,323,131606,1,0,2:0:0:0:
199,320,131692,1,0,2:0:0:0:
238,292,131778,1,0,2:0:0:0:
262,250,131865,1,0,2:0:0:0:
301,222,131951,1,0,2:0:0:0:
348,219,132037,1,0,3:2:0:0:
389,241,132123,1,0,2:0:0:0:
416,278,132209,5,10,2:0:0:0:
422,241,132295,1,0,2:0:0:0:
428,205,132381,1,0,2:0:0:0:
435,168,132467,1,0,2:0:0:0:
441,131,132554,2,0,L|450:70,3,36.9750007052422,0|0|0|0,3:2|2:0|2:0|2:0,2:0:0:0:
351,37,132899,5,10,2:0:0:0:
351,37,132985,1,0,2:0:0:0:
351,37,133072,2,0,L|314:31,1,36.9750007052422,0|0,2:0|2:0,2:0:0:0:
241,92,133244,1,0,2:0:0:0:
241,92,133330,1,0,2:0:0:0:
241,92,133417,2,0,L|204:86,1,36.9750007052422,0|0,3:2|2:0,2:0:0:0:
102,128,133589,5,10,2:0:0:0:
81,158,133675,1,0,2:0:0:0:
76,194,133761,1,0,2:0:0:0:
88,229,133847,1,0,2:0:0:0:
112,257,133934,2,0,P|128:265|156:264,3,36.9750007052422,2|0|0|0,3:2|2:0|2:0|2:0,2:0:0:0:
258,221,134278,5,10,2:0:0:0:
287,199,134364,1,0,2:0:0:0:
323,193,134450,1,0,2:0:0:0:
358,204,134536,1,0,2:0:0:0:
382,231,134623,2,0,P|387:248|386:269,1,36.9750007052422,2|0,2:0|2:0,2:0:0:0:
378,357,134796,2,0,P|365:369|347:379,1,36.9750007052422,0|0,3:2|2:0,2:0:0:0:
254,380,134968,2,0,P|236:375|219:364,3,36.9750007052422,10|0|0|0,2:0|2:0|2:0|2:0,2:0:0:0:
252,264,135313,5,2,3:2:0:0:
259,243,135399,1,0,2:0:0:0:
258,221,135485,1,0,2:0:0:0:
250,201,135571,1,0,2:0:0:0:
236,185,135657,1,8,2:0:0:0:
216,176,135744,1,0,2:0:0:0:
195,173,135830,1,0,2:0:0:0:
174,179,135916,1,0,2:0:0:0:
157,194,136003,5,2,2:0:0:0:
102,206,136089,1,0,2:0:0:0:
51,184,136175,1,0,3:2:0:0:
23,136,136261,1,0,2:0:0:0:
28,80,136347,1,8,2:0:0:0:
65,39,136434,1,0,2:0:0:0:
119,26,136520,1,0,2:0:0:0:
170,48,136606,1,0,2:0:0:0:
202,93,136692,5,2,3:2:0:0:
232,57,136778,1,0,2:0:0:0:
278,48,136864,1,0,2:0:0:0:
320,68,136950,1,0,2:0:0:0:
341,111,137036,5,10,2:0:0:0:
370,149,137123,1,0,2:0:0:0:
411,171,137209,1,0,2:0:0:0:
458,163,137295,1,0,2:0:0:0:
489,127,137381,1,0,2:0:0:0:
492,81,137467,1,0,2:0:0:0:
465,42,137554,1,0,3:2:0:0:
420,28,137640,1,0,2:0:0:0:
379,56,137727,5,10,2:0:0:0:
397,83,137813,1,0,2:0:0:0:
391,119,137899,1,0,2:0:0:0:
362,140,137985,1,0,2:0:0:0:
324,144,138072,2,0,L|286:132,3,36.9750007052422,0|0|0|0,3:2|2:0|2:0|2:0,2:0:0:0:
200,76,138416,5,10,2:0:0:0:
200,76,138503,1,0,2:0:0:0:
200,76,138589,2,0,L|195:39,1,36.9750007052422,0|0,2:0|2:0,2:0:0:0:
111,115,138761,1,0,2:0:0:0:
111,115,138848,1,0,2:0:0:0:
111,115,138934,2,0,L|106:151,1,36.9750007052422,0|0,3:2|2:0,2:0:0:0:
37,234,139106,6,0,L|1:245,3,36.9750007052422,10|0|0|0,2:0|2:0|2:0|2:0,0:0:0:0:
131,281,139451,2,0,L|166:292,3,36.9750007052422,2|0|0|0,3:2|2:0|2:0|2:0,0:0:0:0:
263,243,139796,6,0,P|282:232|309:228,1,36.9750007052422,10|0,2:0|2:0,0:0:0:0:
288,216,139968,2,0,P|306:221|322:231,1,36.9750007052422,0|0,2:0|2:0,2:0:0:0:
374,315,140141,2,0,P|393:326|420:330,1,36.9750007052422,0|0,2:0|2:0,2:0:0:0:
400,341,140313,2,0,P|417:336|433:326,1,36.9750007052422,0|0,3:2|2:0,2:0:0:0:
476,233,140485,2,0,P|481:214|480:196,3,36.9750007052422,8|0|0|0,2:0|2:0|2:0|2:0,2:0:0:0:
473,83,140830,5,2,3:2:0:0:
452,51,140916,1,0,2:0:0:0:
421,31,141002,1,0,2:0:0:0:
385,26,141088,1,0,2:0:0:0:
350,35,141174,1,8,2:0:0:0:
322,59,141261,1,0,2:0:0:0:
309,93,141347,6,0,B|310:112|310:112|314:117|314:117|318:138,1,36.9750007052422,2|0,2:0|2:0,2:0:0:0:
377,195,141520,2,0,B|376:214|376:214|372:219|372:219|368:240,1,36.9750007052422,2|0,2:0|2:0,2:0:0:0:
305,297,141692,2,0,B|306:316|306:316|310:321|310:321|314:342,1,36.9750007052422,2|0,3:2|2:0,2:0:0:0:
218,365,141865,5,10,2:0:0:0:
173,380,141951,1,0,2:0:0:0:
126,373,142037,1,0,2:0:0:0:
88,344,142123,1,0,2:0:0:0:
68,301,142209,1,0,3:2:0:0:
71,254,142296,1,0,2:0:0:0:
95,214,142382,1,0,2:0:0:0:
136,190,142468,1,0,2:0:0:0:
183,190,142554,6,0,L|243:203,3,47.8500014602662,10|0|0|0,2:0|2:0|2:0|2:0,2:0:0:0:
232,105,142899,2,0,L|242:58,1,47.8500014602662,2|0,2:0|2:0,2:0:0:0:
325,163,143072,2,0,L|335:209,1,47.8500014602662,2|0,3:2|2:0,2:0:0:0:
440,160,143244,5,10,2:0:0:0:
475,117,143330,1,0,2:0:0:0:
475,62,143416,1,2,2:0:0:0:
439,19,143502,1,0,2:0:0:0:
385,10,143588,1,0,3:2:0:0:
337,38,143675,1,0,2:0:0:0:
302,82,143761,1,0,2:0:0:0:
256,113,143847,1,0,2:0:0:0:
205,104,143933,1,8,2:0:0:0:
172,72,144019,1,0,2:0:0:0:
146,40,144106,1,0,2:0:0:0:
115,25,144192,1,0,2:0:0:0:
86,26,144278,1,0,2:0:0:0:
65,35,144364,1,0,2:0:0:0:
53,47,144450,1,0,3:2:0:0:
48,57,144537,1,0,2:0:0:0:
44,67,144623,6,0,L|37:106,3,21.75,8|0|0|0,2:0|2:0|2:0|2:0,2:0:0:0:
70,199,144968,2,0,B|106:210|106:210|135:189,1,73.9500014104843,2|0,3:2|2:0,2:0:0:0:
234,107,145313,5,10,2:0:0:0:
234,107,145399,1,0,2:0:0:0:
234,107,145485,2,0,L|263:114,2,21.75,0|0|2,2:0|2:0|2:0,2:0:0:0:
328,34,145830,5,8,2:0:0:0:
328,34,145916,1,0,2:0:0:0:
328,34,146003,2,0,L|357:27,2,21.75,2|0|0,2:0|2:0|2:0,2:0:0:0:
458,108,146347,5,6,3:2:0:0:
498,157,146433,1,0,2:0:0:0:
506,221,146519,1,0,2:0:0:0:
478,279,146605,1,0,2:0:0:0:
423,313,146691,1,8,2:0:0:0:
358,311,146778,1,0,2:0:0:0:
305,276,146864,1,0,2:0:0:0:
279,217,146950,1,0,2:0:0:0:
293,156,147037,5,2,2:0:0:0:
327,168,147123,1,0,2:0:0:0:
363,162,147209,1,0,3:2:0:0:
390,137,147295,1,0,2:0:0:0:
400,102,147381,1,8,2:0:0:0:
391,67,147468,1,0,2:0:0:0:
364,42,147554,1,0,2:0:0:0:
328,34,147640,1,0,2:0:0:0:
292,44,147727,2,0,L|279:98,3,36.9750007052422,2|0|0|0,3:2|2:0|2:0|2:0,2:0:0:0:
218,144,148072,5,10,2:0:0:0:
190,105,148158,1,0,2:0:0:0:
147,85,148244,1,0,2:0:0:0:
100,90,148330,1,0,2:0:0:0:
62,118,148416,1,0,2:0:0:0:
44,162,148503,1,0,2:0:0:0:
50,209,148589,1,0,3:2:0:0:
79,246,148675,1,0,2:0:0:0:
124,259,148761,5,10,2:0:0:0:
152,236,148847,1,0,2:0:0:0:
189,231,148933,1,0,2:0:0:0:
223,244,149019,1,0,2:0:0:0:
245,273,149105,1,0,3:2:0:0:
251,309,149192,1,0,2:0:0:0:
238,343,149278,1,0,2:0:0:0:
210,366,149364,1,0,2:0:0:0:
173,374,149451,2,0,L|123:365,3,36.9750007052422,10|0|0|0,2:0|2:0|2:0|2:0,2:0:0:0:
24,308,149796,5,2,2:0:0:0:
2,278,149882,1,0,2:0:0:0:
0,242,149968,1,0,3:2:0:0:
4,206,150054,1,0,2:0:0:0:
27,178,150140,1,8,2:0:0:0:
60,161,150227,1,0,2:0:0:0:
96,160,150313,1,0,2:0:0:0:
130,174,150399,1,0,2:0:0:0:
149,206,150485,6,0,L|162:260,3,36.9750007052422,2|0|0|0,3:2|2:0|2:0|2:0,2:0:0:0:
235,169,150830,2,0,L|243:133,3,36.9750007052422,10|0|0|0,2:0|2:0|2:0|2:0,2:0:0:0:
310,223,151175,2,0,L|318:258,1,36.9750007052422,2|0,2:0|2:0,2:0:0:0:
387,176,151347,2,0,L|395:140,1,36.9750007052422,0|0,3:2|2:0,2:0:0:0:
457,237,151520,2,0,L|492:245,3,36.9750007052422,10|0|0|0,2:0|2:0|2:0|2:0,2:0:0:0:
447,338,151865,5,2,3:2:0:0:
425,341,151951,1,0,2:0:0:0:
404,344,152037,1,0,2:0:0:0:
382,348,152123,1,0,2:0:0:0:
361,351,152209,1,8,2:0:0:0:
339,355,152296,1,0,2:0:0:0:
318,358,152382,1,0,2:0:0:0:
296,361,152468,1,0,2:0:0:0:
276,368,152554,6,0,L|224:380,3,47.8500014602662,2|0|0|0,2:0|2:0|3:2|2:0,0:0:0:0:
126,314,152899,2,0,L|79:303,3,47.8500014602662,10|0|0|0,2:0|2:0|2:0|2:0,0:0:0:0:
149,206,153244,5,0,3:2:0:0:
172,177,153330,1,0,2:0:0:0:
182,142,153416,1,0,2:0:0:0:
176,106,153502,1,0,2:0:0:0:
156,75,153588,1,10,2:0:0:0:
125,55,153675,1,0,2:0:0:0:
89,50,153761,1,0,2:0:0:0:
53,60,153847,1,0,2:0:0:0:
28,88,153934,6,0,L|10:155,3,36.9750007052422,2|0|0|0,2:0|2:0|3:2|2:0,2:0:0:0:
90,194,154278,2,0,L|125:203,1,36.9750007052422,10|0,2:0|2:0,2:0:0:0:
35,270,154451,2,0,L|0:279,3,36.9750007052422,2|0|0|0,2:0|2:0|3:2|2:0,2:0:0:0:
103,352,154796,2,0,L|138:361,3,36.9750007052422,2|0|8|0,2:0|2:0|2:0|2:0,2:0:0:0:
213,290,155141,5,2,2:0:0:0:
196,244,155227,1,0,2:0:0:0:
205,196,155313,1,0,2:0:0:0:
234,159,155399,1,0,2:0:0:0:
277,140,155485,1,0,3:2:0:0:
324,143,155572,1,0,2:0:0:0:
365,166,155658,1,8,2:0:0:0:
389,208,155744,1,0,2:0:0:0:
389,254,155830,6,0,L|378:307,3,36.9750007052422,2|0|0|0,2:0|2:0|3:2|2:0,2:0:0:0:
280,259,156175,2,0,L|243:251,1,36.9750007052422,2|0,2:0|2:0,2:0:0:0:
328,173,156347,2,0,L|364:165,3,36.9750007052422,10|0|0|0,2:0|2:0|2:0|2:0,2:0:0:0:
269,100,156692,2,0,L|232:92,3,36.9750007052422,2|0|0|0,2:0|2:0|3:2|2:0,2:0:0:0:
332,35,157037,2,0,L|368:27,3,36.9750007052422,10|0|0|0,2:0|2:0|2:0|2:0,2:0:0:0:
468,102,157382,5,6,3:2:0:0:
495,158,157468,1,0,2:0:0:0:
490,221,157554,1,0,2:0:0:0:
454,275,157640,1,0,2:0:0:0:
397,302,157726,1,8,2:0:0:0:
333,297,157813,1,0,2:0:0:0:
280,259,157899,1,0,2:0:0:0:
254,200,157985,1,0,2:0:0:0:
271,139,158072,5,2,2:0:0:0:
263,103,158158,1,0,2:0:0:0:
243,71,158244,1,0,3:2:0:0:
214,48,158330,1,0,2:0:0:0:
179,37,158416,1,8,2:0:0:0:
143,37,158503,1,0,2:0:0:0:
108,50,158589,1,0,2:0:0:0:
80,74,158675,1,0,2:0:0:0:
63,107,158761,2,0,L|53:155,3,36.9750007052422,2|0|0|0,3:2|2:0|2:0|2:0,2:0:0:0:
99,223,159106,5,10,2:0:0:0:
133,190,159192,1,0,2:0:0:0:
179,178,159278,1,0,2:0:0:0:
225,191,159364,1,0,2:0:0:0:
259,223,159450,1,0,2:0:0:0:
272,269,159537,1,0,2:0:0:0:
262,315,159623,1,0,3:2:0:0:
231,350,159709,1,0,2:0:0:0:
185,367,159796,5,10,2:0:0:0:
162,336,159882,1,0,2:0:0:0:
156,300,159968,1,0,2:0:0:0:
165,265,160054,1,0,2:0:0:0:
190,236,160140,1,0,3:2:0:0:
223,222,160227,1,0,2:0:0:0:
259,223,160313,1,0,2:0:0:0:
291,240,160399,1,0,2:0:0:0:
312,269,160485,2,0,L|322:317,3,36.9750007052422,10|0|0|0,2:0|2:0|2:0|2:0,2:0:0:0:
416,265,160830,5,2,2:0:0:0:
450,253,160916,1,0,2:0:0:0:
477,229,161002,1,0,3:2:0:0:
491,194,161089,1,0,2:0:0:0:
489,158,161175,1,8,2:0:0:0:
473,126,161261,1,0,2:0:0:0:
443,103,161347,1,0,2:0:0:0:
407,96,161433,1,0,2:0:0:0:
369,97,161520,6,0,P|351:101|327:119,3,36.9750007052422,2|0|0|0,3:2|2:0|2:0|2:0,2:0:0:0:
245,149,161865,2,0,P|227:145|211:135,3,36.9750007052422,10|0|0|0,2:0|2:0|2:0|2:0,2:0:0:0:
165,52,162209,2,0,P|148:44|125:41,1,36.9750007052422,2|0,2:0|2:0,2:0:0:0:
38,73,162382,2,0,P|22:83|8:102,1,36.9750007052422,0|0,3:2|2:0,2:0:0:0:
14,192,162554,2,0,P|15:210|24:232,3,36.9750007052422,10|0|0|0,2:0|2:0|2:0|2:0,2:0:0:0:
99,285,162899,5,2,3:2:0:0:
106,264,162985,1,0,2:0:0:0:
119,247,163071,1,0,2:0:0:0:
137,235,163157,1,0,2:0:0:0:
158,228,163243,1,8,2:0:0:0:
179,229,163330,1,0,2:0:0:0:
200,236,163416,1,0,2:0:0:0:
217,249,163502,1,0,2:0:0:0:
228,267,163589,6,0,L|241:332,3,47.8500014602662,2|0|0|0,2:0|2:0|3:2|2:0,0:0:0:0:
330,250,163934,2,0,L|339:203,3,47.8500014602662,10|0|0|0,2:0|2:0|2:0|2:0,0:0:0:0:
243,161,164278,5,0,3:2:0:0:
215,136,164364,1,0,2:0:0:0:
203,102,164450,1,0,2:0:0:0:
208,66,164536,1,0,2:0:0:0:
230,37,164622,1,8,2:0:0:0:
264,22,164709,1,0,2:0:0:0:
300,25,164795,1,0,2:0:0:0:
331,45,164881,1,0,2:0:0:0:
348,78,164968,6,0,L|353:115,3,21.75,2|0|0|0,2:0|2:0|3:2|2:0,2:0:0:0:
264,155,165313,2,0,L|229:164,1,21.75,10|0,2:0|2:0,2:0:0:0:
330,250,165485,6,0,L|380:264,1,52.1999984069825,2|0,2:0|2:0,2:0:0:0:
237,313,165830,2,0,L|287:327,1,52.1999984069825,2|0,2:0|2:0,2:0:0:0:
256,192,166175,12,0,167727,2:0:0:0:
256,192,168416,5,2,2:0:0:0:
256,192,176692,12,0,179278,0:0:0:0:
322,282,179451,6,0,L|421:312,2,104.4,0|8|0,3:2|2:0|2:0,2:0:0:0:
229,340,180313,1,0,3:2:0:0:
151,264,180485,2,0,P|138:235|138:202,1,52.2000000000002,8|2,2:0|2:0,2:0:0:0:
46,175,180830,6,0,P|74:133|122:114,1,104.4,2|10,3:2|2:0,2:0:0:0:
253,150,181347,2,0,L|265:203,1,52.2000000000002,2|0,2:0|2:0,2:0:0:0:
337,91,181692,1,2,3:2:0:0:
394,181,181865,2,0,P|423:193|462:188,1,52.2000000000002,10|2,2:0|2:0,2:0:0:0:
405,323,182209,6,0,B|373:304|361:280|361:280|338:290|300:291,1,113.1,2|8,3:2|2:0,2:0:0:0:
220,348,182727,1,0,2:0:0:0:
210,321,182813,1,0,2:0:0:0:
191,301,182899,1,0,2:0:0:0:
164,292,182985,1,0,2:0:0:0:
137,295,183072,1,0,3:2:0:0:
225,195,183244,2,0,P|232:167|224:131,1,56.5499999999999,8|2,2:0|2:0,2:0:0:0:
135,72,183589,6,0,L|76:54,1,56.5499999999999,2|2,3:2|2:0,2:0:0:0:
19,151,183934,1,8,2:0:0:0:
58,274,184106,2,0,B|85:222|85:222|146:216,1,113.1,2|2,2:0|3:2,2:0:0:0:
224,294,184623,1,8,2:0:0:0:
355,232,184796,1,2,2:0:0:0:
355,232,184882,1,0,2:0:0:0:
355,232,184968,6,0,L|368:155,1,60.8999999999999,2|0,3:2|2:0,2:0:0:0:
387,59,185313,1,8,2:0:0:0:
472,159,185485,1,2,2:0:0:0:
491,181,185572,1,2,2:0:0:0:
500,210,185658,1,2,2:0:0:0:
498,240,185744,1,0,2:0:0:0:
483,267,185830,1,0,3:2:0:0:
365,357,186003,5,8,2:0:0:0:
276,185,186175,1,2,2:0:0:0:
276,185,186261,1,0,2:0:0:0:
276,185,186347,2,0,P|244:173|206:170,1,60.8999999999999,0|2,3:2|2:0,2:0:0:0:
121,286,186692,5,8,2:0:0:0:
65,163,186865,1,2,2:0:0:0:
59,133,186951,1,0,2:0:0:0:
53,103,187037,1,2,2:0:0:0:
47,73,187123,1,0,2:0:0:0:
41,43,187209,1,2,3:2:0:0:
253,82,187382,2,0,L|323:55,1,60.8999999999999,8|2,2:0|2:0,2:0:0:0:
427,141,187727,5,0,3:2:0:0:
405,283,187899,1,2,3:2:0:0:
260,264,188072,1,0,3:2:0:0:
280,119,188244,1,2,3:2:0:0:
417,299,188416,5,2,3:2:0:0:
441,126,188589,1,0,3:2:0:0:
244,277,188761,5,2,3:2:0:0:
268,101,188934,1,2,3:2:0:0:
431,321,189106,5,8,2:0:0:0:
460,112,189278,1,2,3:2:0:0:
223,293,189451,5,8,2:0:0:0:
253,82,189623,1,2,3:2:0:0:
449,339,189796,5,8,2:0:0:0:
480,80,189968,1,0,3:2:0:0:
263,146,190141,6,0,B|245:113|245:113|254:76,1,69.6,8|0,2:0|2:0,2:0:0:0:
389,292,190485,5,6,3:2:0:0:
396,267,190571,1,0,2:0:0:0:
393,241,190657,1,0,2:0:0:0:
379,219,190743,1,0,2:0:0:0:
358,205,190829,1,8,2:0:0:0:
332,202,190916,1,0,2:0:0:0:
307,210,191002,1,0,2:0:0:0:
288,227,191088,1,0,2:0:0:0:
273,248,191175,5,2,2:0:0:0:
239,209,191261,1,0,2:0:0:0:
188,203,191347,1,0,3:2:0:0:
147,233,191433,1,0,2:0:0:0:
137,283,191519,1,8,2:0:0:0:
164,327,191606,1,0,2:0:0:0:
210,349,191692,2,0,L|272:338,1,41.3249988965035,2|0,2:0|2:0,2:0:0:0:
339,278,191865,2,0,L|379:285,3,41.3249988965035,2|0|0|0,3:2|2:0|2:0|2:0,2:0:0:0:
469,218,192209,5,10,2:0:0:0:
469,218,192296,1,0,2:0:0:0:
469,218,192382,2,0,L|477:172,1,41.3249988965035,0|0,2:0|2:0,2:0:0:0:
385,119,192554,1,0,2:0:0:0:
385,119,192641,1,0,2:0:0:0:
385,119,192727,2,0,L|377:73,1,41.3249988965035,0|0,3:2|2:0,2:0:0:0:
269,63,192899,5,10,2:0:0:0:
227,66,192985,1,0,2:0:0:0:
186,69,193071,1,0,2:0:0:0:
145,72,193157,1,0,2:0:0:0:
103,75,193244,2,0,L|60:79,3,41.3249988965035,0|0|0|0,3:0|2:0|2:0|2:0,2:0:0:0:
31,177,193589,5,10,2:0:0:0:
12,213,193675,1,0,2:0:0:0:
13,254,193761,1,0,2:0:0:0:
32,291,193847,1,0,2:0:0:0:
65,315,193933,1,0,2:0:0:0:
105,321,194020,1,0,2:0:0:0:
144,309,194106,1,0,3:0:0:0:
174,280,194192,1,0,2:0:0:0:
182,239,194278,6,0,L|176:187,3,41.3249988965035,10|0|0|0,2:0|2:0|2:0|2:0,2:0:0:0:
266,131,194623,2,0,L|272:79,3,41.3249988965035,2|0|0|0,3:2|2:0|2:0|2:0,2:0:0:0:
377,111,194968,5,10,2:0:0:0:
419,139,195054,1,0,2:0:0:0:
427,189,195140,1,0,2:0:0:0:
395,229,195226,1,0,2:0:0:0:
346,250,195313,1,0,2:0:0:0:
315,291,195399,1,0,2:0:0:0:
319,341,195485,1,0,3:2:0:0:
356,377,195571,1,0,2:0:0:0:
409,374,195658,2,0,P|432:367|447:346,3,41.3249988965035,8|0|0|0,2:0|2:0|2:0|2:0,2:0:0:0:
395,229,196003,5,2,3:2:0:0:
385,202,196089,1,0,2:0:0:0:
370,181,196175,1,0,2:0:0:0:
350,164,196261,1,0,2:0:0:0:
327,153,196347,1,8,2:0:0:0:
302,149,196434,1,0,2:0:0:0:
276,154,196520,1,0,2:0:0:0:
251,163,196606,1,0,2:0:0:0:
233,176,196692,5,2,2:0:0:0:
189,148,196778,1,0,2:0:0:0:
137,148,196864,1,0,3:2:0:0:
94,175,196951,1,0,2:0:0:0:
73,222,197037,1,8,2:0:0:0:
78,274,197123,1,0,2:0:0:0:
107,316,197209,2,0,P|131:325|158:329,1,41.3249988965035,2|0,2:0|2:0,2:0:0:0:
236,280,197382,2,0,P|254:273|276:273,3,41.3249988965035,2|0|0|0,3:2|2:0|2:0|2:0,2:0:0:0:
387,276,197727,5,10,2:0:0:0:
429,246,197813,1,0,2:0:0:0:
455,201,197899,1,0,2:0:0:0:
456,150,197985,1,0,2:0:0:0:
431,104,198071,1,0,2:0:0:0:
388,75,198158,1,0,2:0:0:0:
338,69,198244,1,0,3:2:0:0:
290,91,198330,1,0,2:0:0:0:
254,128,198416,5,10,2:0:0:0:
218,146,198502,1,0,2:0:0:0:
177,140,198588,1,0,2:0:0:0:
148,112,198674,1,0,2:0:0:0:
131,73,198761,2,0,L|126:26,3,41.3249988965035,0|0|0|0,3:2|2:0|2:0|2:0,2:0:0:0:
44,133,199106,5,10,2:0:0:0:
44,133,199192,1,0,2:0:0:0:
44,133,199278,2,0,L|2:137,1,41.3249988965035,0|0,2:0|2:0,2:0:0:0:
96,217,199451,1,0,2:0:0:0:
96,217,199537,1,0,2:0:0:0:
96,217,199623,2,0,L|137:221,1,41.3249988965035,0|0,3:2|2:0,2:0:0:0:
233,168,199796,5,10,2:0:0:0:
274,163,199882,1,0,2:0:0:0:
315,158,199968,1,0,2:0:0:0:
356,154,200054,1,0,2:0:0:0:
397,149,200141,2,0,L|438:144,3,41.3249988965035,2|0|0|0,3:2|2:0|2:0|2:0,2:0:0:0:
502,241,200485,5,10,2:0:0:0:
510,280,200571,1,0,2:0:0:0:
494,318,200657,1,0,2:0:0:0:
461,341,200743,1,0,2:0:0:0:
420,351,200830,2,0,P|397:349|372:326,1,41.3249988965035,2|0,2:0|2:0,2:0:0:0:
301,366,201003,2,0,P|291:345|298:312,1,41.3249988965035,0|0,3:2|2:0,2:0:0:0:
215,280,201175,2,0,P|227:261|259:251,3,41.3249988965035,10|0|0|0,2:0|2:0|2:0|2:0,2:0:0:0:
332,200,201520,5,2,3:2:0:0:
348,179,201606,1,0,2:0:0:0:
356,154,201692,1,0,2:0:0:0:
355,128,201778,1,0,2:0:0:0:
344,104,201864,1,8,2:0:0:0:
324,88,201951,1,0,2:0:0:0:
301,78,202037,1,0,2:0:0:0:
275,80,202123,1,0,2:0:0:0:
251,88,202209,5,2,2:0:0:0:
214,40,202295,1,0,2:0:0:0:
158,18,202381,1,0,3:2:0:0:
98,29,202467,1,0,2:0:0:0:
54,69,202553,1,8,2:0:0:0:
36,127,202640,1,0,2:0:0:0:
52,185,202726,1,0,2:0:0:0:
95,227,202812,1,0,2:0:0:0:
153,228,202899,5,2,3:2:0:0:
183,187,202985,1,0,2:0:0:0:
233,176,203071,1,0,2:0:0:0:
278,201,203157,1,0,2:0:0:0:
294,249,203243,5,8,2:0:0:0:
324,293,203330,1,0,2:0:0:0:
368,320,203416,1,0,2:0:0:0:
419,317,203502,1,0,2:0:0:0:
460,286,203588,1,0,2:0:0:0:
476,237,203674,1,0,2:0:0:0:
462,188,203761,1,0,3:2:0:0:
422,155,203847,1,0,2:0:0:0:
375,165,203934,5,10,2:0:0:0:
338,146,204020,1,0,2:0:0:0:
320,110,204106,1,0,2:0:0:0:
327,70,204192,1,0,2:0:0:0:
359,43,204278,2,0,P|381:36|417:42,3,41.3249988965035,0|0|0|0,3:2|2:0|2:0|2:0,2:0:0:0:
484,114,204623,5,10,2:0:0:0:
484,114,204709,1,0,2:0:0:0:
484,114,204796,2,0,P|493:141|492:173,1,41.3249988965035,0|0,2:0|2:0,2:0:0:0:
409,206,204968,1,0,2:0:0:0:
409,206,205054,1,0,2:0:0:0:
409,206,205141,2,0,P|400:233|401:265,1,41.3249988965035,0|0,3:2|2:0,2:0:0:0:
458,342,205313,6,0,L|510:354,3,41.3249988965035,10|0|0|0,2:0|2:0|2:0|2:0,0:0:0:0:
348,368,205658,2,0,L|296:380,3,41.3249988965035,2|0|0|0,3:2|2:0|2:0|2:0,0:0:0:0:
203,307,206003,6,0,P|198:283|209:281,1,41.3249988965035,10|0,2:0|2:0,0:0:0:0:
183,289,206175,2,0,P|201:272|208:281,1,41.3249988965035,0|0,2:0|2:0,2:0:0:0:
292,221,206347,2,0,P|297:197|286:195,1,41.3249988965035,0|0,2:0|2:0,2:0:0:0:
312,203,206519,2,0,P|293:186|286:195,1,41.3249988965035,0|0,3:2|2:0,2:0:0:0:
187,147,206692,2,0,L|146:137,3,41.3249988965035,8|0|0|0,2:0|2:0|2:0|2:0,2:0:0:0:
48,188,207037,5,0,3:2:0:0:
20,217,207123,1,0,2:0:0:0:
8,257,207209,1,0,2:0:0:0:
16,297,207295,1,0,2:0:0:0:
41,329,207381,1,8,2:0:0:0:
77,347,207468,1,0,2:0:0:0:
118,353,207554,6,0,P|141:349|162:335,1,41.3249988965035,2|0,2:0|2:0,2:0:0:0:
249,353,207727,2,0,P|257:331|255:305,1,41.3249988965035,2|0,2:0|2:0,2:0:0:0:
324,250,207899,2,0,P|309:232|286:220,1,41.3249988965035,2|0,3:2|2:0,2:0:0:0:
184,205,208072,5,10,2:0:0:0:
140,177,208158,1,0,2:0:0:0:
116,131,208244,1,0,2:0:0:0:
117,80,208330,1,0,2:0:0:0:
145,36,208416,1,0,3:2:0:0:
190,11,208503,1,0,2:0:0:0:
242,13,208589,1,0,2:0:0:0:
286,40,208675,1,0,2:0:0:0:
304,88,208761,6,0,L|290:156,3,52.1999984069825,10|0|0|0,2:0|2:0|2:0|2:0,2:0:0:0:
231,215,209106,2,0,B|205:218|205:218|183:204,1,52.1999984069825,2|0,2:0|2:0,2:0:0:0:
164,90,209278,2,0,B|142:76|142:76|116:79,1,52.1999984069825,2|0,3:2|2:0,2:0:0:0:
35,166,209451,5,10,2:0:0:0:
1,215,209537,1,0,2:0:0:0:
0,275,209623,1,2,2:0:0:0:
32,326,209709,1,0,2:0:0:0:
87,351,209795,1,0,3:2:0:0:
146,343,209882,1,0,2:0:0:0:
191,303,209968,1,0,2:0:0:0:
232,259,210054,1,0,2:0:0:0:
274,224,210140,1,8,2:0:0:0:
322,220,210226,1,0,2:0:0:0:
360,237,210312,1,0,2:0:0:0:
380,267,210398,1,0,2:0:0:0:
384,297,210485,1,0,2:0:0:0:
378,314,210571,1,0,2:0:0:0:
371,324,210657,1,0,3:2:0:0:
366,328,210743,1,0,2:0:0:0:
361,335,210830,6,0,L|313:344,3,26.0999992034912,8|0|0|0,2:0|2:0|2:0|2:0,2:0:0:0:
232,259,211175,2,0,B|201:252|201:252|188:246|188:246|174:247|174:247|147:241,1,82.649997793007,2|0,3:2|2:0,2:0:0:0:
44,356,211520,5,10,2:0:0:0:
44,356,211606,1,0,2:0:0:0:
44,356,211692,2,0,L|9:366,2,26.0999992034912,0|0|2,2:0|2:0|2:0,2:0:0:0:
57,218,212037,5,8,2:0:0:0:
57,218,212123,1,0,2:0:0:0:
57,218,212209,2,0,L|67:183,2,26.0999992034912,2|0|0,2:0|2:0|2:0,2:0:0:0:
125,94,212554,5,6,3:2:0:0:
172,44,212640,1,0,2:0:0:0:
238,24,212726,1,0,2:0:0:0:
305,41,212812,1,0,2:0:0:0:
354,89,212898,1,8,2:0:0:0:
373,155,212985,1,0,2:0:0:0:
356,221,213071,1,0,2:0:0:0:
308,271,213157,1,0,2:0:0:0:
238,281,213244,5,2,2:0:0:0:
248,239,213330,1,0,2:0:0:0:
277,213,213416,1,0,3:2:0:0:
317,204,213502,1,0,2:0:0:0:
356,221,213588,1,8,2:0:0:0:
379,253,213675,1,0,2:0:0:0:
383,293,213761,1,0,2:0:0:0:
362,329,213847,1,0,2:0:0:0:
328,353,213934,2,0,L|274:359,3,41.3249988965035,2|0|0|0,3:2|2:0|2:0|2:0,2:0:0:0:
227,258,214278,5,10,2:0:0:0:
203,212,214364,1,0,2:0:0:0:
159,185,214450,1,0,2:0:0:0:
107,184,214536,1,0,2:0:0:0:
63,209,214622,1,0,2:0:0:0:
37,254,214709,1,0,2:0:0:0:
39,306,214795,1,0,3:2:0:0:
66,349,214881,1,0,2:0:0:0:
115,360,214968,5,10,2:0:0:0:
135,324,215054,1,0,2:0:0:0:
136,283,215140,1,0,2:0:0:0:
118,247,215226,1,0,2:0:0:0:
85,221,215313,1,0,3:2:0:0:
67,185,215399,1,0,2:0:0:0:
68,144,215485,1,0,2:0:0:0:
89,108,215571,1,0,2:0:0:0:
125,89,215658,2,0,P|143:82|170:85,3,41.3249988965035,10|0|0|0,2:0|2:0|2:0|2:0,2:0:0:0:
251,161,216003,5,2,2:0:0:0:
279,190,216089,1,0,2:0:0:0:
317,204,216175,1,0,3:2:0:0:
358,200,216261,1,0,2:0:0:0:
393,179,216347,1,8,2:0:0:0:
415,145,216434,1,0,2:0:0:0:
420,104,216520,1,0,2:0:0:0:
407,65,216606,1,0,2:0:0:0:
376,36,216692,6,0,L|329:28,3,41.3249988965035,2|0|0|0,3:2|2:0|2:0|2:0,2:0:0:0:
241,75,217037,2,0,L|200:81,3,41.3249988965035,10|0|0|0,2:0|2:0|2:0|2:0,2:0:0:0:
327,134,217382,2,0,L|367:140,1,41.3249988965035,2|0,2:0|2:0,2:0:0:0:
244,195,217554,2,0,L|203:201,1,41.3249988965035,0|0,3:2|2:0,2:0:0:0:
343,247,217727,2,0,L|383:253,3,41.3249988965035,10|0|0|0,2:0|2:0|2:0|2:0,2:0:0:0:
429,342,218072,5,2,3:2:0:0:
403,345,218158,1,0,2:0:0:0:
377,348,218244,1,0,2:0:0:0:
351,351,218331,1,0,2:0:0:0:
325,354,218417,1,8,2:0:0:0:
299,357,218503,1,0,2:0:0:0:
273,360,218589,1,0,2:0:0:0:
248,364,218675,1,0,2:0:0:0:
217,368,218761,6,0,L|206:307,3,52.1999984069825,2|0|0|0,2:0|2:0|3:2|2:0,0:0:0:0:
114,260,219106,2,0,L|125:199,3,52.1999984069825,10|0|0|0,2:0|2:0|2:0|2:0,0:0:0:0:
244,195,219451,5,0,3:2:0:0:
278,172,219537,1,0,2:0:0:0:
297,136,219623,1,0,2:0:0:0:
296,96,219709,1,0,2:0:0:0:
275,60,219795,1,10,2:0:0:0:
240,40,219882,1,0,2:0:0:0:
199,39,219968,1,0,2:0:0:0:
163,59,220054,1,0,2:0:0:0:
146,97,220141,6,0,L|138:142,3,41.3249988965035,2|0|0|0,2:0|2:0|3:2|2:0,2:0:0:0:
237,164,220485,2,0,L|277:171,1,41.3249988965035,10|0,2:0|2:0,2:0:0:0:
154,252,220658,2,0,L|113:259,3,41.3249988965035,2|0|0|0,2:0|2:0|3:2|2:0,2:0:0:0:
234,331,221003,2,0,L|274:338,3,41.3249988965035,2|0|8|0,2:0|2:0|2:0|2:0,2:0:0:0:
384,268,221347,5,2,2:0:0:0:
422,233,221433,1,0,2:0:0:0:
442,185,221519,1,0,2:0:0:0:
440,134,221605,1,0,2:0:0:0:
416,88,221691,1,0,3:2:0:0:
375,57,221778,1,0,2:0:0:0:
324,47,221864,1,8,2:0:0:0:
274,59,221950,1,0,2:0:0:0:
240,99,222037,6,0,L|232:144,3,41.3249988965035,2|0|0|0,2:0|2:0|3:2|2:0,2:0:0:0:
143,76,222382,2,0,L|150:35,1,41.3249988965035,2|0,2:0|2:0,2:0:0:0:
46,62,222554,2,0,L|38:102,3,41.3249988965035,10|0|0|0,2:0|2:0|2:0|2:0,2:0:0:0:
101,185,222899,2,0,B|125:195|125:195|169:183,3,41.3249988965035,2|0|0|0,2:0|2:0|3:2|2:0,2:0:0:0:
42,280,223244,2,0,B|18:290|18:290|-26:278,3,41.3249988965035,10|0|0|0,2:0|2:0|2:0|2:0,2:0:0:0:
143,300,223589,5,6,3:2:0:0:
198,338,223675,1,0,2:0:0:0:
265,328,223761,1,0,2:0:0:0:
306,273,223847,1,0,2:0:0:0:
333,208,223934,1,8,2:0:0:0:
388,169,224020,1,0,2:0:0:0:
455,180,224106,1,0,2:0:0:0:
494,236,224192,1,0,2:0:0:0:
467,300,224278,5,2,2:0:0:0:
461,259,224364,1,0,2:0:0:0:
434,228,224450,1,2,2:0:0:0:
395,217,224536,1,0,2:0:0:0:
356,229,224622,1,8,2:0:0:0:
330,260,224709,1,0,2:0:0:0:
326,301,224795,1,0,2:0:0:0:
344,337,224881,1,0,2:0:0:0:
381,356,224968,2,0,L|443:362,3,41.3249988965035,2|0|0|0,3:2|2:0|2:0|2:0,2:0:0:0:
434,228,225313,5,10,2:0:0:0:
455,181,225399,1,0,2:0:0:0:
454,129,225485,1,0,2:0:0:0:
430,83,225571,1,0,2:0:0:0:
387,54,225657,1,0,2:0:0:0:
336,46,225744,1,0,2:0:0:0:
287,62,225830,1,0,3:2:0:0:
250,98,225916,1,0,2:0:0:0:
240,150,226003,5,10,2:0:0:0:
212,119,226089,1,0,2:0:0:0:
174,105,226175,1,0,2:0:0:0:
133,112,226261,1,0,2:0:0:0:
101,137,226347,1,0,3:2:0:0:
86,175,226434,1,0,2:0:0:0:
90,216,226520,1,0,2:0:0:0:
113,249,226606,1,0,2:0:0:0:
144,275,226692,2,0,L|185:271,3,41.3249988965035,10|0|0|0,2:0|2:0|2:0|2:0,2:0:0:0:
268,185,227037,5,2,2:0:0:0:
292,152,227123,1,0,2:0:0:0:
328,133,227209,1,0,3:2:0:0:
369,134,227295,1,0,2:0:0:0:
405,153,227381,1,8,2:0:0:0:
429,187,227468,1,0,2:0:0:0:
434,228,227554,1,0,2:0:0:0:
420,266,227640,1,0,2:0:0:0:
390,295,227727,6,0,L|334:305,3,41.3249988965035,2|0|0|0,3:2|2:0|2:0|2:0,2:0:0:0:
281,215,228072,2,0,L|240:207,3,41.3249988965035,10|0|0|0,2:0|2:0|2:0|2:0,2:0:0:0:
131,212,228416,2,0,P|120:229|111:254,1,41.3249988965035,2|0,2:0|2:0,2:0:0:0:
134,124,228589,2,0,P|113:125|87:132,1,41.3249988965035,0|0,3:2|2:0,2:0:0:0:
208,76,228761,2,0,P|195:60|174:42,3,41.3249988965035,10|0|0|0,2:0|2:0|2:0|2:0,2:0:0:0:
59,46,229106,5,2,3:2:0:0:
36,59,229192,1,0,2:0:0:0:
19,78,229278,1,0,2:0:0:0:
6,101,229364,1,0,2:0:0:0:
0,127,229450,1,8,2:0:0:0:
1,153,229537,1,0,2:0:0:0:
8,178,229623,1,0,2:0:0:0:
22,200,229709,1,0,2:0:0:0:
39,220,229796,6,0,L|97:208,3,52.1999984069825,2|0|0|0,2:0|2:0|3:2|2:0,0:0:0:0:
187,271,230141,2,0,L|238:281,3,52.1999984069825,10|0|0|0,2:0|2:0|2:0|2:0,0:0:0:0:
300,193,230485,5,0,3:2:0:0:
327,162,230571,1,0,2:0:0:0:
366,148,230657,1,0,2:0:0:0:
406,152,230743,1,0,2:0:0:0:
440,175,230829,1,8,2:0:0:0:
461,210,230916,1,0,2:0:0:0:
463,251,231002,1,0,2:0:0:0:
446,289,231088,1,0,2:0:0:0:
411,313,231175,6,0,P|389:313|353:300,3,41.3249988965035,2|0|0|0,2:0|2:0|3:2|2:0,2:0:0:0:
301,374,231520,2,0,P|288:357|279:339,1,41.3249988965035,10|0,2:0|2:0,2:0:0:0:
185,324,231692,2,0,P|191:304|201:286,3,41.3249988965035,2|0|0|0,2:0|2:0|3:2|2:0,2:0:0:0:
150,208,232037,2,0,P|169:201|190:199,3,41.3249988965035,2|0|8|0,2:0|2:0|2:0|2:0,2:0:0:0:
300,193,232382,5,2,2:0:0:0:
341,163,232468,1,0,2:0:0:0:
362,116,232554,1,0,2:0:0:0:
355,65,232640,1,0,2:0:0:0:
321,26,232726,1,0,3:2:0:0:
272,10,232813,1,0,2:0:0:0:
222,24,232899,1,10,2:0:0:0:
188,61,232985,1,0,2:0:0:0:
178,112,233072,6,0,L|192:172,1,41.3249988965035,2|0,2:0|2:0,2:0:0:0:
212,237,233244,1,0,3:2:0:0:
377,162,233589,5,10,2:0:0:0:
372,194,233675,1,0,2:0:0:0:
367,226,233761,1,0,2:0:0:0:
363,258,233847,1,0,2:0:0:0:
359,289,233934,2,0,L|352:330,1,32.625001244545,2|0,2:0|0:0,0:0:0:0:
241,347,234106,5,8,2:0:0:0:
233,322,234192,1,0,2:0:0:0:
215,304,234278,1,0,2:0:0:0:
190,296,234364,1,8,2:0:0:0:
165,301,234450,1,0,2:0:0:0:
145,318,234537,1,8,2:0:0:0:
136,339,234623,6,0,B|145:339|154:337|163:337|170:333|179:331|187:325|194:321|200:315|207:309|212:302|218:294|222:286|225:278|229:260|229:251|229:251|226:252|229:251|229:251|229:250|229:250|230:242|231:233|230:224|228:217|225:208|219:201|213:194|204:191|195:188|186:189|178:191|170:195|163:201|158:209|154:217|154:226|154:235|157:243|162:252|170:256|177:262|186:264|195:265|203:263|212:261|221:256|224:255|229:251|229:251|235:248|251:240|259:235|268:233|277:230|285:230|294:229|303:231|312:231|320:235|329:238|336:243|344:248|351:253|358:259|364:266|371:273|375:279|383:289|385:295|385:295|387:293|385:295|385:295|385:295|385:295|387:303|388:311|388:320|386:330|384:338|378:345|371:352|363:355|355:358|345:359|336:355|329:350|322:344|319:336|315:327|317:318|317:309|322:302|328:293|335:290|344:287|353:286|361:287|370:289|378:292|385:296|385:296|386:297|386:297|388:295|386:297|386:297|392:304|398:309|406:315|414:320|421:325|430:327|439:330|447:330|456:331|465:328|474:327|485:320|483:322|485:322,1,852.599973980714,10|0,2:0|0:0,2:0:0:0:
