osu file format v14

[General]
AudioFilename: audio.mp3
AudioLeadIn: 0
PreviewTime: 87200
Countdown: 0
SampleSet: Normal
StackLeniency: 0.6
Mode: 0
LetterboxInBreaks: 0
WidescreenStoryboard: 0

[Editor]
Bookmarks: 22070,44139,66208,88277,110346,132415,154484
DistanceSpacing: 1.2
BeatDivisor: 4
GridSize: 8
TimelineZoom: 1.8

[Metadata]
Title:Freefall VIP (feat. Reija Lee)
TitleUnicode:Freefall VIP (feat. Reija Lee)
Artist:Metrik
ArtistUnicode:Metrik
Creator:Slips
Version:_orange's Insane
Source:
Tags:liquid dnb drum and n & bass liquicity universal language 2013 cut ver _orange 6 digit exote sinn
BeatmapID:1657661
BeatmapSetID:749003

[Difficulty]
HPDrainRate:6
CircleSize:4
OverallDifficulty:8
ApproachRate:9
SliderMultiplier:1.6
SliderTickRate:1

[Events]
//Background and Video events
0,0,"wallpaper-2938589.jpg",0,0
//Break Periods
2,44339,54229
2,66408,76298
//Storyboard Layer 0 (Background)
//Storyboard Layer 1 (Fail)
//Storyboard Layer 2 (Pass)
//Storyboard Layer 3 (Foreground)
//Storyboard Sound Samples

[TimingPoints]
2,344.827586206897,4,1,1,60,1,0
21381,-133.333333333333,4,1,1,60,0,0
32674,-133.333333333333,4,1,1,5,0,0
32760,-100,4,1,1,60,0,0
33019,-100,4,1,1,5,0,0
33105,-133.333333333333,4,1,1,60,0,0
43105,-133.333333333333,4,1,1,60,0,0
56467,-133.333333333333,4,1,1,5,0,0
56553,-133.333333333333,4,1,1,60,0,0
61984,-133.333333333333,4,1,1,5,0,0
62070,-133.333333333333,4,1,1,60,0,0
65433,-133.333333333333,4,1,1,5,0,0
65519,-133.333333333333,4,1,1,60,0,0
66208,-100,4,1,1,60,0,0
77243,-100,4,1,1,60,0,0
80002,-100,4,1,1,60,0,0
82760,-100,4,1,1,60,0,0
88277,-90.9090909090909,4,1,1,80,0,1
110346,-100,4,1,1,80,0,1
126898,-90.9090909090909,4,1,1,80,0,1
132415,-133.333333333333,4,1,1,80,0,0
132502,-133.333333333333,4,1,1,5,0,0
132588,-100,4,1,1,80,0,0
157070,-100,4,1,1,30,0,0

[Colours]
Combo1 : 106,199,234
Combo2 : 69,155,250
Combo3 : 0,78,155
Combo4 : 188,206,239
SliderBorder : 224,236,255

[HitObjects]
256,192,17933,12,0,21208,0:0:0:0:
220,218,21381,5,8,0:0:0:0:
207,129,21553,1,8,0:0:0:0:
305,27,21726,2,0,L|302:56,3,30.0000011444092,8|8|8|8,0:0|0:0|0:0|0:0,0:0:0:0:
345,136,22070,6,0,L|464:125,2,120.000004577637,4|0|0,3:1|0:0|0:0,0:0:0:0:
313,221,22933,1,0,3:0:0:0:
383,272,23105,2,0,P|390:302|389:332,1,60.0000022888184,0|0,0:0|0:0,0:0:0:0:
195,328,23450,6,0,P|242:295|299:308,1,120.000004577637,0|0,3:0|0:0,0:0:0:0:
192,341,23967,1,0,0:0:0:0:
123,283,24139,2,0,L|117:223,1,60.0000022888184,0|0,0:0|3:0,0:0:0:0:
0,142,24484,2,0,P|29:148|58:146,1,60.0000022888184,0|0,0:0|0:0,0:0:0:0:
125,85,24829,5,0,3:0:0:0:
125,85,25002,2,0,B|242:61|242:61|300:76,1,180.000006866455,0|0,0:0|0:0,0:0:0:0:
401,156,25691,1,0,3:0:0:0:
370,240,25864,2,0,P|366:269|370:299,1,60.0000022888184,0|0,0:0|0:0,0:0:0:0:
476,214,26208,6,0,P|496:160|477:104,1,120.000004577637,0|0,3:0|0:0,0:0:0:0:
300,76,26898,2,0,L|240:70,1,60.0000022888184,0|0,0:0|3:0,0:0:0:0:
162,116,27243,2,0,L|102:121,1,60.0000022888184,0|0,0:0|0:0,0:0:0:0:
22,77,27588,6,0,P|12:134|39:187,1,120.000004577637,0|0,3:0|0:0,0:0:0:0:
126,211,28105,2,0,P|136:268|109:321,1,120.000004577637,0|0,0:0|3:0,0:0:0:0:
178,270,28622,2,0,P|207:263|237:263,1,60.0000022888184,0|0,0:0|0:0,0:0:0:0:
322,356,28967,6,0,L|441:345,1,120.000004577637,0|0,3:0|0:0,0:0:0:0:
375,177,29657,1,0,0:0:0:0:
357,265,29829,1,0,3:0:0:0:
443,241,30002,2,0,L|502:246,1,60.0000022888184,0|0,0:0|0:0,0:0:0:0:
375,177,30346,6,0,B|318:166|318:166|262:193,1,120.000004577637,0|0,3:0|0:0,0:0:0:0:
154,336,31036,2,0,P|181:351|210:355,1,60.0000022888184,0|0,0:0|3:0,0:0:0:0:
79,275,31381,2,0,P|49:278|23:293,1,60.0000022888184,0|0,0:0|0:0,0:0:0:0:
175,246,31726,6,0,B|190:216|190:216|175:130,1,120.000004577637,0|0,3:0|0:0,0:0:0:0:
71,9,32415,6,0,P|113:22|158:25,1,90.0000034332277,0|0,0:0|0:0,0:0:0:0:
194,12,32760,6,0,P|253:8|306:36,1,120,8|0,0:0|0:0,0:0:0:0:
295,66,33105,6,0,L|305:185,1,120.000004577637,4|0,3:0|0:0,0:0:0:0:
437,93,33967,1,0,3:0:0:0:
437,93,34139,2,0,L|431:152,1,60.0000022888184,0|0,0:0|0:0,0:0:0:0:
463,301,34484,6,0,P|409:280|351:292,1,120.000004577637,0|0,3:0|0:0,0:0:0:0:
162,321,35174,2,0,L|222:326,2,60.0000022888184,0|0|0,0:0|3:0|0:0,0:0:0:0:
95,261,35691,1,0,0:0:0:0:
50,124,35864,6,0,P|45:153|45:183,1,60.0000022888184,0|0,3:0|0:0,0:0:0:0:
132,78,36208,2,0,P|132:48|127:18,1,60.0000022888184,0|0,0:0|0:0,0:0:0:0:
289,101,36726,1,0,3:0:0:0:
230,169,36898,2,0,L|170:163,1,60.0000022888184,0|0,0:0|0:0,0:0:0:0:
301,232,37243,6,0,L|420:221,1,120.000004577637,0|0,3:0|0:0,0:0:0:0:
502,258,37760,1,0,0:0:0:0:
452,136,37933,1,0,0:0:0:0:
420,220,38105,1,0,3:0:0:0:
356,131,38277,2,0,P|360:101|375:75,1,60.0000022888184,0|0,0:0|0:0,0:0:0:0:
437,10,38622,6,0,B|381:30|381:30|322:13,1,120.000004577637,0|0,3:0|0:0,0:0:0:0:
244,57,39139,2,0,B|188:36|188:36|129:53,1,120.000004577637,0|0,0:0|3:0,0:0:0:0:
193,191,39657,2,0,L|187:131,1,60.0000022888184,0|0,0:0|0:0,0:0:0:0:
40,240,40002,6,0,P|87:274|145:268,1,120.000004577637,0|0,3:0|0:0,0:0:0:0:
374,305,40864,1,0,0:0:0:0:
284,302,41036,2,0,P|254:304|227:316,1,60.0000022888184,0|0,0:0|0:0,0:0:0:0:
374,305,41381,5,0,3:0:0:0:
322,160,41553,1,0,0:0:0:0:
430,250,41726,1,0,3:0:0:0:
312,150,41898,1,0,0:0:0:0:
455,168,42070,5,0,3:0:0:0:
303,140,42242,1,0,0:0:0:0:
440,77,42415,1,0,3:0:0:0:
294,128,42587,1,0,0:0:0:0:
388,0,42760,5,0,3:0:0:0:
287,117,42932,1,0,0:0:0:0:
113,32,43105,5,0,3:0:0:0:
221,42,43277,1,0,0:0:0:0:
51,121,43450,5,0,3:0:0:0:
5,22,43622,1,0,0:0:0:0:
158,130,43795,5,0,3:0:0:0:
95,219,43967,1,0,0:0:0:0:
113,32,44139,5,4,3:1:0:0:
332,274,54829,5,8,0:0:0:0:
332,274,55174,5,4,3:1:0:0:
360,195,55346,1,0,0:0:0:0:
313,124,55519,1,0,0:0:0:0:
346,46,55691,1,0,3:0:0:0:
346,46,56036,1,0,0:0:0:0:
277,197,56208,2,0,P|234:205|191:194,1,90.0000034332277,0|0,3:0|0:0,0:0:0:0:
191,178,56553,6,0,L|180:297,2,120.000004577637,0|0|0,0:0|0:0|0:0,0:0:0:0:
34,121,57588,2,0,P|66:125|93:114,1,60.0000022888184,0|0,0:0|0:0,0:0:0:0:
163,71,57933,5,0,3:0:0:0:
241,42,58105,1,0,0:0:0:0:
323,55,58277,1,0,0:0:0:0:
388,108,58450,1,0,3:0:0:0:
388,108,58795,1,0,0:0:0:0:
454,57,58967,2,0,B|486:117|448:167|448:167|491:227|438:288,1,240.000009155274,0|0,3:0|0:0,0:0:0:0:
276,273,60002,6,0,L|335:268,1,60.0000022888184,0|0,0:0|0:0,0:0:0:0:
217,334,60346,2,0,P|188:336|159:329,1,60.0000022888184,0|0,0:0|0:0,0:0:0:0:
99,270,60691,5,0,3:0:0:0:
132,192,60864,1,0,0:0:0:0:
84,123,61036,1,0,0:0:0:0:
170,120,61208,1,0,3:0:0:0:
170,120,61553,1,0,0:0:0:0:
292,166,61726,2,0,B|336:170|336:170|378:155,1,90.0000034332277,0|0,3:0|0:0,0:0:0:0:
390,146,62070,6,0,P|376:89|395:33,2,120.000004577637,0|0|0,0:0|0:0|0:0,0:0:0:0:
508,268,63105,2,0,L|448:273,1,60.0000022888184,0|0,0:0|0:0,0:0:0:0:
390,334,63450,5,0,3:0:0:0:
294,345,63622,1,0,0:0:0:0:
211,274,63795,1,0,0:0:0:0:
95,305,63967,1,0,3:0:0:0:
95,305,64312,1,0,0:0:0:0:
169,99,64484,2,0,P|41:67|103:183,1,330.000012588501,0|0,3:0|0:0,0:0:0:0:
115,181,65519,5,8,0:0:0:0:
211,274,65691,1,8,0:0:0:0:
299,173,65864,1,8,0:0:0:0:
298,158,65950,1,8,0:0:0:0:
296,143,66036,1,8,0:0:0:0:
295,128,66122,1,8,0:0:0:0:
294,114,66208,5,4,3:1:0:0:
409,58,76898,6,0,L|402:137,1,80,8|0,0:0|0:0,0:0:0:0:
342,233,77243,5,4,3:1:0:0:
342,233,77415,1,0,0:0:0:0:
187,165,77588,1,0,3:0:0:0:
294,107,77933,1,0,3:0:0:0:
259,313,78277,1,0,3:0:0:0:
259,313,78450,1,0,0:0:0:0:
80,138,78622,5,0,3:0:0:0:
80,138,78795,1,0,0:0:0:0:
121,292,78967,1,0,3:0:0:0:
187,165,79312,1,0,3:0:0:0:
1,207,79657,1,0,3:0:0:0:
1,207,79829,1,0,0:0:0:0:
121,292,80002,6,0,L|200:285,1,80,0|0,3:0|0:0,0:0:0:0:
389,236,80346,2,0,L|309:229,1,80,0|0,3:0|0:0,0:0:0:0:
124,278,80691,2,0,L|203:271,1,80,0|0,3:0|0:0,0:0:0:0:
392,222,81035,2,0,L|312:215,1,80,0|0,3:0|0:0,0:0:0:0:
158,122,81381,6,0,P|148:83|158:45,1,80,0|0,3:0|0:0,0:0:0:0:
334,18,81726,2,0,P|343:56|333:94,1,80,0|0,3:0|0:0,0:0:0:0:
145,123,82070,2,0,P|135:84|145:46,1,80,0|0,3:0|0:0,0:0:0:0:
345,17,82415,2,0,P|354:55|344:93,1,80,0|0,3:0|0:0,0:0:0:0:
205,216,82760,5,0,3:0:0:0:
56,161,82933,1,0,3:0:0:0:
241,130,83105,1,0,3:0:0:0:
110,247,83277,1,0,3:0:0:0:
250,124,83450,5,0,3:0:0:0:
188,308,83622,1,0,3:0:0:0:
145,123,83795,1,0,3:0:0:0:
280,278,83967,1,0,3:0:0:0:
110,247,84139,5,0,3:0:0:0:
292,278,84312,1,0,3:0:0:0:
99,350,84484,1,0,3:0:0:0:
304,279,84657,1,0,3:0:0:0:
188,308,84829,5,0,3:0:0:0:
340,189,85002,1,0,3:0:0:0:
346,364,85174,1,0,3:0:0:0:
339,174,85346,1,0,3:0:0:0:
481,304,85519,5,0,3:0:0:0:
450,312,85605,1,0,3:0:0:0:
419,304,85691,1,0,3:0:0:0:
396,282,85777,1,0,3:0:0:0:
388,252,85863,5,0,3:0:0:0:
408,227,85950,1,0,3:0:0:0:
420,198,86036,1,0,3:0:0:0:
421,166,86122,1,0,3:0:0:0:
412,135,86208,5,0,3:0:0:0:
394,109,86294,1,0,3:0:0:0:
368,91,86381,1,0,3:0:0:0:
337,84,86467,1,0,3:0:0:0:
307,94,86553,5,0,3:0:0:0:
332,114,86639,1,0,3:0:0:0:
344,143,86725,1,0,3:0:0:0:
339,174,86811,1,0,3:0:0:0:
157,185,87588,5,0,3:0:0:0:
192,54,87760,1,0,3:0:0:0:
51,182,87933,5,0,3:0:0:0:
45,196,88019,1,0,3:0:0:0:
39,221,88105,1,0,3:0:0:0:
41,257,88191,1,0,3:0:0:0:
62,314,88277,6,0,L|149:306,1,88.000002685547,4|0,3:1|0:0,0:0:0:0:
292,202,88622,2,0,P|335:204|376:221,1,88.000002685547,8|0,0:0|0:0,0:0:0:0:
247,342,88967,1,0,0:0:0:0:
157,185,89139,1,0,3:0:0:0:
395,316,89312,2,0,L|482:323,1,88.000002685547,8|0,0:0|0:0,0:0:0:0:
452,133,89657,6,0,P|462:175|492:207,1,88.000002685547,0|0,3:0|0:0,0:0:0:0:
491,42,90002,2,0,B|431:35|431:35|380:59|380:59|321:52,1,176.000005371094,8|0,0:0|0:0,0:0:0:0:
195,31,90519,1,0,3:0:0:0:
236,218,90691,2,0,B|249:176|249:176|245:133,1,88.000002685547,8|0,0:0|0:0,0:0:0:0:
54,48,91036,6,0,B|49:91|49:91|63:132,1,88.000002685547,0|0,3:0|0:0,0:0:0:0:
231,227,91381,2,0,B|205:194|205:194|166:174,1,88.000002685547,8|0,0:0|0:0,0:0:0:0:
49,232,91726,1,0,0:0:0:0:
150,80,91898,1,0,3:0:0:0:
142,271,92070,2,0,L|149:358,1,88.000002685547,8|0,0:0|0:0,0:0:0:0:
346,236,92415,6,0,L|354:149,1,88.000002685547,0|0,3:0|0:0,0:0:0:0:
427,290,92760,2,0,P|350:256|290:314,1,176.000005371094,8|0,0:0|0:0,0:0:0:0:
448,382,93277,1,0,3:0:0:0:
451,176,93450,1,8,0:0:0:0:
510,252,93622,1,0,0:0:0:0:
354,148,93795,6,0,P|310:144|270:160,1,88.000002685547,0|0,3:0|0:0,0:0:0:0:
205,286,94139,2,0,P|183:323|146:347,1,88.000002685547,8|0,0:0|0:0,0:0:0:0:
195,107,94484,1,0,0:0:0:0:
295,254,94657,1,0,3:0:0:0:
106,255,94829,2,0,L|19:264,1,88.000002685547,8|0,0:0|0:0,0:0:0:0:
108,99,95174,6,0,L|195:107,1,88.000002685547,0|0,3:0|0:0,0:0:0:0:
387,58,95519,2,0,B|334:48|294:91|294:91|287:51|255:26,1,176.000005371094,8|0,0:0|0:0,0:0:0:0:
369,146,96036,1,0,3:0:0:0:
474,34,96208,1,8,0:0:0:0:
476,182,96381,2,0,L|479:225,1,44.0000013427735,0|0,0:0|0:0,0:0:0:0:
319,285,96553,6,0,B|362:279|362:279|404:289,1,88.000002685547,0|0,3:0|0:0,0:0:0:0:
232,364,96898,2,0,B|189:370|189:370|145:359,1,88.000002685547,8|0,0:0|0:0,0:0:0:0:
132,126,97243,1,0,0:0:0:0:
48,274,97415,1,0,3:0:0:0:
231,260,97588,2,0,P|187:262|145:247,1,88.000002685547,8|0,0:0|0:0,0:0:0:0:
140,39,97933,6,0,L|133:126,1,88.000002685547,0|0,3:0|0:0,0:0:0:0:
340,107,98277,1,8,0:0:0:0:
235,98,98450,1,0,0:0:0:0:
400,20,98622,1,0,0:0:0:0:
386,202,98795,1,0,3:0:0:0:
388,223,98881,1,8,0:0:0:0:
390,245,98967,2,0,L|393:288,1,44.0000013427735,8|0,0:0|0:0,0:0:0:0:
499,202,99139,2,0,L|495:245,1,44.0000013427735,8|0,0:0|0:0,0:0:0:0:
289,333,99312,6,0,L|113:317,1,176.000005371094,4|8,3:1|0:0,0:0:0:0:
241,192,99829,2,0,L|153:199,1,88.000002685547,0|0,0:0|0:0,0:0:0:0:
21,215,100174,1,0,3:0:0:0:
160,113,100346,2,0,P|165:155|152:199,1,88.000002685547,8|0,0:0|0:0,0:0:0:0:
79,47,100691,6,0,P|116:18|157:10,1,88.000002685547,0|0,3:0|0:0,0:0:0:0:
331,102,101036,2,0,B|311:146|311:146|291:19,1,176.000005371094,8|0,0:0|0:0,0:0:0:0:
423,88,101553,1,0,3:0:0:0:
241,192,101726,2,0,L|248:279,1,88.000002685547,8|0,0:0|0:0,0:0:0:0:
512,229,102070,6,0,B|481:233|446:224|446:224|402:236|402:236|369:225|339:231,1,176.000005371094,0|8,3:0|0:0,0:0:0:0:
224,370,102588,2,0,P|267:371|307:354,1,88.000002685547,0|0,0:0|0:0,0:0:0:0:
241,192,102933,1,0,3:0:0:0:
125,348,103105,2,0,L|132:260,1,88.000002685547,8|0,0:0|0:0,0:0:0:0:
174,57,103450,6,0,B|178:101|178:101|166:142,1,88.000002685547,0|0,3:0|0:0,0:0:0:0:
255,21,103795,2,0,B|267:107|267:107|240:191,1,176.000005371094,8|0,0:0|0:0,0:0:0:0:
80,94,104312,1,0,3:0:0:0:
292,111,104484,2,0,L|379:103,1,88.000002685547,8|0,0:0|0:0,0:0:0:0:
486,34,104829,6,0,L|482:77,3,44.0000013427735,0|0|0|0,3:0|0:0|0:0|0:0,0:0:0:0:
457,177,105174,2,0,L|460:220,3,44.0000013427735,8|0|0|0,0:0|0:0|0:0|0:0,0:0:0:0:
429,317,105519,2,0,P|407:312|385:312,3,44.0000013427735,0|0|0|0,0:0|0:0|3:0|0:0,0:0:0:0:
292,352,105864,2,0,P|270:356|248:356,3,44.0000013427735,8|0|0|0,0:0|0:0|0:0|0:0,0:0:0:0:
155,310,106208,6,0,P|133:315|114:326,1,44.0000013427735,0|0,3:0|0:0,0:0:0:0:
4,236,106381,2,0,P|23:246|44:252,1,44.0000013427735,0|0,0:0|0:0,0:0:0:0:
161,295,106553,2,0,P|139:300|120:311,1,44.0000013427735,8|0,0:0|0:0,0:0:0:0:
10,221,106726,2,0,P|29:231|50:237,1,44.0000013427735,0|0,0:0|0:0,0:0:0:0:
192,163,106898,6,0,L|188:119,1,44.0000013427735,0|0,0:0|0:0,0:0:0:0:
99,59,107070,2,0,L|95:102,1,44.0000013427735,0|0,3:0|0:0,0:0:0:0:
201,175,107243,2,0,L|197:124,1,44.0000013427735,8|0,0:0|0:0,0:0:0:0:
89,46,107415,2,0,L|84:97,1,44.0000013427735,0|0,0:0|0:0,0:0:0:0:
293,59,107588,5,0,3:0:0:0:
312,69,107674,1,0,0:0:0:0:
333,76,107760,1,0,0:0:0:0:
354,79,107846,1,0,0:0:0:0:
376,79,107932,1,8,0:0:0:0:
398,76,108019,1,0,0:0:0:0:
419,70,108105,1,0,0:0:0:0:
439,62,108191,1,0,0:0:0:0:
456,48,108277,5,0,0:0:0:0:
438,71,108363,1,0,0:0:0:0:
420,102,108450,1,0,3:0:0:0:
405,134,108536,1,0,0:0:0:0:
394,168,108622,1,8,0:0:0:0:
389,203,108708,1,0,0:0:0:0:
388,238,108794,1,0,0:0:0:0:
393,273,108881,1,0,0:0:0:0:
404,305,108967,5,8,0:0:0:0:
282,295,109139,1,0,3:0:0:0:
71,205,109312,5,8,0:0:0:0:
193,195,109484,1,0,3:0:0:0:
393,273,109657,5,8,0:0:0:0:
273,261,109829,1,0,3:0:0:0:
282,295,109915,1,0,3:0:0:0:
291,328,110002,2,0,L|287:371,1,44.0000013427735,8|0,0:0|0:0,0:0:0:0:
193,195,110174,2,0,L|197:152,1,44.0000013427735,0|0,3:0|0:0,0:0:0:0:
146,47,110346,6,0,P|203:62|260:46,1,120,4|0,3:1|0:0,0:0:0:0:
274,35,110691,2,0,L|270:74,1,40,8|0,0:0|0:0,0:0:0:0:
329,142,110864,2,0,P|386:126|443:142,1,120,0|0,0:0|0:0,0:0:0:0:
457,154,111209,2,0,L|453:114,1,40,0|0,3:0|0:0,0:0:0:0:
387,223,111381,2,0,L|379:302,1,80,8|0,0:0|0:0,0:0:0:0:
175,304,111726,6,0,P|214:306|249:324,1,80,0|0,3:0|0:0,0:0:0:0:
91,252,112070,2,0,P|120:225|158:213,1,80,8|0,0:0|0:0,0:0:0:0:
285,200,112415,2,0,P|322:188|352:161,1,80,0|0,0:0|3:0,0:0:0:0:
194,90,112760,2,0,P|229:108|268:109,1,80,8|0,0:0|0:0,0:0:0:0:
117,37,113105,6,0,L|77:33,1,40,0|0,3:0|0:0,0:0:0:0:
66,130,113277,2,0,L|105:126,1,40,0|0,0:0|0:0,0:0:0:0:
194,90,113450,1,8,0:0:0:0:
27,219,113622,2,0,L|146:208,1,120,0|0,0:0|0:0,0:0:0:0:
161,206,113967,2,0,P|158:227|161:247,1,40,0|0,3:0|0:0,0:0:0:0:
35,343,114139,2,0,P|73:334|113:340,1,80,8|0,0:0|0:0,0:0:0:0:
264,295,114484,6,0,B|308:298|308:298|333:294|333:294|383:299,1,120,0|0,3:0|0:0,0:0:0:0:
398,302,114829,2,0,L|401:341,1,40,8|0,0:0|0:0,0:0:0:0:
471,237,115002,2,0,B|488:202|488:202|475:121,1,120,0|0,0:0|0:0,0:0:0:0:
470,108,115346,2,0,P|470:127|461:146,1,40,0|0,3:0|0:0,0:0:0:0:
361,26,115519,2,0,P|378:62|380:102,1,80,8|0,0:0|0:0,0:0:0:0:
153,80,115864,6,0,L|272:90,1,120,0|0,3:0|0:0,0:0:0:0:
288,91,116208,2,0,L|291:130,1,40,8|0,0:0|0:0,0:0:0:0:
75,190,116381,2,0,L|194:179,1,120,0|0,0:0|0:0,0:0:0:0:
212,177,116726,2,0,L|208:216,1,40,0|0,3:0|0:0,0:0:0:0:
312,301,116898,2,0,L|305:221,1,80,8|0,0:0|0:0,0:0:0:0:
407,319,117243,6,0,P|403:338|393:355,1,40,0|0,3:0|0:0,0:0:0:0:
224,350,117415,2,0,P|215:332|210:313,1,40,0|0,0:0|0:0,0:0:0:0:
305,221,117588,1,8,0:0:0:0:
126,267,117760,2,0,P|145:212|194:179,1,120,0|0,0:0|0:0,0:0:0:0:
209,178,118105,2,0,L|169:174,1,40,0|0,3:0|0:0,0:0:0:0:
19,111,118277,2,0,L|98:104,1,80,8|0,0:0|0:0,0:0:0:0:
254,59,118622,6,0,P|255:78|250:98,1,40,0|0,3:0|0:0,0:0:0:0:
343,5,118795,2,0,P|358:17|368:34,1,40,0|0,0:0|0:0,0:0:0:0:
345,144,118967,1,8,0:0:0:0:
475,74,119139,2,0,B|452:107|452:107|462:186,1,120,0|0,0:0|0:0,0:0:0:0:
465,201,119484,2,0,L|461:240,1,40,0|0,3:0|0:0,0:0:0:0:
329,317,119657,2,0,P|363:336|402:339,1,80,8|0,0:0|0:0,0:0:0:0:
345,144,120002,6,0,L|348:183,1,40,0|0,3:0|0:0,0:0:0:0:
231,284,120174,2,0,L|227:323,1,40,0|0,0:0|0:0,0:0:0:0:
209,178,120346,1,8,0:0:0:0:
5,217,120519,2,0,B|61:234|61:234|120:217,1,120,0|0,0:0|0:0,0:0:0:0:
209,178,120864,1,0,3:0:0:0:
210,158,120950,1,8,0:0:0:0:
212,138,121036,2,0,L|215:98,1,40,8|0,0:0|0:0,0:0:0:0:
222,2,121208,1,8,0:0:0:0:
451,35,121381,6,0,B|416:32|416:32|371:47|371:47|333:44,1,120,4|0,3:1|0:0,0:0:0:0:
323,32,121726,2,0,L|325:71,1,40,8|0,0:0|0:0,0:0:0:0:
412,243,121898,2,0,P|446:195|440:136,1,120,0|0,0:0|0:0,0:0:0:0:
431,124,122243,2,0,L|428:163,1,40,0|0,3:0|0:0,0:0:0:0:
343,313,122415,1,8,0:0:0:0:
330,171,122588,1,0,0:0:0:0:
345,328,122760,6,0,L|265:321,1,80,0|0,3:0|0:0,0:0:0:0:
101,270,123105,2,0,L|180:263,1,80,8|0,0:0|0:0,0:0:0:0:
343,313,123450,2,0,L|263:306,1,80,0|0,0:0|3:0,0:0:0:0:
99,255,123795,2,0,L|178:248,1,80,8|0,0:0|0:0,0:0:0:0:
250,96,124139,6,0,P|249:116|244:136,1,40,0|0,3:0|0:0,0:0:0:0:
132,64,124312,2,0,P|145:78|155:96,1,40,0|0,0:0|0:0,0:0:0:0:
62,132,124484,1,8,0:0:0:0:
99,255,124657,2,0,B|90:352|90:352|77:333,1,120,0|0,0:0|0:0,0:0:0:0:
70,319,125002,2,0,L|30:315,1,40,0|0,3:0|0:0,0:0:0:0:
208,353,125174,2,0,L|287:346,1,80,8|0,0:0|0:0,0:0:0:0:
451,313,125519,6,0,B|462:232|462:232|450:195,1,120,0|0,3:0|0:0,0:0:0:0:
444,182,125864,2,0,L|440:221,1,40,8|0,0:0|0:0,0:0:0:0:
337,60,126036,2,0,L|347:179,1,120,0|0,0:0|0:0,0:0:0:0:
351,196,126381,2,0,L|347:235,1,40,0|0,3:0|0:0,0:0:0:0:
436,87,126553,2,0,L|429:7,1,80,8|0,0:0|0:0,0:0:0:0:
253,86,126898,6,0,P|232:91|210:90,3,44.0000013427735,0|0|0|0,3:0|0:0|0:0|0:0,0:0:0:0:
134,28,127243,2,0,P|113:23|91:25,3,44.0000013427735,8|0|0|0,0:0|0:0|0:0|0:0,0:0:0:0:
34,132,127588,2,0,L|77:128,3,44.0000013427735,0|0|0|0,0:0|0:0|3:0|0:0,0:0:0:0:
153,189,127933,2,0,L|196:192,3,44.0000013427735,8|0|0|0,0:0|0:0|0:0|0:0,0:0:0:0:
241,292,128277,6,0,P|219:287|197:287,1,44.0000013427735,0|0,3:0|0:0,0:0:0:0:
67,337,128450,2,0,P|88:341|110:341,1,44.0000013427735,0|0,0:0|0:0,0:0:0:0:
250,303,128622,2,0,P|228:298|206:298,1,44.0000013427735,8|0,0:0|0:0,0:0:0:0:
76,348,128795,2,0,P|97:352|119:352,1,44.0000013427735,0|0,0:0|0:0,0:0:0:0:
259,312,128967,6,0,L|302:308,1,44.0000013427735,0|0,0:0|0:0,0:0:0:0:
433,248,129139,2,0,L|389:244,1,44.0000013427735,0|0,3:0|0:0,0:0:0:0:
269,321,129312,2,0,L|312:317,1,44.0000013427735,8|0,0:0|0:0,0:0:0:0:
443,257,129484,2,0,L|399:253,1,44.0000013427735,0|0,0:0|0:0,0:0:0:0:
282,185,129657,5,0,3:0:0:0:
272,165,129743,1,0,0:0:0:0:
268,143,129829,1,0,0:0:0:0:
270,121,129915,1,0,0:0:0:0:
278,101,130001,1,8,0:0:0:0:
290,83,130088,1,0,0:0:0:0:
307,69,130174,1,0,0:0:0:0:
327,59,130260,1,0,0:0:0:0:
348,55,130346,5,0,0:0:0:0:
339,46,130432,1,0,0:0:0:0:
329,38,130518,1,0,3:0:0:0:
317,31,130604,1,0,0:0:0:0:
305,27,130690,1,8,0:0:0:0:
292,23,130777,1,0,0:0:0:0:
279,22,130863,1,0,0:0:0:0:
266,22,130949,1,0,0:0:0:0:
253,25,131035,5,0,3:0:0:0:
162,96,131898,5,0,3:0:0:0:
141,94,131984,1,0,3:0:0:0:
119,92,132070,1,8,0:0:0:0:
15,183,132415,6,0,L|44:180,1,30.0000011444092,0|0,3:0|0:0,0:0:0:0:
53,192,132588,5,0,3:0:0:0:
112,347,132760,2,0,L|118:267,1,80,12|0,0:0|0:0,0:0:0:0:
222,179,133105,2,0,L|215:258,1,80,0|0,0:0|3:0,0:0:0:0:
317,348,133450,1,8,0:0:0:0:
317,348,133622,1,0,0:0:0:0:
457,304,133795,6,0,P|422:284|383:282,1,80,0|0,3:0|0:0,0:0:0:0:
420,151,134139,2,0,P|381:161|352:187,1,80,8|0,0:0|0:0,0:0:0:0:
509,214,134484,1,0,0:0:0:0:
509,214,134657,1,0,3:0:0:0:
484,80,134829,2,0,P|449:59|410:57,1,80,8|0,0:0|0:0,0:0:0:0:
278,116,135174,6,0,L|118:102,1,160,0|8,3:0|0:0,0:0:0:0:
152,11,135691,1,0,0:0:0:0:
196,144,135864,2,0,L|202:223,1,80,0|0,0:0|3:0,0:0:0:0:
89,293,136208,2,0,L|95:213,1,80,8|0,0:0|0:0,0:0:0:0:
264,288,136553,6,0,P|230:309|191:311,1,80,0|0,3:0|0:0,0:0:0:0:
291,205,136898,2,0,P|330:207|363:228,1,80,8|0,0:0|0:0,0:0:0:0:
351,324,137243,1,0,0:0:0:0:
351,324,137415,1,0,3:0:0:0:
447,262,137588,2,0,P|454:224|442:186,1,80,8|0,0:0|0:0,0:0:0:0:
312,93,137933,6,0,P|387:110|450:65,1,160,0|8,3:0|0:0,0:0:0:0:
368,15,138450,1,0,0:0:0:0:
233,36,138622,2,0,B|215:71|215:71|217:111,1,80,0|0,0:0|3:0,0:0:0:0:
96,211,138967,2,0,B|113:175|113:175|111:135,1,80,8|0,0:0|0:0,0:0:0:0:
5,69,139312,6,0,L|11:148,1,80,0|0,3:0|0:0,0:0:0:0:
96,211,139657,2,0,L|175:217,1,80,8|0,0:0|0:0,0:0:0:0:
21,276,140002,1,0,0:0:0:0:
21,276,140174,1,0,3:0:0:0:
156,317,140346,2,0,L|235:310,1,80,8|0,0:0|0:0,0:0:0:0:
350,343,140691,6,0,B|331:299|331:299|353:188,1,160,0|8,3:0|0:0,0:0:0:0:
471,227,141208,1,0,0:0:0:0:
268,142,141381,2,0,P|292:111|329:95,1,80,0|0,0:0|3:0,0:0:0:0:
412,48,141726,2,0,P|426:84|421:124,1,80,8|0,0:0|0:0,0:0:0:0:
353,188,142070,6,0,B|404:232|481:205|481:205|468:234,1,160,0|8,3:0|0:0,0:0:0:0:
350,343,142588,2,0,L|270:335,1,80,0|0,0:0|0:0,0:0:0:0:
157,255,142933,1,0,3:0:0:0:
172,257,143019,1,8,0:0:0:0:
188,258,143105,1,8,0:0:0:0:
173,359,143277,1,8,0:0:0:0:
106,177,143450,6,0,P|63:241|84:316,1,160,4|8,3:1|0:0,0:0:0:0:
178,116,143967,2,0,P|147:92|108:85,1,80,0|0,0:0|0:0,0:0:0:0:
23,131,144312,1,0,3:0:0:0:
157,255,144484,2,0,L|236:261,1,80,8|0,0:0|0:0,0:0:0:0:
326,131,144829,6,0,P|311:167|314:206,1,80,0|0,3:0|0:0,0:0:0:0:
426,122,145174,2,0,P|440:158|470:184,1,80,8|0,0:0|0:0,0:0:0:0:
498,55,145518,1,0,0:0:0:0:
498,55,145691,1,0,3:0:0:0:
470,184,145864,2,0,L|476:263,1,80,8|0,0:0|0:0,0:0:0:0:
359,335,146208,6,0,B|410:332|410:332|455:361|455:361|510:356,1,160,0|8,3:0|0:0,0:0:0:0:
380,230,146726,1,0,0:0:0:0:
273,303,146898,2,0,P|267:342|278:379,1,80,0|0,0:0|3:0,0:0:0:0:
180,272,147243,2,0,P|198:236|231:214,1,80,8|0,0:0|0:0,0:0:0:0:
167,365,147588,6,0,L|87:358,1,80,0|0,3:0|0:0,0:0:0:0:
0,252,147933,2,0,L|79:245,1,80,8|0,0:0|0:0,0:0:0:0:
135,166,148277,1,0,0:0:0:0:
135,166,148450,1,0,3:0:0:0:
62,22,148622,2,0,B|50:59|50:59|57:98,1,80,8|0,0:0|0:0,0:0:0:0:
222,97,148967,6,0,L|261:92,3,40,0|0|0|0,3:0|0:0|0:0|0:0,0:0:0:0:
270,197,149312,2,0,L|302:173,3,40,8|0|0|0,0:0|0:0|0:0|0:0,0:0:0:0:
368,263,149657,2,0,L|384:226,3,40,0|0|0|0,0:0|0:0|3:0|0:0,0:0:0:0:
483,277,150002,2,0,L|478:237,3,40,8|0|0|0,0:0|0:0|0:0|0:0,0:0:0:0:
419,148,150346,6,0,P|415:128|416:108,1,40,0|0,3:0|0:0,0:0:0:0:
497,7,150519,2,0,P|497:26|494:46,1,40,0|0,0:0|0:0,0:0:0:0:
407,143,150691,2,0,P|403:123|404:103,1,40,8|0,0:0|0:0,0:0:0:0:
485,2,150864,2,0,P|485:21|482:41,1,40,0|0,0:0|0:0,0:0:0:0:
322,42,151036,6,0,L|282:45,1,40,0|0,0:0|0:0,0:0:0:0:
161,96,151208,2,0,L|201:100,1,40,0|0,3:0|0:0,0:0:0:0:
311,31,151381,2,0,L|271:34,1,40,8|0,0:0|0:0,0:0:0:0:
150,85,151553,2,0,L|190:89,1,40,0|0,0:0|0:0,0:0:0:0:
66,163,151726,5,0,3:0:0:0:
55,179,151812,1,0,0:0:0:0:
49,198,151898,1,0,0:0:0:0:
48,218,151984,1,0,0:0:0:0:
53,238,152070,1,8,0:0:0:0:
62,256,152157,1,0,0:0:0:0:
75,270,152243,1,0,0:0:0:0:
92,281,152329,1,0,0:0:0:0:
111,287,152415,5,0,0:0:0:0:
119,278,152501,1,0,0:0:0:0:
128,270,152587,1,0,3:0:0:0:
138,264,152673,1,0,0:0:0:0:
149,258,152759,1,8,0:0:0:0:
160,254,152846,1,0,0:0:0:0:
172,251,152932,1,0,0:0:0:0:
184,250,153018,1,0,0:0:0:0:
196,250,153104,5,0,3:0:0:0:
330,304,153967,5,0,3:0:0:0:
350,303,154053,1,0,3:0:0:0:
369,301,154139,1,8,0:0:0:0:
451,218,154484,5,4,3:1:0:0:
256,192,154570,12,0,157070,0:0:0:0:
