osu file format v14

[General]
AudioFilename: audio.mp3
AudioLeadIn: 0
PreviewTime: 87200
Countdown: 0
SampleSet: Normal
StackLeniency: 0.5
Mode: 0
LetterboxInBreaks: 0
WidescreenStoryboard: 1

[Editor]
DistanceSpacing: 1.4
BeatDivisor: 4
GridSize: 32
TimelineZoom: 1.8

[Metadata]
Title:Freefall VIP (feat. Reija Lee)
TitleUnicode:Freefall VIP (feat. Reija Lee)
Artist:Metrik
ArtistUnicode:Metrik
Creator:Slips
Version:Exote's Light Insane
Source:
Tags:liquid dnb drum and n & bass liquicity universal language 2013 cut ver _orange 6 digit exote sinn
BeatmapID:1657662
BeatmapSetID:749003

[Difficulty]
HPDrainRate:6
CircleSize:3.8
OverallDifficulty:7
ApproachRate:8.8
SliderMultiplier:1.6
SliderTickRate:1

[Events]
//Background and Video events
0,0,"wallpaper-2938589.jpg",0,0
//Break Periods
2,44339,54200
2,66408,75924
//Storyboard Layer 0 (Background)
//Storyboard Layer 1 (Fail)
//Storyboard Layer 2 (Pass)
//Storyboard Layer 3 (Foreground)
//Storyboard Sound Samples

[TimingPoints]
2,344.827586206897,4,1,1,60,1,0
21295,-100,4,1,1,5,0,0
21381,-100,4,1,1,60,0,0
32760,-66.6666666666667,4,1,1,60,0,0
32933,-66.6666666666667,4,1,1,5,0,0
33105,-100,4,1,1,60,0,0
44139,-133.333333333333,4,1,1,60,0,0
56208,-200,4,1,1,60,0,0
57933,-133.333333333333,4,1,1,60,0,0
58967,-200,4,1,1,60,0,0
60691,-133.333333333333,4,1,1,60,0,0
61726,-200,4,1,1,60,0,0
63450,-133.333333333333,4,1,1,60,0,0
64484,-200,4,1,1,60,0,0
66208,-133.333333333333,4,1,1,60,0,0
76898,-66.6666666666667,4,1,1,60,0,0
77070,-66.6666666666667,4,1,1,30,0,0
77243,-100,4,1,1,60,0,0
77415,-100,4,1,1,30,0,0
77588,-100,4,1,1,60,0,0
77760,-100,4,1,1,30,0,0
77933,-100,4,1,1,60,0,0
78105,-100,4,1,1,30,0,0
78277,-100,4,1,1,60,0,0
78450,-100,4,1,1,30,0,0
78622,-100,4,1,1,60,0,0
78795,-100,4,1,1,30,0,0
78967,-100,4,1,1,60,0,0
79139,-100,4,1,1,30,0,0
79312,-100,4,1,1,60,0,0
79484,-100,4,1,1,30,0,0
79657,-100,4,1,1,60,0,0
79829,-100,4,1,1,30,0,0
80002,-100,4,1,1,60,0,0
80174,-100,4,1,1,30,0,0
80346,-100,4,1,1,60,0,0
80519,-100,4,1,1,30,0,0
80691,-100,4,1,1,60,0,0
80864,-100,4,1,1,30,0,0
81036,-100,4,1,1,60,0,0
81208,-100,4,1,1,30,0,0
81381,-100,4,1,1,60,0,0
81553,-100,4,1,1,30,0,0
81726,-100,4,1,1,60,0,0
81898,-100,4,1,1,30,0,0
82070,-100,4,1,1,60,0,0
82243,-100,4,1,1,30,0,0
82415,-100,4,1,1,60,0,0
82588,-100,4,1,1,30,0,0
82760,-100,4,1,1,60,0,0
88277,-80,4,1,1,80,0,1
108967,-80,4,1,1,80,0,0
110346,-80,4,1,1,80,0,1
131036,-80,4,1,1,80,0,0
132415,-80,4,1,1,80,0,0
132760,-80,4,1,1,80,0,1
153105,-80,4,1,1,80,0,0
154484,-80,4,1,1,60,0,0

[Colours]
Combo1 : 106,199,234
Combo2 : 69,155,250
Combo3 : 0,78,155
Combo4 : 188,206,239
SliderBorder : 224,236,255

[HitObjects]
256,192,17933,12,0,21295,0:0:0:0:
46,206,21381,5,8,0:0:0:0:
196,187,21553,1,8,0:0:0:0:
94,135,21726,1,8,0:0:0:0:
103,133,21812,1,8,0:0:0:0:
113,132,21898,1,8,0:0:0:0:
123,130,21984,1,8,0:0:0:0:
133,129,22070,6,0,B|189:87|159:24|159:24|141:44|106:36,1,160,4|0,3:1|0:0,0:0:0:0:
122,38,22760,1,0,0:0:0:0:
201,27,22933,2,0,L|122:38,1,80,0|0,3:0|0:0,0:0:0:0:
362,58,23450,6,0,B|418:100|388:163|388:163|370:143|335:151,1,160,0|0,3:0|0:0,0:0:0:0:
351,148,24139,1,0,0:0:0:0:
430,158,24312,2,0,L|351:148,1,80,0|0,3:0|0:0,0:0:0:0:
407,322,24829,6,0,B|425:298|447:295|447:295|333:281,1,160,0|0,3:0|0:0,0:0:0:0:
337,281,25519,1,0,0:0:0:0:
333,357,25691,2,0,P|325:319|337:281,1,80,0|0,3:0|0:0,0:0:0:0:
183,323,26208,6,0,B|194:295|214:286|214:286|100:302,1,160,0|0,3:0|0:0,0:0:0:0:
104,301,26898,1,0,0:0:0:0:
101,224,27070,2,0,P|93:262|105:301,1,80,0|0,3:0|0:0,0:0:0:0:
168,73,27588,6,0,B|117:38|61:55|61:55|51:84|11:104,1,160,0|0,3:0|0:0,0:0:0:0:
32,91,28277,1,0,0:0:0:0:
40,170,28450,2,0,L|32:91,1,80,0|0,3:0|0:0,0:0:0:0:
209,183,28967,6,0,B|259:148|315:165|315:165|325:194|365:214,1,160,0|0,3:0|0:0,0:0:0:0:
345,201,29657,1,0,0:0:0:0:
336,280,29829,2,0,L|345:201,1,80,0|0,3:0|0:0,0:0:0:0:
495,328,30346,6,0,B|512:234|447:270|464:177,1,160,0|0,3:0|0:0,0:0:0:0:
464,178,31036,1,0,0:0:0:0:
456,99,31208,2,0,L|464:178,1,80,0|0,3:0|0:0,0:0:0:0:
357,41,31726,6,0,L|343:215,1,160,0|0,3:0|0:0,0:0:0:0:
345,201,32415,2,0,P|309:185|270:186,1,80,0|0,0:0|3:0,0:0:0:0:
110,108,32760,6,0,P|167:115|211:76,1,120.000004577637,8|0,0:0|0:0,0:0:0:0:
8,12,33105,6,0,L|22:186,1,160,4|0,3:0|0:0,0:0:0:0:
21,171,33795,1,0,0:0:0:0:
27,251,33967,2,0,L|20:153,1,80,0|0,3:0|0:0,0:0:0:0:
6,345,34484,6,0,B|99:362|64:297|157:314,1,160,0|0,3:0|0:0,0:0:0:0:
155,314,35174,1,0,0:0:0:0:
234,322,35346,2,0,L|155:314,1,80,0|0,3:0|0:0,0:0:0:0:
339,348,35864,6,0,B|436:321|436:321|488:351,1,160,0|0,3:0|0:0,0:0:0:0:
487,350,36553,1,0,0:0:0:0:
493,270,36726,2,0,L|487:349,1,80,0|0,3:0|0:0,0:0:0:0:
377,219,37243,6,0,L|364:59,1,160,0|0,3:0|0:0,0:0:0:0:
364,59,37933,1,0,0:0:0:0:
440,52,38105,2,0,P|400:45|357:64,1,80,0|0,3:0|0:0,0:0:0:0:
166,120,38622,6,0,P|102:163|17:140,1,160,0|0,3:0|0:0,0:0:0:0:
25,146,39312,1,0,0:0:0:0:
19,66,39484,2,0,L|24:145,1,80,0|0,3:0|0:0,0:0:0:0:
92,342,40002,6,0,B|72:327|55:327|55:327|103:281|165:308,1,160,0|0,3:0|0:0,0:0:0:0:
165,308,40691,1,0,0:0:0:0:
170,228,40864,2,0,L|165:307,1,80,0|0,0:0|0:0,0:0:0:0:
399,326,41381,5,0,3:0:0:0:
382,210,41553,1,0,0:0:0:0:
487,226,41726,5,0,3:0:0:0:
372,207,41898,1,0,0:0:0:0:
420,112,42070,5,0,3:0:0:0:
366,215,42243,1,0,0:0:0:0:
290,140,42415,5,0,3:0:0:0:
371,223,42588,1,0,0:0:0:0:
277,272,42760,5,0,3:0:0:0:
380,220,42933,1,0,0:0:0:0:
399,326,43105,5,0,3:0:0:0:
382,210,43277,1,0,0:0:0:0:
394,339,43450,5,0,3:0:0:0:
461,185,43622,1,0,0:0:0:0:
399,352,43795,5,0,3:0:0:0:
321,154,43967,1,0,0:0:0:0:
394,365,44139,5,4,3:1:0:0:
420,112,54829,5,8,0:0:0:0:
429,124,55174,6,0,L|360:120,1,60.0000022888184,4|0,3:1|0:0,0:0:0:0:
292,171,55519,1,0,0:0:0:0:
220,114,55691,2,0,L|94:106,1,120.000004577637,0|0,3:0|0:0,0:0:0:0:
200,10,56208,6,0,L|178:252,1,240,0|0,3:0|0:0,0:0:0:0:
178,249,57588,1,0,0:0:0:0:
50,323,57933,6,0,P|79:312|120:314,1,60.0000022888184,0|0,3:0|0:0,0:0:0:0:
178,249,58277,1,0,0:0:0:0:
259,298,58450,2,0,P|312:322|375:310,1,120.000004577637,0|0,3:0|0:0,0:0:0:0:
422,205,58967,6,0,P|393:273|493:236,1,240,0|0,3:0|0:0,0:0:0:0:
495,243,60346,1,0,0:0:0:0:
456,384,60691,6,0,L|449:316,1,60,0|0,3:0|0:0,0:0:0:0:
495,243,61036,1,0,0:0:0:0:
433,175,61208,2,0,L|419:45,1,120.000004577637,0|0,3:0|0:0,0:0:0:0:
306,142,61726,6,0,B|251:79|162:104|162:104|142:148|99:160,1,240,0|0,3:0|0:0,0:0:0:0:
104,158,63105,1,0,0:0:0:0:
14,33,63450,6,0,P|27:57|33:93,1,60.0000022888184,0|0,3:0|0:0,0:0:0:0:
104,158,63795,1,0,0:0:0:0:
239,21,63967,2,0,P|215:67|209:150,1,120.000004577637,0|0,3:0|0:0,0:0:0:0:
92,342,64484,6,0,B|72:327|55:327|55:327|103:281|165:308,1,160,0|0,3:0|0:0,0:0:0:0:
315,326,65519,5,8,0:0:0:0:
165,307,65691,1,8,0:0:0:0:
267,255,65864,1,8,0:0:0:0:
258,253,65950,1,8,0:0:0:0:
248,252,66036,1,8,0:0:0:0:
238,250,66122,1,8,0:0:0:0:
228,249,66208,5,4,3:1:0:0:
444,114,76553,6,0,L|432:200,1,60.0000022888184,0|0,0:0|3:0,0:0:0:0:
273,78,76898,6,0,L|291:208,1,120.000004577637,8|0,0:0|0:0,0:0:0:0:
100,114,77243,6,0,L|87:209,1,80,4|0,3:1|0:0,0:0:0:0:
114,104,77588,2,0,L|101:199,1,80,0|0,3:0|0:0,0:0:0:0:
128,94,77933,2,0,L|115:189,1,80,0|0,3:0|0:0,0:0:0:0:
142,84,78277,2,0,L|129:179,1,80,0|0,3:0|0:0,0:0:0:0:
159,346,78622,6,0,P|119:331|69:337,1,80,0|0,3:0|0:0,0:0:0:0:
174,336,78967,2,0,P|141:308|92:296,1,80,0|0,3:0|0:0,0:0:0:0:
191,331,79312,2,0,P|170:293|127:266,1,80,0|0,3:0|0:0,0:0:0:0:
208,332,79657,2,0,P|200:289|170:249,1,80,0|0,3:0|0:0,0:0:0:0:
381,296,80002,6,0,L|485:291,1,80,0|0,3:0|0:0,0:0:0:0:
369,282,80346,2,0,L|473:277,1,80,0|0,3:0|0:0,0:0:0:0:
357,268,80691,2,0,L|461:263,1,80,0|0,3:0|0:0,0:0:0:0:
345,254,81036,2,0,L|449:249,1,80,0|0,3:0|0:0,0:0:0:0:
420,66,81381,6,0,P|428:104|457:141,1,80,0|0,3:0|0:0,0:0:0:0:
404,59,81726,2,0,P|398:97|413:142,1,80,0|0,3:0|0:0,0:0:0:0:
391,46,82070,2,0,P|372:80|371:127,1,80,0|0,3:0|0:0,0:0:0:0:
383,29,82415,2,0,P|354:54|336:98,1,80,0|0,3:0|0:0,0:0:0:0:
111,52,82760,5,0,3:0:0:0:
136,167,82933,1,0,3:0:0:0:
35,190,83105,5,0,3:0:0:0:
151,164,83278,1,0,3:0:0:0:
175,265,83450,5,0,3:0:0:0:
149,149,83623,1,0,3:0:0:0:
249,126,83794,5,0,3:0:0:0:
133,152,83967,1,0,3:0:0:0:
111,52,84139,5,0,3:0:0:0:
136,167,84312,1,0,3:0:0:0:
117,40,84484,5,0,3:0:0:0:
35,190,84657,1,0,3:0:0:0:
111,29,84829,5,0,3:0:0:0:
209,197,85002,1,0,3:0:0:0:
117,20,85174,5,0,3:0:0:0:
95,244,85346,1,0,3:0:0:0:
249,126,85519,5,0,3:0:0:0:
268,124,85605,1,0,3:0:0:0:
288,123,85691,1,0,3:0:0:0:
308,122,85777,1,0,3:0:0:0:
328,121,85864,6,0,L|386:117,1,40,0|0,3:0|3:0,0:0:0:0:
448,113,86036,2,0,L|507:109,1,40,0|0,3:0|3:0,0:0:0:0:
476,267,86208,5,0,3:0:0:0:
446,266,86294,1,0,3:0:0:0:
416,265,86380,1,0,3:0:0:0:
386,264,86466,1,0,3:0:0:0:
356,263,86553,6,0,L|316:262,1,40,0|0,3:0|3:0,0:0:0:0:
236,258,86726,2,0,L|196:257,1,40,0|0,3:0|3:0,0:0:0:0:
196,257,87588,5,0,3:0:0:0:
356,263,87760,1,0,3:0:0:0:
290,338,87933,5,0,3:0:0:0:
280,337,88019,1,0,3:0:0:0:
270,337,88105,1,0,3:0:0:0:
260,337,88191,1,0,3:0:0:0:
250,337,88277,6,0,L|140:333,1,100,4|0,3:1|0:0,0:0:0:0:
79,212,88622,1,8,0:0:0:0:
10,289,88795,1,0,0:0:0:0:
134,144,88967,6,0,P|88:126|35:136,1,100,0|0,0:0|3:0,0:0:0:0:
3,269,89312,1,8,0:0:0:0:
39,134,89484,6,0,P|85:116|138:126,1,100,0|0,0:0|3:0,0:0:0:0:
220,10,89829,2,0,P|251:48|258:101,1,100,0|8,0:0|0:0,0:0:0:0:
134,144,90174,1,0,0:0:0:0:
261,116,90346,6,0,L|371:112,1,100,0|0,0:0|3:0,0:0:0:0:
487,196,90691,1,8,0:0:0:0:
407,258,90864,1,0,0:0:0:0:
486,92,91036,6,0,P|491:141|471:186,1,100,0|0,3:0|0:0,0:0:0:0:
323,199,91381,1,8,0:0:0:0:
407,258,91553,1,0,0:0:0:0:
243,261,91726,6,0,L|250:367,1,100,0|0,0:0|3:0,0:0:0:0:
327,223,92070,1,8,0:0:0:0:
233,346,92243,6,0,P|185:330|135:337,1,100,0|0,0:0|3:0,0:0:0:0:
40,246,92588,2,0,P|9:286|1:336,1,100,0|8,0:0|0:0,0:0:0:0:
148,320,92933,1,0,0:0:0:0:
29,230,93105,6,0,L|35:130,1,100,0|0,0:0|3:0,0:0:0:0:
205,132,93450,1,8,0:0:0:0:
125,202,93622,1,0,0:0:0:0:
162,38,93795,6,0,P|213:29|266:48,1,100,0|0,3:0|0:0,0:0:0:0:
266,212,94139,2,0,B|229:265|229:265|204:131,1,200,8|0,0:0|0:0,0:0:0:0:
258,43,94657,1,0,3:0:0:0:
410,124,94829,2,0,L|401:239,1,100,8|0,0:0|0:0,0:0:0:0:
274,312,95174,6,0,L|266:212,1,100,0|0,3:0|0:0,0:0:0:0:
423,236,95519,2,0,B|466:286|436:360|436:360|403:323|347:336,1,200,8|0,0:0|0:0,0:0:0:0:
274,312,96036,1,0,3:0:0:0:
444,249,96208,2,0,L|451:149,1,100,8|0,0:0|0:0,0:0:0:0:
300,87,96553,6,0,L|309:202,1,100,0|0,3:0|0:0,0:0:0:0:
165,249,96898,2,0,B|122:199|152:125|152:125|185:162|241:149,1,200,8|0,0:0|0:0,0:0:0:0:
300,87,97415,1,0,3:0:0:0:
155,26,97588,2,0,L|30:21,1,100,8|0,0:0|0:0,0:0:0:0:
0,167,97933,6,0,L|125:162,1,100,0|0,3:0|0:0,0:0:0:0:
155,308,98277,2,0,L|30:303,1,100,8|0,0:0|0:0,0:0:0:0:
111,181,98622,1,0,0:0:0:0:
167,326,98795,1,0,3:0:0:0:
179,344,98881,1,8,0:0:0:0:
191,362,98967,2,0,P|242:371|291:348,1,100,8|8,0:0|0:0,0:0:0:0:
315,163,99312,5,4,3:1:0:0:
229,270,99484,1,0,0:0:0:0:
366,292,99657,1,8,0:0:0:0:
300,173,99829,2,0,L|87:162,1,200,0|0,0:0|3:0,0:0:0:0:
27,26,100346,2,0,L|126:20,1,100,8|0,0:0|0:0,0:0:0:0:
279,57,100691,5,0,3:0:0:0:
186,152,100864,1,0,0:0:0:0:
150,23,101036,1,8,0:0:0:0:
269,73,101208,2,8,B|289:145|234:203|234:203|233:160|187:137,1,200,0|0,0:0|3:0,0:0:0:0:
50,223,101726,2,0,P|98:230|154:209,1,100,8|0,0:0|0:0,0:0:0:0:
244,342,102070,5,0,3:0:0:0:
161,231,102243,1,0,0:0:0:0:
107,358,102415,1,8,0:0:0:0:
229,328,102588,2,0,B|344:288|310:371|427:328,1,200,0|0,0:0|3:0,0:0:0:0:
360,157,103105,2,0,P|352:204|379:258,1,100,8|0,0:0|0:0,0:0:0:0:
509,140,103450,5,0,3:0:0:0:
419,39,103622,1,0,0:0:0:0:
377,167,103795,1,8,0:0:0:0:
491,149,103967,2,0,B|470:91|511:38|511:38|473:66|407:44,1,200,0|0,0:0|3:0,0:0:0:0:
271,74,104484,2,0,P|221:80|174:65,1,100,8|0,0:0|0:0,0:0:0:0:
37,188,104829,5,0,3:0:0:0:
52,181,104915,1,0,0:0:0:0:
68,177,105001,1,0,0:0:0:0:
85,176,105087,1,0,0:0:0:0:
101,177,105174,2,0,L|97:246,3,50,8|0|0|0,0:0|0:0|0:0|0:0,0:0:0:0:
158,290,105519,5,0,0:0:0:0:
173,296,105605,1,0,0:0:0:0:
189,300,105691,1,0,3:0:0:0:
206,301,105777,1,0,0:0:0:0:
222,301,105864,2,0,L|218:232,3,50,8|0|0|0,0:0|0:0|0:0|0:0,0:0:0:0:
325,221,106208,5,0,3:0:0:0:
326,245,106294,1,0,0:0:0:0:
328,270,106380,1,0,0:0:0:0:
330,295,106466,1,0,0:0:0:0:
332,320,106553,2,0,P|353:313|389:311,3,50,8|0|0|0,0:0|0:0|0:0|0:0,0:0:0:0:
456,268,106898,5,0,0:0:0:0:
457,243,106984,1,0,0:0:0:0:
459,218,107070,1,0,3:0:0:0:
461,193,107156,1,0,0:0:0:0:
463,169,107243,2,0,P|484:176|520:178,3,50,8|0|0|0,0:0|0:0|0:0|0:0,0:0:0:0:
427,79,107588,6,0,P|440:60|451:34,3,50,0|0|0|0,3:0|0:0|0:0|0:0,0:0:0:0:
329,84,107933,2,0,P|317:67|297:49,3,50,8|0|0|0,0:0|0:0|0:0|0:0,0:0:0:0:
306,178,108277,2,0,P|284:184|261:201,3,50,0|0|0|0,0:0|0:0|3:0|0:0,0:0:0:0:
389,231,108622,2,0,P|388:253|396:280,3,50,8|0|0|0,0:0|0:0|0:0|0:0,0:0:0:0:
463,169,108967,5,8,0:0:0:0:
306,178,109139,1,0,3:0:0:0:
427,79,109312,5,8,0:0:0:0:
389,231,109484,1,0,3:0:0:0:
329,84,109657,5,8,0:0:0:0:
463,169,109829,1,0,3:0:0:0:
463,169,109915,1,0,3:0:0:0:
463,169,110002,5,8,0:0:0:0:
306,178,110174,1,0,3:0:0:0:
427,79,110346,6,0,B|454:48|492:51|492:51|445:-14|368:27,1,200,4|8,3:1|0:0,0:0:0:0:
238,75,110864,2,0,L|60:70,1,150,0|0,0:0|0:0,0:0:0:0:
68,70,111208,1,0,3:0:0:0:
157,188,111381,2,0,L|256:185,1,100,8|0,0:0|0:0,0:0:0:0:
117,308,111726,6,0,L|18:305,1,100,0|0,3:0|0:0,0:0:0:0:
157,188,112070,2,0,L|256:191,1,100,8|0,0:0|0:0,0:0:0:0:
117,308,112415,6,0,L|18:311,1,100,0|0,0:0|3:0,0:0:0:0:
157,188,112760,2,0,L|256:185,1,100,8|0,0:0|0:0,0:0:0:0:
404,320,113105,5,0,3:0:0:0:
331,216,113277,1,0,0:0:0:0:
278,331,113450,1,8,0:0:0:0:
417,306,113622,2,0,L|407:147,1,150,0|0,0:0|0:0,0:0:0:0:
406,137,113967,1,0,3:0:0:0:
512,26,114139,2,0,L|506:140,1,100,8|0,0:0|0:0,0:0:0:0:
333,63,114484,6,0,B|294:25|241:30|241:30|224:58|175:70,1,150,0|0,3:0|0:0,0:0:0:0:
185,68,114829,1,8,0:0:0:0:
20,51,115002,2,0,B|50:13|50:13|62:132,1,150,0|0,0:0|0:0,0:0:0:0:
63,134,115346,1,0,3:0:0:0:
222,154,115519,2,0,L|218:271,1,100,8|0,0:0|0:0,0:0:0:0:
90,348,115864,6,0,P|166:292|272:342,1,200,0|8,3:0|0:0,0:0:0:0:
411,378,116381,2,0,B|382:335|382:335|394:237,1,150,0|0,0:0|0:0,0:0:0:0:
397,218,116726,1,0,3:0:0:0:
492,117,116898,2,0,P|510:71|502:14,1,100,8|0,0:0|0:0,0:0:0:0:
336,108,117243,5,0,3:0:0:0:
469,130,117415,1,0,0:0:0:0:
422,3,117588,1,8,0:0:0:0:
325,87,117760,2,0,B|277:117|277:117|165:92,1,150,0|0,0:0|0:0,0:0:0:0:
166,91,118105,1,0,3:0:0:0:
37,201,118277,2,0,P|83:192|137:208,1,100,8|0,0:0|0:0,0:0:0:0:
215,334,118622,5,0,3:0:0:0:
125,227,118795,1,0,0:0:0:0:
79,359,118967,1,8,0:0:0:0:
229,354,119139,2,0,B|327:330|287:383|394:353,1,150,0|0,0:0|0:0,0:0:0:0:
394,350,119484,1,0,3:0:0:0:
490,228,119657,2,0,P|497:280|472:344,1,100,8|0,0:0|0:0,0:0:0:0:
346,264,120002,5,0,3:0:0:0:
476,243,120174,1,0,0:0:0:0:
393,141,120346,1,8,0:0:0:0:
328,273,120519,2,0,B|271:287|230:256|230:256|269:235|268:187,1,150,0|0,0:0|0:0,0:0:0:0:
191,187,120864,1,0,3:0:0:0:
172,200,120950,1,8,0:0:0:0:
153,211,121036,2,0,L|68:209,1,50,8|0,0:0|0:0,0:0:0:0:
50,153,121208,2,0,L|-35:151,1,50,8|0,0:0|0:0,0:0:0:0:
2,45,121381,6,0,L|161:37,1,150,4|0,3:1|0:0,0:0:0:0:
171,35,121726,1,8,0:0:0:0:
329,71,121898,2,0,B|393:78|429:35|429:35|451:56|490:59,1,150,0|0,0:0|0:0,0:0:0:0:
481,59,122243,1,0,3:0:0:0:
493,214,122415,2,0,L|366:209,1,100,8|0,0:0|0:0,0:0:0:0:
254,327,122760,6,0,L|353:324,1,100,0|0,3:0|0:0,0:0:0:0:
493,214,123105,2,0,L|394:217,1,100,8|0,0:0|0:0,0:0:0:0:
254,327,123450,6,0,L|353:330,1,100,0|0,0:0|3:0,0:0:0:0:
493,214,123795,2,0,L|394:211,1,100,8|0,0:0|0:0,0:0:0:0:
242,313,124139,5,0,3:0:0:0:
191,198,124312,1,0,0:0:0:0:
316,211,124484,1,8,0:0:0:0:
254,327,124657,2,0,B|165:352|205:299|107:323,1,150,0|0,0:0|0:0,0:0:0:0:
89,331,125002,1,0,3:0:0:0:
12,197,125174,2,0,L|1:313,1,100,8|0,0:0|0:0,0:0:0:0:
163,224,125519,6,0,L|148:62,1,150,0|0,3:0|0:0,0:0:0:0:
146,54,125864,1,8,0:0:0:0:
314,10,126036,2,0,B|318:106|274:57|277:152,1,150,0|0,0:0|0:0,0:0:0:0:
277,171,126381,1,0,3:0:0:0:
397,243,126553,2,0,L|390:144,1,100,8|0,0:0|0:0,0:0:0:0:
509,5,126898,5,0,3:0:0:0:
508,22,126984,1,0,0:0:0:0:
507,38,127070,1,0,0:0:0:0:
506,55,127156,1,0,0:0:0:0:
505,72,127243,2,0,P|481:80|448:80,3,50,8|0|0|0,0:0|0:0|0:0|0:0,0:0:0:0:
391,143,127588,5,0,0:0:0:0:
392,159,127674,1,0,0:0:0:0:
393,176,127760,1,0,3:0:0:0:
394,192,127846,1,0,0:0:0:0:
395,209,127933,2,0,P|419:217|452:217,3,50,8|0|0|0,0:0|0:0|0:0|0:0,0:0:0:0:
512,302,128277,5,0,3:0:0:0:
487,298,128363,1,0,0:0:0:0:
462,300,128449,1,0,0:0:0:0:
438,308,128535,1,0,0:0:0:0:
416,320,128622,2,0,L|419:377,3,50,8|0|0|0,0:0|0:0|0:0|0:0,0:0:0:0:
327,362,128967,5,0,0:0:0:0:
302,365,129053,1,0,0:0:0:0:
277,363,129139,1,0,3:0:0:0:
253,355,129225,1,0,0:0:0:0:
231,344,129312,2,0,L|234:287,3,50,8|0|0|0,0:0|0:0|0:0|0:0,0:0:0:0:
152,215,129657,6,0,L|200:201,3,50,0|0|0|0,3:0|0:0|0:0|0:0,0:0:0:0:
250,99,130002,2,0,L|277:140,3,50,8|0|0|0,0:0|0:0|0:0|0:0,0:0:0:0:
390,157,130346,2,0,L|357:196,3,50,0|0|0|0,0:0|0:0|3:0|0:0,0:0:0:0:
378,307,130691,2,0,L|329:288,3,50,8|0|0|0,0:0|0:0|0:0|0:0,0:0:0:0:
231,344,131036,5,0,3:0:0:0:
231,344,131898,1,0,3:0:0:0:
232,319,131984,1,0,3:0:0:0:
233,294,132070,1,8,0:0:0:0:
233,294,132415,5,0,3:0:0:0:
83,313,132588,1,0,3:0:0:0:
240,180,132760,6,0,L|141:171,1,100,12|0,0:0|0:0,0:0:0:0:
42,164,133105,1,0,0:0:0:0:
140,152,133277,1,0,3:0:0:0:
1,75,133450,2,0,L|100:65,1,100,8|0,0:0|0:0,0:0:0:0:
254,8,133795,6,0,B|331:15|331:15|356:9|356:9|378:19|378:19|465:27,1,200,0|8,3:0|0:0,0:0:0:0:
512,108,134312,1,0,0:0:0:0:
453,193,134484,2,0,L|354:203,1,100,0|0,0:0|3:0,0:0:0:0:
512,127,134829,1,8,0:0:0:0:
512,287,135002,6,0,L|299:307,1,200,0|0,0:0|0:0,0:0:0:0:
148,342,135519,2,0,P|199:348|255:377,1,100,8|0,0:0|0:0,0:0:0:0:
319,288,135864,1,0,0:0:0:0:
242,368,136036,1,0,3:0:0:0:
149,226,136208,2,0,L|157:325,1,100,8|0,0:0|0:0,0:0:0:0:
0,368,136553,6,0,L|16:167,1,200,0|8,3:0|0:0,0:0:0:0:
86,90,137070,1,0,0:0:0:0:
182,133,137243,2,0,P|229:148|279:149,1,100,0|0,0:0|3:0,0:0:0:0:
442,106,137588,2,0,P|404:139|379:182,1,100,8|0,0:0|0:0,0:0:0:0:
335,344,137933,6,0,P|325:294|300:251,1,100,0|0,3:0|0:0,0:0:0:0:
182,133,138277,1,8,0:0:0:0:
199,236,138450,1,0,0:0:0:0:
301,252,138622,2,0,L|425:245,1,100,0|0,0:0|3:0,0:0:0:0:
512,136,138967,2,0,L|388:129,1,100,8|0,0:0|0:0,0:0:0:0:
259,41,139312,6,0,B|317:-7|388:25|388:25|341:32|315:85,1,200,0|8,3:0|0:0,0:0:0:0:
413,130,139829,1,0,0:0:0:0:
504,84,140002,2,0,P|515:136|492:198,1,100,0|0,0:0|3:0,0:0:0:0:
329,178,140346,2,0,P|368:142|433:131,1,100,8|0,0:0|0:0,0:0:0:0:
498,283,140691,6,0,P|447:266|405:215,1,100,0|0,3:0|0:0,0:0:0:0:
504,84,141036,1,8,0:0:0:0:
503,180,141208,1,0,0:0:0:0:
413,130,141381,2,0,L|289:123,1,100,0|0,0:0|3:0,0:0:0:0:
201,257,141726,2,0,L|325:250,1,100,8|0,0:0|0:0,0:0:0:0:
413,384,142070,6,0,L|289:377,1,100,0|0,3:0|0:0,0:0:0:0:
189,278,142415,1,8,0:0:0:0:
287,282,142588,1,0,0:0:0:0:
313,378,142760,1,0,0:0:0:0:
149,368,142933,1,0,3:0:0:0:
124,366,143019,1,8,0:0:0:0:
99,365,143105,2,0,L|93:301,1,50,8|0,0:0|0:0,0:0:0:0:
22,280,143277,2,0,L|16:216,1,50,8|0,0:0|0:0,0:0:0:0:
3,120,143450,6,0,B|79:116|79:116|117:143|117:143|196:138,1,200,4|8,3:1|0:0,0:0:0:0:
268,221,143967,2,0,P|299:174|300:117,1,100,0|0,0:0|0:0,0:0:0:0:
194,138,144312,1,0,3:0:0:0:
330,25,144484,2,0,L|429:30,1,100,8|0,0:0|0:0,0:0:0:0:
512,163,144829,6,0,B|381:175|381:175|436:179|464:241,1,200,0|8,3:0|0:0,0:0:0:0:
373,277,145346,1,0,0:0:0:0:
421,364,145519,2,0,L|529:368,1,100,0|0,0:0|3:0,0:0:0:0:
366,297,145864,1,8,0:0:0:0:
230,367,146036,6,0,B|152:371|152:371|128:364|128:364|105:373|105:373|32:377,1,200,0|0,0:0|0:0,0:0:0:0:
124,252,146553,2,0,P|146:206|146:147,1,100,8|0,0:0|0:0,0:0:0:0:
111,53,146898,1,0,0:0:0:0:
168,142,147070,1,0,3:0:0:0:
279,15,147243,2,0,L|267:144,1,100,8|0,0:0|0:0,0:0:0:0:
422,203,147588,6,0,L|394:5,1,200,0|8,3:0|0:0,0:0:0:0:
291,40,148105,1,0,0:0:0:0:
372,111,148277,2,0,P|420:100|468:111,1,100,0|0,0:0|3:0,0:0:0:0:
317,197,148622,2,0,P|284:161|269:113,1,100,8|0,0:0|0:0,0:0:0:0:
422,203,148967,5,0,3:0:0:0:
422,219,149053,1,0,0:0:0:0:
418,235,149139,1,0,0:0:0:0:
411,250,149225,1,0,0:0:0:0:
401,264,149312,2,0,L|486:260,3,50,8|0|0|0,0:0|0:0|0:0|0:0,0:0:0:0:
322,303,149657,5,0,0:0:0:0:
322,319,149743,1,0,0:0:0:0:
326,335,149829,1,0,3:0:0:0:
333,350,149915,1,0,0:0:0:0:
343,364,150002,2,0,L|258:360,3,50,8|0|0|0,0:0|0:0|0:0|0:0,0:0:0:0:
181,325,150346,5,0,3:0:0:0:
156,326,150432,1,0,0:0:0:0:
131,328,150518,1,0,0:0:0:0:
106,330,150604,1,0,0:0:0:0:
81,332,150691,2,0,P|69:308|64:262,3,50,8|0|0|0,0:0|0:0|0:0|0:0,0:0:0:0:
129,213,151036,5,0,0:0:0:0:
154,214,151122,1,0,0:0:0:0:
179,216,151208,1,0,3:0:0:0:
204,218,151294,1,0,0:0:0:0:
229,220,151381,2,0,P|242:194|246:150,3,50,8|0|0|0,0:0|0:0|0:0|0:0,0:0:0:0:
209,67,151726,6,0,P|237:71|280:61,3,50,0|0|0|0,3:0|0:0|0:0|0:0,0:0:0:0:
348,0,152070,2,0,P|352:28|375:66,3,50,8|0|0|0,0:0|0:0|0:0|0:0,0:0:0:0:
454,111,152415,2,0,P|428:124|399:157,3,50,0|0|0|0,0:0|0:0|3:0|0:0,0:0:0:0:
381,246,152760,2,0,P|360:225|319:208,3,50,8|0|0|0,0:0|0:0|0:0|0:0,0:0:0:0:
229,220,153105,5,0,3:0:0:0:
229,220,153967,1,0,3:0:0:0:
204,218,154053,1,0,3:0:0:0:
179,216,154139,1,8,0:0:0:0:
179,216,154484,5,4,3:1:0:0:
