osu file format v14

[General]
AudioFilename: audio.mp3
AudioLeadIn: 0
PreviewTime: 87200
Countdown: 0
SampleSet: Normal
StackLeniency: 0.2
Mode: 0
LetterboxInBreaks: 0
WidescreenStoryboard: 0

[Editor]
Bookmarks: 55174,66208,99312,108967,143450,153105
DistanceSpacing: 1.4
BeatDivisor: 4
GridSize: 8
TimelineZoom: 1

[Metadata]
Title:Freefall VIP (feat. Reija Lee)
TitleUnicode:Freefall VIP (feat. Reija Lee)
Artist:Metrik
ArtistUnicode:Metrik
Creator:Slips
Version:Collab Hard
Source:
Tags:liquid dnb drum and n & bass liquicity universal language 2013 cut ver _orange 6 digit exote sinn
BeatmapID:1580894
BeatmapSetID:749003

[Difficulty]
HPDrainRate:5.5
CircleSize:4
OverallDifficulty:6.5
ApproachRate:7.8
SliderMultiplier:1.4
SliderTickRate:1

[Events]
//Background and Video events
0,0,"wallpaper-2938589.jpg",0,0
//Break Periods
2,44339,54050
2,66408,76119
//Storyboard Layer 0 (Background)
//Storyboard Layer 1 (Fail)
//Storyboard Layer 2 (Pass)
//Storyboard Layer 3 (Foreground)
//Storyboard Sound Samples

[TimingPoints]
2,344.827586206897,4,1,1,60,1,0
22070,-125,4,1,1,60,0,0
55174,-111.111111111111,4,1,1,60,0,0
56208,-142.857142857143,4,1,1,60,0,0
57933,-111.111111111111,4,1,1,60,0,0
58967,-142.857142857143,4,1,1,60,0,0
60691,-111.111111111111,4,1,1,60,0,0
61726,-142.857142857143,4,1,1,60,0,0
63450,-111.111111111111,4,1,1,60,0,0
88277,-100,4,1,1,80,0,1
108967,-100,4,1,1,80,0,0
132415,-142.857142857143,4,1,1,80,0,0
132760,-100,4,1,1,80,0,1
153105,-100,4,1,1,80,0,0

[Colours]
Combo1 : 106,199,234
Combo2 : 69,155,250
Combo3 : 0,78,155
Combo4 : 188,206,239
SliderBorder : 224,236,255

[HitObjects]
256,192,17933,12,8,21381,0:0:0:0:
117,66,22070,6,0,B|93:101|106:148|106:148|113:128|135:115,1,112,4|0,3:1|0:0,0:0:0:0:
194,103,22588,2,0,L|266:113,1,56,0|0,0:0|0:0,0:0:0:0:
313,156,22933,1,0,3:0:0:0:
381,118,23105,1,0,0:0:0:0:
381,118,23450,6,0,P|356:176|386:232,1,112,0|0,3:0|0:0,0:0:0:0:
350,294,23967,2,0,L|285:284,1,56,0|0,0:0|0:0,0:0:0:0:
225,322,24312,1,0,3:0:0:0:
180,257,24484,2,0,L|180:188,1,56,0|0,0:0|0:0,0:0:0:0:
121,147,24829,6,0,B|82:141|49:165|49:165|75:175|85:200,1,112,0|0,3:0|0:0,0:0:0:0:
86,265,25346,2,0,L|75:337,1,56,0|0,0:0|0:0,0:0:0:0:
131,377,25691,1,0,3:0:0:0:
204,347,25864,1,0,0:0:0:0:
204,347,26208,6,0,B|284:357|284:357|269:342|266:323,1,112,0|0,3:0|0:0,0:0:0:0:
258,251,26726,1,0,0:0:0:0:
307,190,26898,2,0,L|370:198,1,56,0|0,0:0|3:0,0:0:0:0:
258,251,27243,2,0,L|202:243,1,56,0|0,0:0|0:0,0:0:0:0:
142,192,27588,6,0,B|131:158|145:119|145:119|137:139|114:150,1,112,0|0,3:0|0:0,0:0:0:0:
47,115,28105,2,0,L|38:40,1,56,0|0,0:0|0:0,0:0:0:0:
108,20,28450,1,0,3:0:0:0:
180,49,28622,1,0,0:0:0:0:
180,49,28967,6,0,B|244:65|234:13|311:37,1,112,0|0,3:0|0:0,0:0:0:0:
346,87,29484,2,0,L|335:147,1,56,0|0,0:0|0:0,0:0:0:0:
360,216,29829,1,0,3:0:0:0:
309,275,30002,1,0,0:0:0:0:
309,275,30346,6,0,B|348:258|391:281|391:281|370:283|353:302,1,112,0|0,3:0|0:0,0:0:0:0:
225,303,30864,2,0,P|219:271|232:232,1,56,0|0,0:0|0:0,0:0:0:0:
181,182,31208,1,0,3:0:0:0:
105,205,31381,1,0,0:0:0:0:
105,205,31726,6,0,L|120:78,1,112,0|0,3:0|0:0,0:0:0:0:
173,37,32243,1,0,0:0:0:0:
242,72,32415,2,0,L|299:64,1,56,0|0,0:0|3:0,0:0:0:0:
420,30,32760,2,0,L|365:23,1,56,8|0,0:0|0:0,0:0:0:0:
297,64,33105,6,0,B|276:96|283:136|283:136|303:117|330:118,1,112,4|0,3:0|0:0,0:0:0:0:
392,131,33622,2,0,L|392:195,1,56,0|0,0:0|0:0,0:0:0:0:
426,257,33967,1,0,3:0:0:0:
366,307,34139,1,0,0:0:0:0:
366,307,34484,6,0,B|330:301|330:301|290:305|290:305|234:297,1,112,0|0,3:0|0:0,0:0:0:0:
196,247,35002,2,0,L|136:258,1,56,0|0,0:0|0:0,0:0:0:0:
69,225,35346,1,0,3:0:0:0:
88,148,35519,2,0,L|88:88,1,56,0|0,0:0|0:0,0:0:0:0:
147,40,35864,6,0,B|225:59|225:59|205:59|185:77,1,112,0|0,3:0|0:0,0:0:0:0:
228,140,36381,2,0,L|233:203,1,56,0|0,0:0|0:0,0:0:0:0:
198,266,36726,1,0,3:0:0:0:
270,295,36898,1,0,0:0:0:0:
270,295,37243,6,0,P|323:307|370:279,1,112,0|0,3:0|0:0,0:0:0:0:
398,205,37760,1,0,0:0:0:0:
356,138,37933,2,0,L|365:73,1,56,0|0,0:0|3:0,0:0:0:0:
375,5,38277,1,0,0:0:0:0:
375,5,38622,5,0,3:0:0:0:
256,192,38708,12,0,41036,0:0:0:0:
194,88,41381,6,0,P|187:116|152:154,1,56,0|0,3:0|0:0,0:0:0:0:
137,218,41726,2,0,P|162:233|188:278,1,56,0|0,3:0|0:0,0:0:0:0:
245,312,42070,2,0,P|267:293|317:283,1,56,0|0,3:0|0:0,0:0:0:0:
367,239,42415,2,0,P|356:212|361:161,1,56,0|0,3:0|0:0,0:0:0:0:
335,100,42760,2,0,P|306:103|259:81,1,56,0|0,3:0|0:0,0:0:0:0:
185,143,43105,6,0,L|194:82,1,56,0|0,3:0|0:0,0:0:0:0:
271,242,43450,2,0,L|262:186,1,56,0|0,3:0|0:0,0:0:0:0:
159,322,43795,2,0,P|155:296|158:266,1,56,0|0,3:0|0:0,0:0:0:0:
287,352,44139,5,4,3:1:0:0:
379,145,54829,5,8,0:0:0:0:
379,145,55174,2,0,P|396:174|396:210,2,62.9999980773926,4|0|0,3:1|0:0|0:0,0:0:0:0:
306,196,55691,2,0,L|242:194,1,62.9999980773926,0|0,3:0|0:0,0:0:0:0:
176,135,56036,1,0,0:0:0:0:
95,170,56208,6,0,P|59:213|153:220,1,195.999994018555,0|0,3:0|0:0,0:0:0:0:
150,230,57588,1,0,0:0:0:0:
278,350,57933,6,0,P|308:353|350:335,2,62.9999980773926,0|0|0,3:0|0:0|0:0,0:0:0:0:
299,264,58450,2,0,L|300:194,1,62.9999980773926,0|0,3:0|0:0,0:0:0:0:
344,124,58795,1,0,0:0:0:0:
265,84,58967,6,0,P|246:43|350:36,1,195.999994018555,0|0,3:0|0:0,0:0:0:0:
349,30,60346,1,0,0:0:0:0:
267,186,60691,6,0,P|238:183|207:165,2,62.9999980773926,0|0|0,3:0|0:0|0:0,0:0:0:0:
351,160,61208,2,0,L|345:242,1,62.9999980773926,0|0,3:0|0:0,0:0:0:0:
308,302,61553,1,0,0:0:0:0:
388,360,61726,6,0,P|434:373|435:269,1,195.999994018555,0|0,3:0|0:0,0:0:0:0:
435,269,63105,1,0,0:0:0:0:
275,344,63450,6,0,P|247:352|208:346,2,62.9999980773926,0|0|0,3:0|0:0|0:0,0:0:0:0:
289,256,63967,2,0,L|276:185,1,62.9999980773926,0|0,3:0|0:0,0:0:0:0:
324,114,64312,1,0,0:0:0:0:
202,71,64484,5,0,3:0:0:0:
256,192,64570,12,4,66208,3:1:0:0:
207,205,76898,5,8,0:0:0:0:
207,205,77243,2,0,B|169:184|124:194|124:194|146:202|162:222,3,125.999996154785,4|0|0|0,3:1|3:0|3:0|3:0,0:0:0:0:
319,147,78622,6,0,B|288:115|298:65|298:65|290:91|263:107,3,125.999996154785,0|0|0|0,3:0|3:0|3:0|3:0,0:0:0:0:
344,260,80002,6,0,P|296:294|273:238,3,125.999996154785,0|0|0|0,3:0|3:0|3:0|3:0,0:0:0:0:
133,135,81381,6,0,B|110:180|122:227|122:227|136:212|158:208,3,125.999996154785,0|0|0|0,3:0|3:0|3:0|3:0,0:0:0:0:
346,111,82760,6,0,P|358:136|354:192,1,62.9999980773926,0|0,3:0|3:0,0:0:0:0:
214,160,83105,2,0,P|242:156|295:172,1,62.9999980773926,0|0,3:0|3:0,0:0:0:0:
211,296,83450,2,0,P|220:268|261:231,1,62.9999980773926,0|0,3:0|3:0,0:0:0:0:
340,357,83795,2,0,P|317:339|293:289,1,62.9999980773926,0|0,3:0|3:0,0:0:0:0:
426,233,84139,6,0,P|410:256|374:281,1,62.9999980773926,0|0,3:0|3:0,0:0:0:0:
317,141,84484,2,0,P|334:162|345:201,1,62.9999980773926,0|0,3:0|3:0,0:0:0:0:
441,90,84829,2,0,P|422:119|414:152,1,62.9999980773926,0|0,3:0|3:0,0:0:0:0:
340,17,85174,2,0,P|354:42|359:78,1,62.9999980773926,0|0,3:0|3:0,0:0:0:0:
271,71,85519,6,0,P|254:70|226:63,3,31.4999990386963,0|0|0|0,3:0|3:0|3:0|3:0,0:0:0:0:
196,41,85864,2,0,P|180:43|164:44,3,31.4999990386963,0|0|0|0,3:0|3:0|3:0|3:0,0:0:0:0:
121,71,86208,2,0,P|105:68|89:67,3,31.4999990386963,0|0|0|0,3:0|3:0|3:0|3:0,0:0:0:0:
51,44,86553,2,0,P|35:46|19:47,3,31.4999990386963,0|0|0|0,3:0|3:0|3:0|3:0,0:0:0:0:
65,180,87588,5,0,3:0:0:0:
152,169,87760,1,0,3:0:0:0:
231,207,87933,2,0,L|271:202,2,31.4999990386963,0|0|0,3:0|3:0|3:0,0:0:0:0:
152,169,88277,6,0,B|129:119|163:71|163:71|179:98|204:100,1,140,4|8,3:1|0:0,0:0:0:0:
282,65,88795,1,0,0:0:0:0:
351,133,88967,2,0,L|429:120,1,70,0|0,0:0|3:0,0:0:0:0:
486,48,89312,1,8,0:0:0:0:
420,121,89484,6,0,P|424:162|454:207,1,70,0|0,0:0|3:0,0:0:0:0:
509,253,89829,2,0,P|485:286|479:340,1,70,0|8,0:0|0:0,0:0:0:0:
397,370,90174,1,0,0:0:0:0:
318,311,90346,2,0,L|247:319,1,70,0|0,0:0|3:0,0:0:0:0:
165,371,90691,1,8,0:0:0:0:
78,324,90864,1,0,0:0:0:0:
147,189,91036,6,0,B|124:141|140:89|140:89|129:114|101:123,1,140,0|8,3:0|0:0,0:0:0:0:
18,108,91553,1,0,0:0:0:0:
52,200,91726,2,0,P|51:237|39:271,1,70,0|0,0:0|3:0,0:0:0:0:
92,350,92070,1,8,0:0:0:0:
179,305,92243,6,0,L|256:315,1,70,0|0,0:0|3:0,0:0:0:0:
334,361,92588,2,0,L|403:351,1,70,0|8,0:0|0:0,0:0:0:0:
475,285,92933,1,0,0:0:0:0:
409,212,93105,2,0,P|399:172|407:127,1,70,0|0,0:0|3:0,0:0:0:0:
440,53,93450,1,8,0:0:0:0:
347,85,93622,1,0,0:0:0:0:
211,17,93795,6,0,B|161:11|116:42|116:42|154:36|182:57,1,140,0|8,3:0|0:0,0:0:0:0:
202,129,94312,1,0,0:0:0:0:
265,203,94484,2,0,L|334:189,1,70,0|0,0:0|3:0,0:0:0:0:
425,223,94829,1,8,0:0:0:0:
486,146,95002,6,0,P|493:108|478:66,1,70,0|0,0:0|3:0,0:0:0:0:
425,223,95346,2,0,P|418:261|433:303,1,70,0|8,0:0|0:0,0:0:0:0:
369,371,95691,1,0,0:0:0:0:
290,312,95864,2,0,L|219:321,1,70,0|0,0:0|3:0,0:0:0:0:
146,257,96208,1,8,0:0:0:0:
196,172,96381,1,0,0:0:0:0:
93,78,96553,6,0,B|162:104|154:52|229:74,1,140,0|8,3:0|0:0,0:0:0:0:
293,148,97070,1,0,0:0:0:0:
375,94,97243,2,0,L|446:106,1,70,0|0,0:0|3:0,0:0:0:0:
494,190,97588,1,8,0:0:0:0:
421,255,97760,6,0,P|414:296|430:341,1,70,0|0,0:0|3:0,0:0:0:0:
507,369,98105,1,0,0:0:0:0:
420,323,98277,2,0,L|346:334,1,70,8|0,0:0|0:0,0:0:0:0:
205,245,98622,2,0,L|274:255,1,70,0|0,0:0|3:0,0:0:0:0:
291,257,98881,1,8,0:0:0:0:
308,259,98967,1,8,0:0:0:0:
250,356,99139,1,8,0:0:0:0:
122,256,99312,6,0,B|91:228|96:174|96:174|125:187|151:183,1,140,4|8,3:1|0:0,0:0:0:0:
222,122,99829,2,0,L|205:51,1,70,0|0,0:0|0:0,0:0:0:0:
291,5,100174,1,0,3:0:0:0:
388,15,100346,2,0,P|407:52|406:91,1,70,8|0,0:0|0:0,0:0:0:0:
369,169,100691,6,0,B|355:166|344:141|344:141|360:193|337:241,1,140,0|8,3:0|0:0,0:0:0:0:
356,337,101208,2,0,L|283:327,1,70,0|0,0:0|0:0,0:0:0:0:
221,253,101553,1,0,3:0:0:0:
132,296,101726,2,0,P|122:261|134:219,1,70,8|0,0:0|0:0,0:0:0:0:
139,131,102070,6,0,B|189:125|234:156|234:156|196:150|168:171,1,140,0|8,3:0|0:0,0:0:0:0:
221,253,102588,2,0,L|294:251,1,70,0|0,0:0|0:0,0:0:0:0:
364,316,102933,1,0,3:0:0:0:
461,304,103105,2,0,P|448:264|427:239,1,70,8|0,0:0|0:0,0:0:0:0:
376,160,103450,6,0,B|307:134|315:186|240:164,1,140,0|8,3:0|0:0,0:0:0:0:
148,198,103967,2,0,L|144:119,1,70,0|0,0:0|0:0,0:0:0:0:
76,56,104312,1,0,3:0:0:0:
164,14,104484,2,0,P|201:7|256:26,1,70,8|0,0:0|0:0,0:0:0:0:
310,72,104829,6,0,P|305:50|306:27,3,35,0|0|0|0,3:0|0:0|0:0|0:0,0:0:0:0:
284,139,105174,2,0,P|267:153|246:164,3,35,8|0|0|0,0:0|0:0|0:0|0:0,0:0:0:0:
355,128,105519,2,0,P|375:134|395:146,3,35,0|0|0|0,0:0|0:0|3:0|0:0,0:0:0:0:
425,202,105864,2,0,P|416:239|415:281,1,70,8|0,0:0|0:0,0:0:0:0:
327,313,106208,6,0,P|304:319|273:318,3,35,0|0|0|0,3:0|0:0|0:0|0:0,0:0:0:0:
291,249,106553,2,0,P|268:241|242:225,3,35,8|0|0|0,0:0|0:0|0:0|0:0,0:0:0:0:
297,177,106898,2,0,P|280:159|266:132,3,35,0|0|0|0,0:0|0:0|3:0|0:0,0:0:0:0:
220,106,107243,2,0,P|184:110|139:134,1,70,8|0,0:0|0:0,0:0:0:0:
123,225,107588,6,0,P|130:249|131:273,3,35,0|0|0|0,3:0|0:0|0:0|0:0,0:0:0:0:
58,190,107933,2,0,P|51:214|50:238,3,35,8|0|0|0,0:0|0:0|0:0|0:0,0:0:0:0:
79,121,108277,2,0,P|73:96|61:75,3,35,0|0|0|0,0:0|0:0|3:0|0:0,0:0:0:0:
107,25,108622,2,0,P|146:18|186:26,1,70,8|0,0:0|0:0,0:0:0:0:
237,91,108967,6,0,P|232:125|242:158,1,70,8|0,0:0|3:0,0:0:0:0:
157,207,109312,2,0,P|177:234|215:253,1,70,8|0,0:0|3:0,0:0:0:0:
191,348,109657,2,0,P|224:352|267:336,1,70,8|0,0:0|3:0,0:0:0:0:
311,258,110002,1,8,0:0:0:0:
396,305,110174,1,0,3:0:0:0:
406,156,110346,6,0,B|426:108|414:62|414:62|422:86|448:106,1,140,4|8,3:1|0:0,0:0:0:0:
496,178,110864,2,0,L|481:263,1,70,0|0,0:0|0:0,0:0:0:0:
490,344,111208,1,0,3:0:0:0:
396,305,111381,2,0,P|360:298|317:308,1,70,8|0,0:0|0:0,0:0:0:0:
236,341,111726,6,0,P|202:347|165:340,1,70,0|0,3:0|0:0,0:0:0:0:
98,270,112070,2,0,L|114:186,1,70,8|0,0:0|0:0,0:0:0:0:
185,136,112415,2,0,L|173:54,1,70,0|0,0:0|3:0,0:0:0:0:
87,22,112760,2,0,P|76:59|90:107,1,70,8|0,0:0|0:0,0:0:0:0:
185,136,113105,5,0,3:0:0:0:
265,80,113277,2,0,L|346:87,1,70,0|8,0:0|0:0,0:0:0:0:
422,129,113622,2,0,B|441:181|422:226|422:226|406:207|371:203,1,140,0|0,0:0|3:0,0:0:0:0:
293,236,114139,2,0,L|301:305,1,70,8|0,0:0|0:0,0:0:0:0:
216,355,114484,6,0,P|143:368|89:323,1,140,0|8,3:0|0:0,0:0:0:0:
68,235,115002,2,0,L|82:159,1,70,0|0,0:0|0:0,0:0:0:0:
38,77,115346,1,0,3:0:0:0:
127,36,115519,2,0,P|161:29|195:37,1,70,8|0,0:0|0:0,0:0:0:0:
287,75,115864,6,0,B|338:92|384:64|384:64|362:83|353:117,1,140,0|8,3:0|0:0,0:0:0:0:
389,189,116381,2,0,L|377:263,1,70,0|0,0:0|0:0,0:0:0:0:
422,345,116726,1,0,3:0:0:0:
377,258,116898,2,0,P|345:251|297:260,1,70,8|0,0:0|0:0,0:0:0:0:
225,308,117243,5,0,3:0:0:0:
140,259,117415,2,0,L|153:187,1,70,0|8,0:0|0:0,0:0:0:0:
89,114,117760,2,0,P|139:148|221:131,1,140,0|0,0:0|3:0,0:0:0:0:
291,74,118277,2,0,L|371:83,1,70,8|0,0:0|0:0,0:0:0:0:
450,42,118622,5,0,3:0:0:0:
482,134,118795,2,0,P|487:175|470:218,1,70,0|8,0:0|0:0,0:0:0:0:
422,281,119139,2,0,L|346:268,1,70,0|0,0:0|0:0,0:0:0:0:
268,319,119484,1,0,3:0:0:0:
190,258,119657,2,0,P|184:223|201:169,1,70,8|0,0:0|0:0,0:0:0:0:
243,106,120002,5,0,3:0:0:0:
145,116,120174,2,0,L|69:104,1,70,0|8,0:0|0:0,0:0:0:0:
14,182,120519,2,0,P|5:221|20:269,1,70,0|0,0:0|0:0,0:0:0:0:
98,292,120864,2,0,L|94:328,2,35,0|8|8,3:0|0:0|0:0,0:0:0:0:
184,246,121208,1,8,0:0:0:0:
309,333,121381,6,0,B|405:313|405:313|377:313|351:294,1,140,4|8,3:1|0:0,0:0:0:0:
310,220,121898,2,0,L|321:141,1,70,0|0,0:0|0:0,0:0:0:0:
257,74,122243,1,0,3:0:0:0:
341,25,122415,2,0,P|378:17|426:35,1,70,8|0,0:0|0:0,0:0:0:0:
483,88,122760,6,0,L|464:160,1,70,0|0,3:0|0:0,0:0:0:0:
407,235,123105,2,0,L|421:311,1,70,8|0,0:0|0:0,0:0:0:0:
343,366,123450,2,0,P|304:373|266:362,1,70,0|0,0:0|3:0,0:0:0:0:
203,298,123795,2,0,L|122:313,1,70,8|0,0:0|0:0,0:0:0:0:
45,269,124139,5,0,3:0:0:0:
15,175,124312,2,0,P|9:138|15:101,1,70,0|8,0:0|0:0,0:0:0:0:
56,17,124657,2,0,B|108:-10|158:11|158:11|135:13|113:28,1,140,0|0,0:0|3:0,0:0:0:0:
154,114,125174,2,0,L|142:201,1,70,8|0,0:0|0:0,0:0:0:0:
203,262,125519,6,0,B|254:261|292:232|292:232|273:249|265:281,1,140,0|8,3:0|0:0,0:0:0:0:
338,338,126036,2,0,L|414:342,1,70,0|0,0:0|0:0,0:0:0:0:
506,316,126381,1,0,3:0:0:0:
450,235,126553,2,0,P|441:198|455:151,1,70,8|0,0:0|0:0,0:0:0:0:
411,75,126898,6,0,P|389:80|353:77,3,35,0|0|0|0,3:0|0:0|0:0|0:0,0:0:0:0:
306,91,127243,2,0,P|284:86|248:89,3,35,8|0|0|0,0:0|0:0|0:0|0:0,0:0:0:0:
201,73,127588,2,0,P|179:78|143:75,3,35,0|0|0|0,0:0|0:0|3:0|0:0,0:0:0:0:
100,101,127933,2,0,P|89:143|98:190,1,70,8|0,0:0|0:0,0:0:0:0:
157,251,128277,6,0,P|152:272|153:295,3,35,0|0|0|0,3:0|0:0|0:0|0:0,0:0:0:0:
225,278,128622,2,0,P|239:287|253:298,3,35,8|0|0|0,0:0|0:0|0:0|0:0,0:0:0:0:
271,219,128967,2,0,P|286:210|303:206,3,35,0|0|0|0,0:0|0:0|3:0|0:0,0:0:0:0:
371,233,129312,2,0,P|368:267|360:301,1,70,8|0,0:0|0:0,0:0:0:0:
449,371,129657,6,0,P|445:347|448:312,3,35,0|0|0|0,3:0|0:0|0:0|0:0,0:0:0:0:
457,265,130002,2,0,P|461:241|458:206,3,35,8|0|0|0,0:0|0:0|0:0|0:0,0:0:0:0:
449,162,130346,2,0,P|445:138|448:103,3,35,0|0|0|0,0:0|0:0|3:0|0:0,0:0:0:0:
459,58,130691,1,8,0:0:0:0:
281,9,131036,5,0,3:0:0:0:
256,192,131122,12,8,132070,0:0:0:0:
226,41,132415,6,0,L|217:105,1,48.9999985046387,0|0,3:0|3:0,0:0:0:0:
260,178,132760,5,12,0:0:0:0:
173,224,132933,2,0,P|140:227|98:214,1,70,0|0,0:0|0:0,0:0:0:0:
24,161,133277,1,0,3:0:0:0:
13,258,133450,2,0,L|25:328,1,70,8|0,0:0|0:0,0:0:0:0:
157,371,133795,6,0,B|214:383|259:352|259:352|230:356|198:332,1,140,0|8,3:0|0:0,0:0:0:0:
181,260,134312,1,0,0:0:0:0:
266,213,134484,2,0,L|336:222,1,70,0|0,0:0|3:0,0:0:0:0:
410,285,134829,2,0,P|452:284|488:269,1,70,8|0,0:0|0:0,0:0:0:0:
486,176,135174,6,0,L|470:105,1,70,0|0,3:0|0:0,0:0:0:0:
492,8,135519,1,8,0:0:0:0:
406,55,135691,2,0,B|360:85|307:59|307:59|331:39|329:14,1,140,0|0,0:0|3:0,0:0:0:0:
232,25,136208,2,0,L|156:38,1,70,8|0,0:0|0:0,0:0:0:0:
79,134,136553,6,0,B|45:178|62:232|62:232|45:199|12:190,1,140,0|8,3:0|0:0,0:0:0:0:
4,295,137070,1,0,0:0:0:0:
98,322,137243,2,0,L|177:305,1,70,0|0,0:0|3:0,0:0:0:0:
328,352,137588,2,0,L|259:337,1,70,8|0,0:0|0:0,0:0:0:0:
166,307,137933,6,0,P|153:252|229:182,1,140,0|8,3:0|0:0,0:0:0:0:
301,181,138450,2,0,L|376:193,1,70,0|0,0:0|0:0,0:0:0:0:
456,239,138795,1,0,3:0:0:0:
495,149,138967,2,0,P|501:110|493:81,1,70,8|0,0:0|0:0,0:0:0:0:
406,27,139312,6,0,B|373:41|337:27|337:27|298:14|261:32,1,140,0|8,3:0|0:0,0:0:0:0:
201,99,139829,1,0,0:0:0:0:
241,188,140002,2,0,L|231:262,1,70,0|0,0:0|3:0,0:0:0:0:
164,328,140346,2,0,P|122:334|77:317,1,70,8|0,0:0|0:0,0:0:0:0:
40,245,140691,6,0,B|25:205|55:160|55:160|75:185|99:194,1,140,0|8,3:0|0:0,0:0:0:0:
188,164,141208,2,0,L|276:142,1,70,0|0,0:0|0:0,0:0:0:0:
348,179,141553,1,0,3:0:0:0:
423,115,141726,2,0,P|431:76|417:32,1,70,8|0,0:0|0:0,0:0:0:0:
348,179,142070,6,0,B|325:220|342:264|342:264|317:240|290:241,1,140,0|8,3:0|0:0,0:0:0:0:
212,289,142588,1,0,0:0:0:0:
140,222,142760,2,0,L|71:232,1,70,0|0,0:0|3:0,0:0:0:0:
54,234,143019,1,8,0:0:0:0:
37,236,143105,1,8,0:0:0:0:
90,355,143277,1,8,0:0:0:0:
212,289,143450,6,0,B|266:278|305:304|305:304|284:288|275:253,1,140,4|8,3:1|0:0,0:0:0:0:
371,233,143967,2,0,P|378:204|368:161,1,70,0|0,0:0|0:0,0:0:0:0:
318,81,144312,1,0,3:0:0:0:
260,160,144484,2,0,L|188:157,1,70,8|0,0:0|0:0,0:0:0:0:
114,94,144829,6,0,P|90:153|122:237,1,140,0|8,3:0|0:0,0:0:0:0:
176,296,145346,1,0,0:0:0:0:
260,245,145519,2,0,P|294:242|333:252,1,70,0|0,0:0|3:0,0:0:0:0:
406,310,145864,2,0,P|421:285|424:239,1,70,8|0,0:0|0:0,0:0:0:0:
375,160,146208,6,0,P|346:151|301:160,1,70,0|0,3:0|0:0,0:0:0:0:
260,245,146553,1,8,0:0:0:0:
197,169,146726,2,0,B|164:183|128:169|128:169|89:156|60:170,1,140,0|0,0:0|3:0,0:0:0:0:
101,259,147243,2,0,P|134:269|176:262,1,70,8|0,0:0|0:0,0:0:0:0:
263,290,147588,6,0,B|308:319|361:293|361:293|337:273|340:264,1,140,0|8,3:0|0:0,0:0:0:0:
273,192,148105,1,0,0:0:0:0:
328,111,148277,2,0,P|337:79|330:41,1,70,0|0,0:0|3:0,0:0:0:0:
236,70,148622,2,0,P|201:73|163:62,1,70,8|0,0:0|0:0,0:0:0:0:
78,22,148967,6,0,P|55:16|24:17,3,35,0|0|0|0,3:0|0:0|0:0|0:0,0:0:0:0:
42,86,149312,2,0,P|19:94|-7:110,3,35,8|0|0|0,0:0|0:0|0:0|0:0,0:0:0:0:
48,158,149657,2,0,P|31:176|17:203,3,35,0|0|0|0,0:0|0:0|3:0|0:0,0:0:0:0:
8,253,150002,2,0,P|12:289|36:334,1,70,8|0,0:0|0:0,0:0:0:0:
124,298,150346,6,0,P|121:280|115:264,3,35,0|0|0|0,3:0|0:0|0:0|0:0,0:0:0:0:
183,242,150691,2,0,P|185:224|191:208,3,35,8|0|0|0,0:0|0:0|0:0|0:0,0:0:0:0:
129,173,151036,2,0,P|125:155|119:139,3,35,0|0|0|0,0:0|0:0|3:0|0:0,0:0:0:0:
121,70,151380,2,0,P|159:64|200:71,1,70,8|0,0:0|0:0,0:0:0:0:
275,133,151726,6,0,P|293:139|311:141,3,35,0|0|0|0,3:0|0:0|0:0|0:0,0:0:0:0:
372,183,152070,2,0,P|357:195|347:210,3,35,8|0|0|0,0:0|0:0|0:0|0:0,0:0:0:0:
282,242,152415,2,0,P|278:223|270:206,3,35,0|0|0|0,0:0|0:0|3:0|0:0,0:0:0:0:
203,188,152760,1,8,0:0:0:0:
117,236,152933,1,0,0:0:0:0:
2,163,153105,5,0,3:0:0:0:
256,192,153191,12,4,154484,3:1:0:0:
