osu file format v14

[General]
AudioFilename: audio.mp3
AudioLeadIn: 0
PreviewTime: 87200
Countdown: 0
SampleSet: Normal
StackLeniency: 0.2
Mode: 0
LetterboxInBreaks: 0
WidescreenStoryboard: 0

[Editor]
Bookmarks: 22070,44139,55174,62070,66208,77243,99312,132415,143450,153105,154484
DistanceSpacing: 1
BeatDivisor: 4
GridSize: 4
TimelineZoom: 1

[Metadata]
Title:Freefall VIP (feat. Reija Lee)
TitleUnicode:Freefall VIP (feat. Reija Lee)
Artist:Metrik
ArtistUnicode:Metrik
Creator:Slips
Version:6 digit's Normal
Source:
Tags:liquid dnb drum and n & bass liquicity universal language 2013 cut ver _orange 6 digit exote sinn
BeatmapID:1584092
BeatmapSetID:749003

[Difficulty]
HPDrainRate:3
CircleSize:3
OverallDifficulty:4
ApproachRate:5
SliderMultiplier:0.999999999999999
SliderTickRate:1

[Events]
//Background and Video events
0,0,"wallpaper-2938589.jpg",0,0
//Break Periods
2,44339,53629
2,66408,75698
//Storyboard Layer 0 (Background)
//Storyboard Layer 1 (Fail)
//Storyboard Layer 2 (Pass)
//Storyboard Layer 3 (Foreground)
//Storyboard Sound Samples

[TimingPoints]
2,344.827586206897,4,1,1,60,1,0
76898,-100,4,1,1,55,0,0
77243,-100,4,1,1,50,0,0
78622,-100,4,1,1,55,0,0
80002,-100,4,1,1,60,0,0
81381,-100,4,1,1,65,0,0
82760,-100,4,1,1,70,0,0
84139,-100,4,1,1,75,0,0
85519,-100,4,1,1,80,0,0
88277,-100,4,1,1,80,0,1
108967,-100,4,1,1,80,0,0
110346,-100,4,1,1,80,0,1
131036,-100,4,1,1,80,0,0
132588,-100,4,1,1,80,0,1
153105,-100,4,1,1,80,0,0
157070,-100,4,1,1,30,0,0

[Colours]
Combo1 : 106,199,234
Combo2 : 69,155,250
Combo3 : 0,78,155
Combo4 : 188,206,239
SliderBorder : 224,236,255

[HitObjects]
402,180,22070,6,0,L|103:216,1,300,4|0,3:1|0:0,0:0:0:0:
19,161,23450,2,0,P|11:55|84:25,1,200,0|0,3:0|0:0,0:0:0:0:
184,30,24484,1,0,0:0:0:0:
281,53,24829,6,0,L|318:358,1,300,0|0,3:0|0:0,0:0:0:0:
412,381,26208,2,0,P|494:337|482:238,1,200,0|0,3:0|0:0,0:0:0:0:
415,170,27242,1,0,0:0:0:0:
338,104,27588,6,0,L|32:66,1,300,0|0,3:0|0:0,0:0:0:0:
65,163,28967,2,0,L|362:199,1,300,0|0,3:0|0:0,0:0:0:0:
312,285,30346,2,0,L|6:247,1,300,0|0,3:0|0:0,0:0:0:0:
48,340,31725,1,0,3:0:0:0:
146,351,32069,1,0,0:0:0:0:
245,363,32415,2,0,L|307:369,1,50,0|0,0:0|3:0,0:0:0:0:
345,376,32759,1,8,0:0:0:0:
436,332,33105,6,0,L|399:34,1,300,4|0,3:0|0:0,0:0:0:0:
302,9,34484,2,0,P|212:36|214:130,1,200,0|0,3:0|0:0,0:0:0:0:
275,207,35518,1,0,0:0:0:0:
324,294,35864,2,0,L|26:330,1,300,0|0,3:0|0:0,0:0:0:0:
2,232,37243,2,0,P|46:148|137:166,1,200,0|0,3:0|0:0,0:0:0:0:
177,256,38277,1,0,0:0:0:0:
213,347,38622,6,0,L|515:373,1,300,0|0,3:0|0:0,0:0:0:0:
483,276,40002,2,0,L|178:248,1,300,0|0,3:0|0:0,0:0:0:0:
256,192,41381,12,4,44139,3:1:0:0:
84,72,54829,5,8,0:0:0:0:
114,172,55174,2,0,L|272:190,2,150,4|0|0,3:1|3:0|3:0,0:0:0:0:
23,222,56553,2,0,P|13:312|93:372,1,200,0|0,0:0|0:0,0:0:0:0:
194,342,57588,1,0,0:0:0:0:
288,304,57933,6,0,L|268:144,2,150,0|0|0,3:0|3:0|3:0,0:0:0:0:
380,344,59312,2,0,P|457:289|450:192,1,200,0|0,0:0|0:0,0:0:0:0:
388,112,60346,1,0,0:0:0:0:
312,47,60691,6,0,L|162:29,2,150,0|0|0,3:0|3:0|3:0,0:0:0:0:
408,16,62070,2,0,P|476:60|468:172,1,200,0|0,0:0|0:0,0:0:0:0:
376,208,63105,1,0,0:0:0:0:
277,226,63450,6,0,L|257:384,2,150,0|0|0,3:0|3:0|3:0,0:0:0:0:
206,155,64829,1,0,0:0:0:0:
60,32,65519,5,8,0:0:0:0:
73,130,65864,1,8,0:0:0:0:
85,229,66208,1,4,3:1:0:0:
64,133,76898,5,8,0:0:0:0:
163,109,77243,2,0,L|171:8,1,99.9999999999999,4|0,3:1|3:0,0:0:0:0:
271,45,77933,2,0,L|261:145,1,99.9999999999999,0|0,3:0|3:0,0:0:0:0:
364,132,78622,2,0,L|372:31,1,99.9999999999999,0|0,3:0|3:0,0:0:0:0:
472,68,79312,2,0,L|462:168,1,99.9999999999999,0|0,3:0|3:0,0:0:0:0:
374,217,80002,6,0,L|383:317,1,99.9999999999999,0|0,3:0|3:0,0:0:0:0:
284,353,80692,2,0,L|274:253,1,99.9999999999999,0|0,3:0|3:0,0:0:0:0:
172,240,81381,2,0,L|181:339,1,99.9999999999999,0|0,3:0|3:0,0:0:0:0:
83,377,82071,2,0,L|73:277,1,99.9999999999999,0|0,3:0|3:0,0:0:0:0:
85,190,82760,5,0,3:0:0:0:
182,203,83105,1,0,3:0:0:0:
283,217,83450,1,0,3:0:0:0:
382,230,83795,1,0,3:0:0:0:
441,310,84139,1,0,3:0:0:0:
343,323,84484,1,0,3:0:0:0:
242,337,84829,1,0,3:0:0:0:
143,349,85174,1,0,3:0:0:0:
73,278,85519,6,0,P|89:146|317:138,1,400,0|0,3:0|0:0,0:0:0:0:
308,185,88277,5,4,3:1:0:0:
229,250,88622,2,0,L|79:231,1,150,8|0,0:0|3:0,0:0:0:0:
29,224,89312,2,0,L|22:174,1,50,8|0,0:0|0:0,0:0:0:0:
18,126,89656,1,0,3:0:0:0:
56,33,90002,2,0,P|151:25|196:83,1,150,8|0,0:0|3:0,0:0:0:0:
196,103,90691,1,8,0:0:0:0:
206,203,91036,5,0,3:0:0:0:
292,252,91381,2,0,L|442:233,1,150,8|0,0:0|3:0,0:0:0:0:
492,227,92071,2,0,L|497:178,1,50,8|0,0:0|0:0,0:0:0:0:
503,129,92415,1,0,3:0:0:0:
480,32,92760,2,0,P|420:-10|349:5,1,150,8|0,0:0|3:0,0:0:0:0:
324,48,93449,1,8,0:0:0:0:
311,147,93795,5,0,3:0:0:0:
212,168,94139,2,0,L|193:318,1,150,8|0,0:0|3:0,0:0:0:0:
187,368,94829,2,0,L|137:374,1,50,8|0,0:0|0:0,0:0:0:0:
89,380,95173,1,0,3:0:0:0:
2,328,95519,2,0,P|6:232|68:195,1,150,8|0,0:0|3:0,0:0:0:0:
92,196,96208,1,8,0:0:0:0:
176,252,96553,5,0,3:0:0:0:
276,232,96898,2,0,L|257:82,1,150,8|0,0:0|3:0,0:0:0:0:
251,32,97588,2,0,L|201:25,1,50,8|0,0:0|0:0,0:0:0:0:
152,20,97932,1,0,3:0:0:0:
52,8,98277,5,8,0:0:0:0:
64,105,98622,1,0,0:0:0:0:
75,204,98967,1,8,0:0:0:0:
88,304,99312,5,4,3:1:0:0:
156,376,99657,2,0,L|306:357,1,150,8|0,0:0|3:0,0:0:0:0:
356,351,100347,2,0,L|362:301,1,50,8|0,0:0|0:0,0:0:0:0:
367,252,100691,1,0,3:0:0:0:
296,184,101036,2,0,P|288:89|346:44,1,150,8|0,0:0|3:0,0:0:0:0:
366,33,101725,1,8,0:0:0:0:
460,48,102070,5,0,3:0:0:0:
512,136,102415,2,0,L|493:286,1,150,8|0,0:0|3:0,0:0:0:0:
487,336,103105,2,0,L|437:342,1,50,8|0,0:0|0:0,0:0:0:0:
388,347,103449,1,0,3:0:0:0:
316,276,103795,2,0,P|221:268|176:326,1,150,8|0,0:0|3:0,0:0:0:0:
166,346,104484,1,8,0:0:0:0:
66,366,104829,5,0,3:0:0:0:
8,284,105174,2,0,L|26:134,1,150,8|0,0:0|3:0,0:0:0:0:
33,84,105864,2,0,L|83:77,1,50,8|0,0:0|0:0,0:0:0:0:
131,72,106208,1,0,3:0:0:0:
220,27,106553,2,0,P|315:19|360:77,1,150,8|0,0:0|3:0,0:0:0:0:
370,97,107242,1,8,0:0:0:0:
379,196,107588,5,0,3:0:0:0:
316,272,107933,2,0,L|166:253,1,150,8|0,0:0|3:0,0:0:0:0:
116,247,108623,2,0,L|109:197,1,50,8|0,0:0|0:0,0:0:0:0:
105,149,108967,5,8,0:0:0:0:
205,136,109312,1,8,0:0:0:0:
305,124,109657,1,8,0:0:0:0:
405,111,110002,1,8,0:0:0:0:
468,188,110346,6,0,L|480:287,1,99.9999999999999,4|8,3:1|0:0,0:0:0:0:
478,339,110864,2,0,P|443:373|394:384,1,99.9999999999999,0|0,0:0|3:0,0:0:0:0:
343,378,111381,1,8,0:0:0:0:
248,348,111726,1,0,3:0:0:0:
236,248,112071,1,8,0:0:0:0:
223,148,112415,2,0,L|216:98,1,50,0|0,0:0|3:0,0:0:0:0:
211,48,112761,1,8,0:0:0:0:
306,18,113105,6,0,L|405:29,1,99.9999999999999,0|8,3:0|0:0,0:0:0:0:
456,39,113622,2,0,P|481:81|479:130,1,99.9999999999999,0|0,0:0|3:0,0:0:0:0:
466,178,114139,1,8,0:0:0:0:
414,266,114484,1,0,3:0:0:0:
314,254,114829,1,8,0:0:0:0:
214,242,115173,2,0,L|164:236,1,50,0|0,0:0|3:0,0:0:0:0:
114,229,115519,1,8,0:0:0:0:
20,217,115864,6,0,L|8:117,1,99.9999999999999,0|8,3:0|0:0,0:0:0:0:
11,65,116381,2,0,P|45:30|94:19,1,99.9999999999999,0|0,0:0|3:0,0:0:0:0:
140,27,116898,1,8,0:0:0:0:
226,78,117243,1,0,3:0:0:0:
214,176,117588,1,8,0:0:0:0:
202,275,117933,2,0,L|196:324,1,50,0|0,0:0|3:0,0:0:0:0:
189,375,118277,1,8,0:0:0:0:
288,382,118622,6,0,L|387:369,1,99.9999999999999,0|8,3:0|0:0,0:0:0:0:
436,358,119139,2,0,P|465:318|469:269,1,99.9999999999999,0|0,0:0|3:0,0:0:0:0:
453,221,119656,1,8,0:0:0:0:
408,132,120002,1,0,3:0:0:0:
309,143,120346,1,8,0:0:0:0:
210,155,120692,2,0,L|160:160,1,50,0|0,0:0|3:0,0:0:0:0:
110,168,121036,1,8,0:0:0:0:
12,184,121381,6,0,L|0:284,1,99.9999999999999,4|8,3:1|0:0,0:0:0:0:
0,334,121898,2,0,P|34:369|82:380,1,99.9999999999999,0|0,0:0|3:0,0:0:0:0:
132,376,122415,1,8,0:0:0:0:
224,336,122760,1,0,3:0:0:0:
212,236,123105,1,8,0:0:0:0:
199,136,123449,2,0,L|192:86,1,50,0|0,0:0|3:0,0:0:0:0:
187,36,123795,1,8,0:0:0:0:
284,15,124139,6,0,L|384:26,1,99.9999999999999,0|8,3:0|0:0,0:0:0:0:
432,31,124657,2,0,P|466:65|477:114,1,99.9999999999999,0|0,0:0|3:0,0:0:0:0:
472,163,125173,1,8,0:0:0:0:
444,259,125519,1,0,3:0:0:0:
345,248,125864,1,8,0:0:0:0:
246,236,126209,2,0,L|196:230,1,50,0|0,0:0|3:0,0:0:0:0:
146,223,126553,1,8,0:0:0:0:
48,211,126898,6,0,L|36:110,1,99.9999999999999,0|8,3:0|0:0,0:0:0:0:
32,63,127415,2,0,P|65:27|114:16,1,99.9999999999999,0|0,0:0|3:0,0:0:0:0:
163,22,127932,1,8,0:0:0:0:
256,63,128277,1,0,3:0:0:0:
244,162,128622,1,8,0:0:0:0:
232,261,128967,2,0,L|226:310,1,50,0|0,0:0|3:0,0:0:0:0:
219,358,129312,1,8,0:0:0:0:
304,384,129657,6,0,L|404:372,1,99.9999999999999,0|8,3:0|0:0,0:0:0:0:
451,364,130174,2,0,P|485:329|496:280,1,99.9999999999999,0|0,0:0|3:0,0:0:0:0:
480,231,130691,1,8,0:0:0:0:
416,156,131036,2,0,L|421:106,1,50,0|0,3:0|0:0,0:0:0:0:
504,48,131553,2,0,P|469:13|420:2,1,99.9999999999999,0|0,0:0|3:0,0:0:0:0:
372,16,132070,1,8,0:0:0:0:
296,80,132415,5,0,3:0:0:0:
197,67,132760,1,12,0:0:0:0:
96,50,133105,2,0,L|88:99,1,50,0|0,0:0|3:0,0:0:0:0:
83,148,133450,1,8,0:0:0:0:
68,248,133795,5,0,3:0:0:0:
166,261,134140,1,8,0:0:0:0:
264,268,134485,2,0,L|271:218,1,50,0|0,0:0|3:0,0:0:0:0:
277,170,134830,1,8,0:0:0:0:
376,152,135174,5,0,3:0:0:0:
389,250,135519,1,8,0:0:0:0:
396,348,135864,2,0,L|346:355,1,50,0|0,0:0|3:0,0:0:0:0:
298,361,136209,1,8,0:0:0:0:
228,292,136553,5,0,3:0:0:0:
239,192,136898,1,8,0:0:0:0:
248,92,137243,2,0,L|296:85,1,50,0|0,0:0|3:0,0:0:0:0:
346,78,137588,2,0,L|394:71,1,50,8|0,0:0|0:0,0:0:0:0:
444,68,137933,5,0,3:0:0:0:
429,169,138278,1,8,0:0:0:0:
419,269,138623,2,0,L|369:274,1,50,0|0,0:0|3:0,0:0:0:0:
309,281,138968,1,8,0:0:0:0:
208,288,139312,5,0,3:0:0:0:
193,186,139657,1,8,0:0:0:0:
183,86,140002,2,0,L|133:80,1,50,0|0,0:0|3:0,0:0:0:0:
73,74,140347,1,8,0:0:0:0:
4,144,140691,5,0,3:0:0:0:
16,244,141036,1,8,0:0:0:0:
29,344,141381,2,0,L|78:349,1,50,0|0,0:0|3:0,0:0:0:0:
139,356,141726,1,8,0:0:0:0:
240,364,142070,5,0,3:0:0:0:
252,264,142415,1,8,0:0:0:0:
265,164,142760,2,0,L|270:114,1,50,0|0,0:0|3:0,0:0:0:0:
277,54,143105,1,8,0:0:0:0:
368,12,143450,6,0,P|416:23|450:58,1,99.9999999999999,4|8,3:1|0:0,0:0:0:0:
468,103,143967,2,0,L|455:203,1,99.9999999999999,0|0,0:0|3:0,0:0:0:0:
449,253,144484,1,8,0:0:0:0:
348,273,144829,1,0,3:0:0:0:
296,356,145174,1,8,0:0:0:0:
196,368,145519,2,0,L|146:374,1,50,0|0,0:0|3:0,0:0:0:0:
96,381,145864,1,8,0:0:0:0:
16,324,146208,6,0,P|0:277|12:229,1,99.9999999999999,0|8,3:0|0:0,0:0:0:0:
47,185,146725,2,0,L|145:173,1,99.9999999999999,0|0,0:0|3:0,0:0:0:0:
196,166,147242,1,8,0:0:0:0:
256,84,147588,1,0,3:0:0:0:
356,73,147933,1,8,0:0:0:0:
456,64,148278,2,0,L|461:113,1,50,0|0,0:0|3:0,0:0:0:0:
468,164,148622,2,0,L|473:213,1,50,8|0,0:0|0:0,0:0:0:0:
476,264,148967,6,0,P|455:308|413:335,1,99.9999999999999,0|8,3:0|0:0,0:0:0:0:
367,334,149484,2,0,L|268:321,1,99.9999999999999,0|0,0:0|3:0,0:0:0:0:
216,316,150001,1,8,0:0:0:0:
122,356,150346,1,0,3:0:0:0:
28,320,150691,1,8,0:0:0:0:
15,220,151036,2,0,L|9:170,1,50,0|0,0:0|3:0,0:0:0:0:
3,120,151381,1,8,0:0:0:0:
36,24,151726,6,0,P|85:21|128:46,1,99.9999999999999,0|8,3:0|0:0,0:0:0:0:
152,88,152243,2,0,L|140:186,1,99.9999999999999,0|0,0:0|3:0,0:0:0:0:
132,236,152760,1,8,0:0:0:0:
116,336,153105,6,0,L|413:298,1,300,0|8,3:0|0:0,0:0:0:0:
444,204,154484,1,4,3:1:0:0:
256,192,154829,12,0,157070,0:0:0:0:
