osu file format v14

[General]
AudioFilename: audio.mp3
AudioLeadIn: 0
PreviewTime: 119737
Countdown: 0
SampleSet: Soft
StackLeniency: 0.8
Mode: 0
LetterboxInBreaks: 0
WidescreenStoryboard: 1

[Editor]
Bookmarks: 21456,51772,160403,180614,200824,221035
DistanceSpacing: 1
BeatDivisor: 4
GridSize: 32
TimelineZoom: 3.099999

[Metadata]
Title:Gaikan no Prominence
TitleUnicode:蓋棺のプロミネンス
Artist:Metomate
ArtistUnicode:めと
Creator:Mordred
Version:lu^3's Extra
Source:
Tags:some hero vararaup hey lululu gazimal yogurtt めとまて 自由と銃と十三の鎖 jiyuu to juu to juusan no kusari corsace open co2021 ql qualifiers nm1 lu^3 japanese rock
BeatmapID:3236585
BeatmapSetID:1536947

[Difficulty]
HPDrainRate:7
CircleSize:4.2
OverallDifficulty:9
ApproachRate:9.3
SliderMultiplier:1.7
SliderTickRate:1

[Events]
//Background and Video events
0,0,"296487.jpg",0,0
//Break Periods
2,51884,53498
2,183252,189762
//Storyboard Layer 0 (Background)
//Storyboard Layer 1 (Fail)
//Storyboard Layer 2 (Pass)
//Storyboard Layer 3 (Foreground)
//Storyboard Layer 4 (Overlay)
//Storyboard Sound Samples

[TimingPoints]
1316,315.789473684211,4,2,1,40,1,0
1316,-769.230769230769,4,2,1,40,0,0
3763,-769.230769230769,4,2,1,5,0,0
3842,-500,4,2,1,40,0,0
4868,-500,4,2,1,5,0,0
4947,-250,4,2,1,40,0,0
6289,-769.230769230769,4,2,1,5,0,0
6368,-769.230769230769,4,2,1,40,0,0
8816,-769.230769230769,4,2,1,5,0,0
8894,-500,4,2,1,40,0,0
9921,-500,4,2,1,5,0,0
10000,-250,4,2,1,40,0,0
10710,-250,4,2,1,5,0,0
10789,-166.666666666667,4,2,1,40,0,0
11342,-166.666666666667,4,2,1,5,0,0
11421,-166.666666666667,4,2,1,40,0,0
13947,-1000,4,2,1,40,0,0
20105,-1000,4,2,1,40,0,0
20184,-250,4,2,1,40,0,0
20816,-250,4,2,1,5,0,0
20894,-166.666666666667,4,2,1,40,0,0
21447,-166.666666666667,4,2,1,5,0,0
21526,-100,4,2,1,60,0,0
28789,-142.857142857143,4,2,1,60,0,0
29105,-100,4,2,1,60,0,0
31158,-66.6666666666667,4,2,1,60,0,0
31473,-83.3333333333333,4,2,1,70,0,0
54210,-100,4,2,1,50,0,0
64316,-100,4,2,1,60,0,0
74421,-83.3333333333333,4,2,1,80,0,0
94631,-83.3333333333333,4,2,1,70,0,0
99684,-100,4,2,1,60,0,0
109789,-100,4,2,1,65,0,0
113816,-100,4,2,1,5,0,0
113894,-100,4,2,1,65,0,0
116342,-100,4,2,1,5,0,0
116421,-100,4,2,1,65,0,0
118473,-83.3333333333333,4,2,1,65,0,0
119894,-322.58064516129,4,2,1,60,0,0
122421,-100,4,2,1,60,0,0
123684,-285.714285714286,4,2,1,60,0,0
124789,-100,4,2,1,60,0,0
124947,-322.58064516129,4,2,1,60,0,0
129526,-100,4,2,1,60,0,0
131500,-100,4,2,1,5,0,0
131579,-100,4,2,1,60,0,0
132526,-83.3333333333333,4,2,1,60,0,0
132763,-83.3333333333333,4,2,1,5,0,0
132842,-83.3333333333333,4,2,1,60,0,0
133789,-100,4,2,1,60,0,0
136158,-83.3333333333333,4,2,1,60,0,0
136316,-100,4,2,1,60,0,0
137579,-200,4,2,1,60,0,0
138684,-83.3333333333333,4,2,1,60,0,0
139947,-83.3333333333333,4,2,1,70,0,0
140105,-83.3333333333333,4,2,1,80,0,0
160316,-100,4,2,1,60,0,0
170105,-66.6666666666667,4,2,1,60,0,0
170263,-83.3333333333333,4,2,1,60,0,0
170421,-83.3333333333333,4,2,1,70,0,0
180526,-294.117647058824,4,2,1,70,0,0
190316,-100,4,2,1,50,0,0
191579,-83.3333333333333,4,2,1,50,0,0
191894,-100,4,2,1,50,0,0
192842,-333.333333333333,4,2,1,50,0,0
193158,-142.857142857143,4,2,1,50,0,0
194105,-100,4,2,1,50,0,0
194263,-125,4,2,1,50,0,0
194421,-200,4,2,1,50,0,0
195052,-100,4,2,1,50,0,0
195684,-500,4,2,1,50,0,0
197105,-200,4,2,1,50,0,0
198368,-285.714285714286,4,2,1,50,0,0
200894,-100,4,2,1,60,0,0
205789,-66.6666666666667,4,2,1,60,0,0
206105,-83.3333333333333,4,2,1,60,0,0
206579,-100,4,2,1,60,0,0
221105,-833.333333333333,4,2,1,60,0,0
221184,-833.333333333333,4,2,2,10,0,0
240684,-833.333333333333,4,2,1,40,0,0
241000,-100,4,2,1,60,0,0

[Colours]
Combo1 : 250,180,240
Combo2 : 110,190,225
Combo3 : 255,230,130
Combo4 : 150,230,140

[HitObjects]
211,55,1316,6,0,B|282:2|282:2|289:85,1,171.27499895462,2|0,0:2|0:0,0:0:0:0:
227,136,3842,6,0,B|212:158|212:158|227:222|227:222|219:243,1,110.5,2|0,0:2|0:0,0:0:0:0:
321,280,4947,6,0,B|379:235|391:163|391:163|421:203|399:273|356:299,1,289,2|0,0:2|0:0,0:0:0:0:
238,328,6368,6,0,B|220:290|220:290|138:270|138:270|100:295,1,171.27499895462,2|0,0:2|0:0,0:0:0:0:
26,322,8894,6,0,B|-4:368|-4:368|0:310,1,110.5,2|0,0:2|0:0,0:0:0:0:
47,248,10000,6,0,B|13:224|13:224|6:200|6:200|81:247,1,153,2|0,0:2|0:0,0:0:0:0:
162,230,10789,6,0,B|152:204|242:213|227:232|308:263|341:224,1,178.499994552612,2|0,0:2|0:0,0:0:0:0:
331,227,11421,5,2,0:2:0:0:
473,48,13947,6,0,L|459:107,1,59.5,2|0,0:2|0:2,0:0:0:0:
165,355,16316,5,0,0:2:0:0:
67,336,16473,2,0,P|38:305|78:323,1,119,2|0,0:2|0:2,0:0:0:0:
250,230,19000,6,0,L|261:288,1,59.5,2|0,0:2|0:0,0:0:0:0:
338,255,20184,6,0,B|375:237|375:237|430:248|430:248|468:232,1,136
394,316,20894,6,0,B|344:291|344:291|270:306|270:306|219:285,1,178.499994552612,2|0,0:2|0:0,0:0:0:0:
156,207,21526,6,0,L|61:233,1,85,2|0,1:2|0:0,0:0:0:0:
23,292,21842,1,0,1:2:0:0:
163,374,22000,1,0,0:0:0:0:
299,242,22158,1,0,1:2:0:0:
228,167,22316,2,0,B|212:150|242:98|256:110|299:67|301:33|260:4,1,170,2|2,0:2|0:2,0:0:0:0:
354,167,22789,6,0,B|387:156|387:156|441:179|441:179|476:166,1,127.5,2|0,1:2|0:0,0:0:0:0:
472,167,23105,1,2,1:2:0:0:
443,1,23263,2,0,P|426:49|409:92,1,85,2|0,0:2|1:0,0:0:0:0:
274,173,23579,1,2,0:2:0:0:
375,250,23737,1,2,1:2:0:0:
343,273,23894,1,2,0:2:0:0:
189,327,24052,6,0,B|161:327|120:300|120:300|171:304|234:286,1,170,2|0,1:2|1:2,0:0:0:0:
321,381,24526,2,0,B|353:352|353:352|439:345|439:345|487:316,1,170,2|0,0:2|0:2,0:0:0:0:
405,206,25000,2,0,P|414:158|407:208,1,170,2|0,1:2|1:2,0:0:0:0:
335,103,25473,6,0,L|309:210,1,85,2|0,0:2|1:2,0:0:0:0:
345,274,25789,1,2,0:2:0:0:
219,210,25947,1,2,1:2:0:0:
130,230,26105,1,2,0:2:0:0:
3,142,26263,2,0,B|47:130|82:93|82:93|73:139|34:165,1,170,0|0,1:2|1:2,0:0:0:0:
30,296,26894,5,0,1:2:0:0:
180,343,27052,1,0,0:0:0:0:
136,363,27210,1,0,1:2:0:0:
310,278,27368,1,2,0:2:0:0:
191,230,27526,1,2,1:2:0:0:
305,379,27684,1,0,0:0:0:0:
433,295,27842,6,0,P|456:229|424:130,1,170,2|0,1:2|1:2,0:0:0:0:
428,135,28316,1,2,0:2:0:0:
367,192,28473,2,0,L|265:219,1,85,2|2,1:2|0:2,0:0:0:0:
230,294,28789,2,0,L|305:314,1,59.4999981842042,2|2,1:2|0:2,0:0:0:0:
411,344,29105,6,0,B|455:324|486:290|486:290|475:339|445:359,1,170,2|0,1:2|1:2,0:0:0:0:
351,240,29579,2,0,P|389:198|356:244,1,170,2|0,0:2|0:2,0:0:0:0:
254,211,30052,2,0,L|285:123,1,85,2|2,1:2|0:2,0:0:0:0:
369,89,30368,5,0,1:2:0:0:
169,219,30526,1,2,0:2:0:0:
231,286,30684,1,2,0:2:0:0:
155,341,30842,1,2,0:2:0:0:
134,347,31158,6,0,B|111:329|111:329|146:341,1,63.7500024318696,8|0,0:2|0:0,0:0:0:0:
156,354,31316,1,0,1:2:0:0:
299,236,31473,6,0,P|365:225|427:308,1,152.999995330811,6|0,1:2|0:0,0:0:0:0:
436,363,31789,1,0,1:2:0:0:
463,173,31947,2,0,P|467:151|503:133,1,50.9999984436036,8|0,0:2|0:0,0:0:0:0:
512,263,32105,1,0,1:2:0:0:
238,178,32263,6,0,L|253:97,1,50.9999984436036,8|0,0:2|0:0,0:0:0:0:
155,284,32421,1,0,1:2:0:0:
111,102,32579,1,8,0:2:0:0:
346,152,32737,6,0,L|318:-25,1,152.999995330811,6|0,1:2|0:0,0:0:0:0:
404,18,33052,1,0,1:2:0:0:
418,29,33131,1,0,1:0:0:0:
402,46,33210,1,8,0:2:0:0:
262,133,33368,1,0,1:2:0:0:
430,221,33526,6,0,P|447:240|484:243,1,50.9999984436036,8|0,0:2|0:0,0:0:0:0:
501,164,33684,1,0,1:2:0:0:
346,352,33842,2,0,P|371:353|399:329,1,50.9999984436036,8|0,0:2|0:0,0:0:0:0:
149,375,34000,6,0,B|111:356|111:356|42:353|42:353|-1:329,1,152.999995330811,6|0,1:2|0:0,0:0:0:0:
72,279,34316,1,0,1:2:0:0:
231,190,34473,2,0,B|257:178|257:178|227:209,1,50.9999984436036,8|0,0:2|0:0,0:0:0:0:
174,269,34631,1,0,1:2:0:0:
397,367,34789,6,0,B|423:379|423:379|393:348,1,50.9999984436036,8|0,0:2|0:0,0:0:0:0:
326,312,34947,1,0,1:2:0:0:
441,208,35105,1,8,0:2:0:0:
458,226,35184,1,8,0:2:0:0:
446,251,35263,6,0,B|424:248|438:172|458:184|480:118|457:100,1,152.999995330811,6|0,1:2|0:0,0:0:0:0:
438,36,35579,1,0,1:2:0:0:
262,100,35737,2,0,L|243:179,1,50.9999984436036,8|0,0:2|0:0,0:0:0:0:
173,16,35894,1,0,1:2:0:0:
267,172,36052,6,0,L|286:251,1,50.9999984436036,8|0,0:2|0:0,0:0:0:0:
394,121,36209,1,0,1:2:0:0:
274,319,36368,1,8,0:2:0:0:
105,216,36526,6,0,B|81:194|71:161|71:161|51:176|51:176|40:216|-8:243,1,152.999995330811,6|0,1:2|0:0,0:0:0:0:
70,288,36842,1,0,1:2:0:0:
190,155,37000,2,0,L|179:103,1,50.9999984436036,8|0,0:2|0:0,0:0:0:0:
294,193,37158,1,0,1:2:0:0:
321,323,37316,6,0,L|310:375,1,50.9999984436036,8|0,0:2|0:0,0:0:0:0:
431,280,37474,1,0,1:2:0:0:
510,377,37631,1,8,0:2:0:0:
377,197,37789,6,0,B|386:164|386:164|454:133|454:133|467:82,1,152.999995330811,6|0,1:2|0:0,0:0:0:0:
376,19,38105,1,0,1:2:0:0:
384,43,38184,1,0,1:2:0:0:
390,67,38263,1,8,0:2:0:0:
263,118,38421,1,0,1:2:0:0:
105,45,38579,6,0,P|110:13|134:-6,1,50.9999984436036,8|0,0:2|0:0,0:0:0:0:
170,131,38737,1,0,1:2:0:0:
19,217,38894,2,0,P|0:190|3:160,1,50.9999984436036,8|0,0:2|0:0,0:0:0:0:
84,160,39052,6,0,P|174:169|230:227,1,152.999995330811,6|0,1:2|0:0,0:0:0:0:
248,289,39368,1,0,1:2:0:0:
115,277,39526,6,0,P|131:257|153:244,1,50.9999984436036,8|0,0:2|0:0,0:0:0:0:
324,182,39684,1,0,1:2:0:0:
373,302,39842,6,0,P|356:282|334:269,1,50.9999984436036,8|0,0:2|0:0,0:0:0:0:
199,150,40000,1,0,1:2:0:0:
325,384,40158,5,8,0:2:0:0:
311,366,40237,1,8,0:2:0:0:
309,346,40316,2,0,P|371:296|472:299,1,152.999995330811,6|0,1:2|0:0,0:0:0:0:
509,192,40631,1,0,1:2:0:0:
501,216,40710,1,0,1:0:0:0:
494,240,40789,1,8,0:2:0:0:
430,130,40947,1,0,1:2:0:0:
323,194,41105,6,0,L|302:248,1,50.9999984436036,8|0,0:2|0:0,0:0:0:0:
191,298,41263,1,0,1:2:0:0:
52,184,41421,1,8,1:2:0:0:
52,184,41500,1,0,1:2:0:0:
52,184,41579,1,6,1:2:0:0:
225,36,41894,5,0,1:2:0:0:
312,63,42052,1,8,0:2:0:0:
400,36,42210,1,0,1:2:0:0:
483,74,42368,1,8,0:2:0:0:
390,43,42526,1,0,1:2:0:0:
287,97,42684,1,8,0:2:0:0:
133,9,42842,5,6,1:2:0:0:
16,314,43158,1,0,1:2:0:0:
8,337,43237,1,0,1:0:0:0:
0,361,43316,1,8,0:2:0:0:
212,315,43473,1,0,1:2:0:0:
113,249,43631,1,8,0:2:0:0:
236,352,43789,1,0,1:2:0:0:
349,204,43947,1,8,0:2:0:0:
484,267,44105,5,6,1:2:0:0:
316,1,44421,1,0,1:2:0:0:
367,106,44579,1,8,0:2:0:0:
208,188,44737,1,0,1:2:0:0:
149,12,44894,1,8,0:2:0:0:
226,72,45052,1,0,1:2:0:0:
226,72,45131,1,0,1:0:0:0:
226,72,45210,1,8,0:2:0:0:
75,187,45368,5,6,1:2:0:0:
372,162,45684,1,0,1:2:0:0:
349,148,45763,1,0,1:2:0:0:
328,133,45842,1,8,0:2:0:0:
346,274,46000,1,0,1:2:0:0:
507,162,46158,1,8,0:2:0:0:
512,369,46316,1,0,1:2:0:0:
464,261,46473,1,8,0:2:0:0:
268,367,46631,5,6,1:2:0:0:
251,377,46710,1,0,0:0:0:0:
30,253,46947,1,0,1:2:0:0:
201,130,47105,1,8,0:2:0:0:
123,72,47263,1,0,1:2:0:0:
221,226,47421,1,8,0:2:0:0:
351,163,47579,1,0,1:2:0:0:
278,74,47737,1,8,0:2:0:0:
344,316,47894,5,6,1:2:0:0:
485,107,48210,1,0,1:2:0:0:
479,82,48289,1,0,1:0:0:0:
471,57,48368,1,8,0:2:0:0:
338,175,48526,1,0,1:2:0:0:
217,5,48684,1,8,0:2:0:0:
368,97,48842,1,0,1:2:0:0:
208,243,49000,1,8,0:2:0:0:
123,132,49158,5,6,1:2:0:0:
325,368,49473,1,0,1:2:0:0:
400,259,49631,1,8,0:2:0:0:
512,316,49789,1,0,1:2:0:0:
384,274,49947,1,8,0:2:0:0:
213,357,50105,1,0,1:2:0:0:
102,188,50263,1,8,0:2:0:0:
109,163,50342,1,8,0:2:0:0:
118,139,50421,5,6,1:2:0:0:
291,291,50737,1,0,1:2:0:0:
291,291,50816,1,0,1:0:0:0:
291,291,50894,1,8,0:2:0:0:
367,215,51052,1,0,1:2:0:0:
150,260,51210,5,8,0:2:0:0:
143,279,51289,1,8,0:2:0:0:
106,283,51368,5,8,0:3:0:0:
99,265,51447,1,8,0:3:0:0:
58,290,51526,5,4,0:3:0:0:
71,303,51605,1,4,0:3:0:0:
115,314,51684,5,6,1:1:0:0:
52,224,54052,6,0,P|45:201|64:169,1,50.9999984436036,8|0,0:2|0:0,0:0:0:0:
142,212,54210,2,0,P|210:216|275:269,1,127.5,6|0,1:2|0:0,0:0:0:0:
281,322,54526,1,0,1:2:0:0:
403,248,54684,2,0,L|382:159,1,85,8|0,0:2|0:2,0:0:0:0:
432,99,54921,1,0,1:2:0:0:
447,80,55000,1,0,1:2:0:0:
504,152,55158,1,0,1:2:0:0:
405,258,55316,1,8,0:2:0:0:
260,147,55473,6,0,B|236:140|197:145|208:149|165:157|105:142,1,127.5,2|0,1:2|0:0,0:0:0:0:
133,147,55789,1,0,1:2:0:0:
45,199,55947,1,8,0:2:0:0:
169,270,56105,1,0,1:2:0:0:
257,130,56263,1,0,1:2:0:0:
251,113,56342,1,0,1:0:0:0:
245,96,56421,1,0,1:2:0:0:
333,196,56579,1,8,0:2:0:0:
448,156,56737,6,0,B|478:143|497:117|497:117|489:163|447:179,1,127.5,2|0,1:2|0:0,0:0:0:0:
480,244,57052,1,0,1:2:0:0:
346,107,57210,2,0,L|321:197,1,85,8|0,0:2|0:2,0:0:0:0:
378,258,57447,1,0,1:2:0:0:
372,278,57526,1,0,1:2:0:0:
397,377,57684,1,0,1:2:0:0:
258,274,57842,1,8,0:2:0:0:
98,354,58000,6,0,P|130:280|139:213,1,127.5,2|0,1:2|0:0,0:0:0:0:
102,171,58316,1,0,1:2:0:0:
198,343,58473,1,8,0:2:0:0:
318,203,58631,1,0,1:2:0:0:
217,244,58789,1,0,1:2:0:0:
231,252,58868,1,0,1:0:0:0:
245,260,58947,1,0,1:2:0:0:
332,347,59105,1,8,0:2:0:0:
438,201,59263,6,0,P|412:138|409:53,1,127.5,6|0,1:2|0:0,0:0:0:0:
437,10,59579,1,0,1:2:0:0:
328,100,59737,2,0,P|290:124|241:129,1,85,8|0,0:2|0:2,0:0:0:0:
161,92,59973,1,0,1:2:0:0:
135,99,60052,1,0,1:2:0:0:
240,197,60210,1,0,1:2:0:0:
78,264,60368,1,8,0:2:0:0:
245,347,60526,5,2,1:2:0:0:
227,355,60605,2,0,P|259:376|321:382,1,85,8|0,0:2|0:2,0:0:0:0:
373,347,60842,1,0,1:2:0:0:
469,281,61000,1,8,0:2:0:0:
334,215,61158,2,0,L|244:240,1,85,0|0,1:2|1:2,0:0:0:0:
175,262,61394,1,0,1:0:0:0:
161,280,61473,1,0,1:2:0:0:
212,373,61631,1,8,0:2:0:0:
45,292,61789,6,0,P|67:231|79:132,1,127.5,2|0,1:2|0:0,0:0:0:0:
49,97,62105,1,0,1:2:0:0:
268,0,62263,2,0,P|253:40|241:102,1,85,8|0,0:2|0:2,0:0:0:0:
329,139,62500,1,0,1:2:0:0:
333,162,62579,1,0,1:2:0:0:
441,109,62737,1,0,1:2:0:0:
307,242,62894,1,8,0:2:0:0:
159,100,63052,6,0,B|122:87|122:87|58:87|58:87|16:67,1,127.5,2|0,1:2|0:0,0:0:0:0:
2,183,63368,1,0,1:2:0:0:
18,179,63447,1,0,1:0:0:0:
34,175,63526,1,8,0:2:0:0:
159,274,63684,1,0,1:2:0:0:
269,107,63842,5,8,0:2:0:0:
309,76,63921,1,8,0:2:0:0:
355,69,64000,1,8,0:3:0:0:
393,86,64079,1,8,0:3:0:0:
409,120,64158,1,4,0:3:0:0:
396,151,64237,1,4,0:3:0:0:
367,159,64316,6,0,P|364:113|410:31,1,127.5,6|0,1:1|0:0,0:0:0:0:
477,43,64631,1,0,1:2:0:0:
512,204,64789,2,0,P|495:234|433:268,1,85,8|0,0:2|1:2,0:0:0:0:
389,309,65026,1,0,1:2:0:0:
367,298,65105,1,2,1:2:0:0:
259,370,65263,1,2,1:2:0:0:
160,248,65421,1,10,0:2:0:0:
66,274,65579,6,0,P|93:215|90:126,1,127.5,2|0,1:2|0:0,0:0:0:0:
51,92,65894,1,0,1:2:0:0:
221,166,66052,1,10,0:2:0:0:
197,89,66210,1,0,1:2:0:0:
329,14,66368,2,0,P|315:32|306:70,1,42.5,2|0,1:2|0:0,0:0:0:0:
397,73,66526,2,0,P|413:59|432:51,1,42.5,2|0,1:2|0:0,0:0:0:0:
505,179,66684,5,8,0:2:0:0:
488,174,66763,1,8,0:2:0:0:
474,171,66842,2,0,B|457:200|457:200|490:260|490:260|467:312,1,127.5,2|0,1:2|0:0,0:0:0:0:
459,359,67158,1,0,1:2:0:0:
354,223,67316,2,0,L|329:308,1,85,8|0,0:2|1:2,0:0:0:0:
249,334,67552,1,0,1:2:0:0:
242,355,67631,1,2,1:2:0:0:
103,373,67789,1,2,1:2:0:0:
52,235,67947,1,10,0:2:0:0:
163,271,68105,6,0,B|144:267|124:237|160:188|169:194|192:169|177:117|135:118,1,170,2|0,1:2|1:0,0:0:0:0:
93,1,68579,1,10,0:2:0:0:
263,50,68737,1,2,1:2:0:0:
135,113,68894,1,2,1:2:0:0:
106,123,68973,1,0,1:2:0:0:
78,134,69052,1,0,1:2:0:0:
4,211,69210,2,0,L|59:223,1,42.5,10|0,0:2|0:0,0:0:0:0:
88,329,69368,6,0,P|124:275|207:288,1,127.5,6|0,1:2|0:0,0:0:0:0:
249,326,69684,1,0,1:2:0:0:
337,240,69842,2,0,L|435:262,1,85,8|0,0:2|0:2,0:0:0:0:
477,313,70079,1,0,1:2:0:0:
493,323,70158,1,2,1:2:0:0:
363,359,70316,1,0,1:2:0:0:
231,249,70473,1,10,0:2:0:0:
304,147,70631,6,0,B|338:125|338:125|399:134|399:134|435:113,1,127.5,2|0,1:2|0:0,0:0:0:0:
498,4,70947,1,2,1:2:0:0:
494,33,71026,1,0,1:0:0:0:
489,62,71105,1,10,0:2:0:0:
365,210,71263,1,2,1:2:0:0:
193,60,71421,5,10,0:3:0:0:
168,33,71500,1,8,0:3:0:0:
137,42,71579,5,6,0:3:0:0:
127,76,71658,1,4,0:3:0:0:
86,67,71737,6,0,L|39:88,1,42.5,10|10,0:2|0:2,0:0:0:0:
196,148,71894,1,6,1:1:0:0:
261,258,73316,5,0,1:2:0:0:
259,272,73631,1,0,1:2:0:0:
422,168,73947,5,10,0:2:0:0:
415,197,74026,1,8,0:2:0:0:
463,223,74105,5,8,0:2:0:0:
483,199,74184,1,8,0:2:0:0:
512,248,74263,5,0,1:2:0:0:
495,256,74342,1,0,1:2:0:0:
492,302,74421,6,0,B|449:312|449:312|440:309|440:309|415:276|415:276|405:271|405:271|342:291,1,152.999995330811,6|0,1:2|0:0,0:0:0:0:
276,282,74737,1,0,1:2:0:0:
271,306,74816,1,0,1:2:0:0:
267,330,74894,1,8,0:2:0:0:
217,217,75052,1,0,1:2:0:0:
370,384,75210,6,0,B|383:375|383:375|379:359|379:359|362:368|362:368|364:385,1,50.9999984436036,8|0,0:2|0:0,0:0:0:0:
409,288,75368,6,0,B|422:279|422:279|418:263|418:263|401:272|401:272|403:289,1,50.9999984436036,0|0,1:2|0:0,0:0:0:0:
450,192,75526,6,0,B|463:183|463:183|459:167|459:167|442:176|442:176|444:193,1,50.9999984436036,8|8,0:2|0:2,0:0:0:0:
275,319,75684,6,0,B|234:311|217:301|217:301|202:319|202:319|207:354|178:393,1,152.999995330811,6|0,1:2|0:0,0:0:0:0:
60,341,76000,1,0,1:2:0:0:
52,316,76079,1,0,1:2:0:0:
70,297,76158,1,8,0:2:0:0:
184,383,76316,1,0,1:2:0:0:
256,215,76473,6,0,B|285:206|285:206|254:230,1,50.9999984436036,8|0,0:2|0:0,0:0:0:0:
398,215,76631,6,0,B|424:229|424:229|382:221,1,50.9999984436036,0|0,1:2|0:0,0:0:0:0:
498,293,76789,6,0,B|506:322|506:322|482:291,1,50.9999984436036,8|8,0:2|0:0,0:0:0:0:
334,294,76947,6,0,B|299:284|299:284|226:308|226:308|187:300,1,152.999995330811,6|0,1:2|0:0,0:0:0:0:
130,213,77263,1,0,1:2:0:0:
138,188,77342,1,0,1:2:0:0:
147,164,77421,1,8,0:2:0:0:
256,215,77579,1,0,1:2:0:0:
347,37,77737,1,8,0:2:0:0:
418,169,77894,1,0,1:2:0:0:
221,47,78052,1,8,0:2:0:0:
197,56,78131,1,8,0:2:0:0:
172,64,78210,6,0,B|77:56|114:75|4:63,1,152.999995330811,6|0,1:2|0:0,0:0:0:0:
66,148,78526,1,0,1:2:0:0:
73,172,78605,1,0,1:2:0:0:
80,196,78684,1,8,0:2:0:0:
5,287,78842,1,0,1:2:0:0:
219,163,79000,5,8,0:2:0:0:
240,184,79079,2,0,L|224:232,1,50.9999984436036,8|8,0:2|0:2,0:0:0:0:
404,354,79316,1,8,0:2:0:0:
426,334,79394,1,8,0:2:0:0:
456,329,79473,6,0,P|440:263|452:180,1,152.999995330811,6|0,1:2|0:0,0:0:0:0:
512,116,79789,1,0,1:2:0:0:
486,99,79868,1,0,1:2:0:0:
461,81,79947,1,8,0:2:0:0:
369,182,80105,1,0,1:2:0:0:
270,33,80263,6,0,B|273:5|273:5|252:32,1,50.9999984436036,8|0,0:2|0:0,0:0:0:0:
224,140,80421,6,0,B|227:112|227:112|206:139,1,50.9999984436036,0|0,1:2|0:0,0:0:0:0:
184,244,80579,6,0,B|187:216|187:216|166:243,1,50.9999984436036,8|8,0:2|0:2,0:0:0:0:
67,128,80737,6,0,P|80:93|60:125,1,101.999996887207,6|8,1:2|0:2,0:0:0:0:
155,23,81052,1,0,1:2:0:0:
162,52,81131,1,0,1:2:0:0:
169,81,81210,1,8,0:2:0:0:
290,190,81368,1,0,1:2:0:0:
473,68,81526,6,0,P|458:40|418:28,1,50.9999984436036,8|0,0:2|0:0,0:0:0:0:
318,82,81684,6,0,P|342:77|366:86,1,50.9999984436036,0|0,1:2|0:0,0:0:0:0:
491,201,81842,6,0,P|507:219|512:244,1,50.9999984436036,8|0,0:2|0:0,0:0:0:0:
413,285,82000,6,0,P|351:313|303:393,1,152.999995330811,6|0,1:2|0:0,0:0:0:0:
175,303,82316,1,0,1:2:0:0:
170,273,82394,1,0,1:2:0:0:
189,249,82473,6,0,P|212:230|235:223,1,50.9999984436036,8|0,0:2|0:0,0:0:0:0:
338,204,82631,1,0,1:2:0:0:
357,328,82789,6,0,P|343:301|325:285,1,50.9999984436036,8|0,0:2|0:0,0:0:0:0:
206,160,82947,1,0,1:2:0:0:
349,73,83105,6,0,P|363:99|364:133,1,50.9999984436036,8|8,0:2|0:0,0:0:0:0:
255,235,83263,2,0,B|244:262|244:262|278:301|278:301|265:332,1,101.999996887207,6|8,1:2|0:2,0:0:0:0:
122,374,83579,1,0,1:2:0:0:
91,378,83658,1,0,1:2:0:0:
61,384,83737,1,8,0:2:0:0:
148,293,83894,1,0,1:2:0:0:
3,213,84052,1,8,0:2:0:0:
155,79,84210,5,4,0:3:0:0:
159,88,84289,1,0,1:0:0:0:
162,97,84368,5,8,0:2:0:0:
212,106,84446,1,8,0:2:0:0:
262,115,84525,1,6,1:2:0:0:
479,331,84842,5,0,1:2:0:0:
479,331,84921,1,0,1:2:0:0:
479,331,85000,1,8,0:2:0:0:
512,207,85158,1,0,1:2:0:0:
384,376,85316,1,8,0:2:0:0:
231,189,85473,1,0,1:2:0:0:
363,250,85631,1,8,0:2:0:0:
334,261,85710,1,8,0:2:0:0:
305,273,85789,1,6,1:2:0:0:
28,358,86105,5,0,1:2:0:0:
28,358,86184,1,0,1:2:0:0:
28,358,86263,1,8,0:2:0:0:
124,331,86421,1,0,1:2:0:0:
257,220,86579,1,8,0:2:0:0:
149,146,86737,1,0,1:2:0:0:
216,383,86894,1,8,0:2:0:0:
399,226,87052,1,6,1:2:0:0:
249,0,87368,5,0,1:2:0:0:
249,0,87447,1,0,1:2:0:0:
249,0,87526,1,8,0:2:0:0:
337,89,87684,2,0,P|374:127|429:119,1,101.999996887207,0|8,1:2|0:2,0:0:0:0:
447,49,88000,2,0,P|397:47|364:84,1,101.999996887207,0|8,1:2|0:2,0:0:0:0:
238,205,88316,6,0,B|194:193|194:193|182:200|182:200|155:237|155:237|143:239|143:239|87:223,1,152.999995330811,6|0,1:2|0:0,0:0:0:0:
63,166,88631,1,8,1:2:0:0:
48,170,88710,1,8,0:0:0:0:
33,175,88789,1,8,0:2:0:0:
163,82,88947,1,0,1:2:0:0:
2,11,89105,1,8,0:2:0:0:
41,21,89184,1,8,0:2:0:0:
81,34,89263,1,8,0:2:0:0:
233,128,89421,1,8,0:2:0:0:
271,116,89500,1,8,0:2:0:0:
312,107,89579,1,6,1:2:0:0:
453,50,89737,6,0,L|410:181,1,101.999996887207,2|0,0:0|1:2,0:0:0:0:
478,200,89973,1,0,1:2:0:0:
487,223,90052,1,8,0:2:0:0:
376,312,90210,1,0,1:2:0:0:
220,180,90368,6,0,P|236:157|281:142,1,50.9999984436036,8|0,0:2|0:0,0:0:0:0:
373,218,90526,6,0,P|348:212|324:218,1,50.9999984436036,0|0,1:2|0:0,0:0:0:0:
152,262,90684,5,8,0:2:0:0:
127,277,90763,1,8,0:2:0:0:
89,257,90842,2,0,P|114:207|129:97,1,152.999995330811,6|0,1:2|0:0,0:0:0:0:
84,51,91158,1,0,1:2:0:0:
63,66,91237,1,0,1:2:0:0:
57,90,91316,1,8,0:2:0:0:
212,156,91473,1,0,1:2:0:0:
325,43,91631,1,8,0:2:0:0:
404,83,91789,2,0,P|457:66|508:48,1,101.999996887207,0|8,1:2|0:2,0:0:0:0:
263,214,92105,6,0,P|248:288|220:371,1,152.999995330811,6|0,1:2|0:0,0:0:0:0:
355,328,92421,1,0,1:2:0:0:
359,358,92500,1,0,1:2:0:0:
373,384,92579,1,8,0:2:0:0:
485,349,92737,2,0,P|504:333|475:346,1,101.999996887207,0|8,1:2|0:2,0:0:0:0:
378,225,93052,1,0,1:2:0:0:
496,154,93210,1,8,0:2:0:0:
511,127,93289,1,8,0:2:0:0:
504,97,93368,1,6,1:2:0:0:
342,315,93684,5,0,1:2:0:0:
342,315,93763,1,0,1:2:0:0:
342,315,93842,1,8,0:2:0:0:
256,228,94000,1,0,1:2:0:0:
138,384,94158,1,8,0:2:0:0:
10,245,94316,5,0,1:2:0:0:
16,226,94394,1,0,1:0:0:0:
55,202,94473,1,8,0:2:0:0:
98,183,94552,1,8,0:2:0:0:
104,164,94630,1,6,1:1:0:0:
42,34,94947,5,0,1:2:0:0:
174,0,95105,2,0,P|161:53|137:96,1,101.999996887207,8|0,0:2|1:2,0:0:0:0:
208,254,95421,2,0,P|221:201|245:158,1,101.999996887207,8|0,0:2|1:2,0:0:0:0:
357,99,95737,2,0,P|304:86|261:62,1,101.999996887207,8|0,0:2|1:2,0:0:0:0:
147,165,96052,5,8,0:2:0:0:
69,213,96210,1,0,1:2:0:0:
188,273,96368,5,8,0:2:0:0:
204,357,96526,1,0,1:2:0:0:
360,198,96684,5,8,0:2:0:0:
309,297,96842,1,0,1:2:0:0:
346,184,97000,5,8,0:2:0:0:
483,319,97158,2,0,P|468:269|491:165,1,152.999995330811,6|0,1:1|0:0,0:0:0:0:
431,90,97473,2,0,P|477:91|503:30,13,101.999996887207
360,178,99684,5,6,1:1:0:0:
376,169,99763,2,0,P|354:130|299:121,1,85
238,95,100000,2,0,L|225:146,1,42.5,0|0,1:2|0:0,0:0:0:0:
279,217,100158,1,8,0:2:0:0:
63,301,100394,5,0,1:2:0:0:
51,286,100473,1,2,1:2:0:0:
147,244,100631,1,0,1:2:0:0:
248,375,100789,1,10,0:2:0:0:
376,210,100947,2,0,P|356:136|325:87,1,127.5,2|0,1:2|0:0,0:0:0:0:
261,60,101263,1,2,1:2:0:0:
446,0,101421,2,0,P|436:42|418:97,1,85,10|2,0:2|1:2,0:0:0:0:
512,130,101737,1,2,1:2:0:0:
512,130,101816,1,0,1:2:0:0:
512,130,101894,1,0,1:2:0:0:
457,245,102052,1,10,0:2:0:0:
278,147,102210,6,0,B|203:136|232:154|147:140,1,127.5,2|0,1:2|0:0,0:0:0:0:
70,164,102526,2,0,L|55:113,1,42.5,0|0,1:2|0:0,0:0:0:0:
6,260,102684,1,8,0:2:0:0:
221,228,102921,5,0,1:0:0:0:
230,252,103000,1,2,1:2:0:0:
358,163,103158,1,2,1:2:0:0:
424,354,103316,1,10,0:2:0:0:
465,221,103473,6,0,P|464:139|497:71,1,127.5,2|0,1:2|0:0,0:0:0:0:
504,31,103789,1,2,1:2:0:0:
360,146,103947,1,8,0:2:0:0:
261,9,104105,1,2,1:2:0:0:
349,53,104263,1,0,1:2:0:0:
372,63,104342,1,0,1:2:0:0:
395,73,104421,1,2,1:2:0:0:
288,240,104579,1,10,0:2:0:0:
127,182,104737,5,6,1:2:0:0:
109,171,104816,2,0,P|122:133|135:60,1,85
87,11,105052,1,0,1:2:0:0:
265,111,105210,2,0,P|271:80|259:110,1,85,8|0,0:2|0:2,0:0:0:0:
327,164,105447,1,0,1:2:0:0:
338,185,105526,1,2,1:2:0:0:
437,118,105684,1,2,1:2:0:0:
512,280,105842,1,10,0:2:0:0:
431,236,106000,6,0,P|411:287|393:328,1,85,2|0,1:2|0:0,0:0:0:0:
181,384,106316,2,0,P|196:344|212:305,1,85,2|8,1:2|0:2,0:0:0:0:
326,248,106631,1,2,1:2:0:0:
323,345,106789,1,2,1:2:0:0:
299,354,106868,1,0,1:0:0:0:
274,362,106947,1,0,1:2:0:0:
155,228,107105,1,10,0:2:0:0:
29,384,107263,6,0,P|8:333|26:225,1,127.5,2|0,1:2|0:0,0:0:0:0:
69,212,107579,1,0,1:2:0:0:
120,334,107737,2,0,L|226:359,1,85,8|0,0:2|0:2,0:0:0:0:
244,278,107973,1,0,1:2:0:0:
271,286,108052,1,2,1:2:0:0:
390,360,108210,1,2,1:2:0:0:
488,209,108368,1,10,0:2:0:0:
412,263,108526,6,0,P|394:202|403:115,1,127.5,2|0,1:2|0:0,0:0:0:0:
446,67,108842,1,0,1:2:0:0:
467,80,108921,1,0,1:2:0:0:
478,102,109000,1,10,0:2:0:0:
306,179,109158,1,2,1:2:0:0:
179,88,109316,5,8,0:2:0:0:
139,63,109394,1,8,0:2:0:0:
96,58,109473,1,8,0:3:0:0:
60,71,109552,1,4,0:3:0:0:
41,99,109631,1,10,0:2:0:0:
49,127,109710,1,8,0:2:0:0:
73,134,109789,5,6,1:2:0:0:
73,134,109868,2,0,P|65:185|55:227,1,85
18,284,110105,1,0,1:2:0:0:
186,188,110263,2,0,P|233:174|280:150,1,85,10|0,0:2|1:2,0:0:0:0:
316,242,110500,1,0,1:2:0:0:
306,260,110579,1,2,1:2:0:0:
383,384,110737,1,0,1:2:0:0:
478,232,110894,1,10,0:2:0:0:
511,313,111052,1,2,1:2:0:0:
387,177,111210,6,0,P|400:139|407:81,1,85,2|2,0:2|1:2,0:0:0:0:
408,288,111526,2,0,P|395:326|388:384,1,85,10|2,0:2|1:2,0:0:0:0:
263,235,111842,1,2,1:2:0:0:
237,239,111921,1,0,1:0:0:0:
212,244,112000,1,2,1:2:0:0:
309,329,112158,1,8,0:2:0:0:
250,146,112316,6,0,B|262:118|262:118|235:59|235:59|249:25,1,127.5,2|0,1:2|0:0,0:0:0:0:
286,11,112631,2,0,L|261:70,1,42.5,0|0,1:2|0:0,0:0:0:0:
153,106,112789,1,8,0:2:0:0:
335,213,112947,1,0,1:2:0:0:
335,213,113026,1,0,1:2:0:0:
335,213,113105,1,2,1:2:0:0:
417,161,113263,1,0,1:2:0:0:
512,236,113421,1,10,0:2:0:0:
249,170,113579,6,0,P|236:228|203:306,1,127.5,2|0,1:2|0:0,0:0:0:0:
157,349,113894,1,0,1:2:0:0:
43,223,114052,1,10,0:2:0:0:
142,256,114210,1,2,1:2:0:0:
36,318,114368,2,0,L|-5:343,1,42.5,2|0,1:2|1:2,0:0:0:0:
151,249,114526,1,2,1:2:0:0:
276,371,114684,1,8,0:2:0:0:
396,256,114842,5,6,1:2:0:0:
376,233,114921,1,0,0:0:0:0:
483,75,115158,1,0,1:2:0:0:
389,24,115316,2,0,L|282:61,1,85,8|0,0:2|0:0,0:0:0:0:
240,101,115552,1,0,1:0:0:0:
233,125,115631,1,2,1:2:0:0:
130,36,115789,1,2,1:2:0:0:
207,0,115947,1,10,0:2:0:0:
360,99,116105,6,0,B|344:137|344:137|347:146|347:146|376:169|376:169|377:179|377:179|360:227,1,127.5,2|0,1:2|0:0,0:0:0:0:
267,238,116421,2,0,L|172:263,1,85,2|8,1:2|0:2,0:0:0:0:
345,342,116737,1,2,1:2:0:0:
460,232,116894,5,10,0:3:0:0:
437,191,116973,1,8,0:3:0:0:
454,152,117052,1,6,0:3:0:0:
486,131,117131,1,4,0:3:0:0:
501,100,117210,1,10,0:2:0:0:
499,70,117289,1,8,0:2:0:0:
476,54,117368,6,0,P|413:73|359:130,1,127.5,6|0,1:2|0:0,0:0:0:0:
325,4,117684,2,0,P|317:33|306:64,1,42.5,0|0,1:2|0:0,0:0:0:0:
208,85,117842,2,0,P|170:53|131:48,1,85,10|2,0:2|1:2,0:0:0:0:
60,83,118079,1,0,1:2:0:0:
54,100,118158,1,0,1:2:0:0:
152,167,118316,1,0,1:2:0:0:
0,270,118473,6,0,P|14:248|32:198,1,50.9999984436036,10|0,0:2|0:0,0:0:0:0:
138,188,118631,2,0,P|189:246|300:236,1,152.999995330811,2|0,1:2|0:0,0:0:0:0:
330,281,118947,2,0,P|302:238|293:173,1,101.999996887207,0|8,1:2|0:2,0:0:0:0:
450,226,119263,1,0,1:2:0:0:
463,198,119342,1,0,1:2:0:0:
492,188,119421,6,0,L|513:248,1,50.9999984436036,0|0,1:2|0:0,0:0:0:0:
407,322,119579,2,0,L|428:382,1,50.9999984436036,0|0,1:2|0:0,0:0:0:0:
505,376,119737,1,0,0:0:0:0:
265,241,119894,6,0,B|218:238|180:210|180:210|206:261|233:331|221:376|151:384|117:324|142:303|169:285|192:315,1,342.549986410065,6|0,1:1|0:0,0:0:0:0:
278,364,122105,1,0,0:0:0:0:
255,219,122421,6,0,B|228:237|185:183|254:130|263:147|331:87|296:10|253:10|245:55,1,255,2|0,1:2|0:0,0:0:0:0:
261,55,123052,1,0,0:0:0:0:
372,215,123526,5,0,0:0:0:0:
354,229,123684,2,0,B|377:278|433:296|496:263|467:213|421:251,1,178.499994552612
344,331,124789,2,0,P|320:338|295:351,1,42.5,8|0,0:2|0:0,0:0:0:0:
152,383,124947,6,0,B|152:325|191:299|191:299|207:281|207:236|207:236|176:254|144:264|144:264|126:302|66:304,1,316.199987455445,4|0,1:1|0:0,0:0:0:0:
74,304,127316,1,0,0:0:0:0:
108,194,127473,6,0,B|63:211|18:186|42:157|-16:131|-16:131|46:87|113:116|126:160,1,316.199987455445,6|0,1:1|0:0,0:0:0:0:
309,249,129526,6,0,P|317:226|313:196,1,42.5,8|0,0:2|0:0,0:0:0:0:
191,225,129684,1,0,1:2:0:0:
279,383,129842,2,0,P|300:372|319:348,1,42.5,8|0,0:2|0:0,0:0:0:0:
242,309,130000,6,0,P|171:262|77:286,1,170,6|2,1:2|1:2,0:0:0:0:
91,275,130473,1,0,1:2:0:0:
213,239,130631,1,2,1:2:0:0:
219,214,130710,1,0,1:2:0:0:
225,189,130789,1,8,0:2:0:0:
384,318,130947,1,10,0:2:0:0:
441,249,131105,1,0,1:2:0:0:
320,229,131263,6,0,L|290:358,1,127.5,2|0,1:2|0:0,0:0:0:0:
291,353,131579,1,2,1:2:0:0:
456,108,131894,1,2,1:2:0:0:
447,79,131973,1,0,1:2:0:0:
439,50,132052,1,8,0:2:0:0:
501,4,132210,1,0,1:2:0:0:
371,158,132368,1,0,1:2:0:0:
222,94,132526,6,0,B|133:81|165:72|62:52,1,152.999995330811,6|0,1:2|0:0,0:0:0:0:
0,53,132842,2,0,P|-4:75|16:103,1,50.9999984436036,2|0,1:2|0:0,0:0:0:0:
114,161,133000,1,2,1:2:0:0:
304,74,133158,1,2,1:2:0:0:
316,45,133237,1,0,1:2:0:0:
328,16,133316,1,8,0:2:0:0:
376,140,133473,1,10,0:2:0:0:
228,9,133631,1,0,1:2:0:0:
105,74,133789,6,0,P|93:147|72:215,1,127.5,2|0,1:2|0:0,0:0:0:0:
33,259,134105,1,0,1:2:0:0:
249,140,134421,1,2,1:2:0:0:
257,164,134500,1,0,1:2:0:0:
267,187,134579,1,8,0:2:0:0:
369,164,134737,1,2,1:2:0:0:
512,294,134894,1,0,1:2:0:0:
478,204,135052,6,0,L|509:69,1,127.5,6|0,1:2|0:0,0:0:0:0:
506,79,135368,1,2,1:2:0:0:
377,256,135526,1,10,0:2:0:0:
267,187,135684,2,0,B|256:105|256:105|169:170,1,170,2|2,1:2|0:2,0:0:0:0:
201,237,136158,6,0,L|174:292,1,50.9999984436036,0|0,1:2|0:0,0:0:0:0:
7,336,136316,2,0,P|51:321|117:369,1,127.5,2|0,1:2|0:0,0:0:0:0:
114,363,136631,1,2,1:2:0:0:
62,248,136789,1,10,0:2:0:0:
185,157,136947,1,2,1:2:0:0:
208,165,137026,1,0,1:2:0:0:
231,175,137105,1,8,0:2:0:0:
349,341,137263,1,2,1:2:0:0:
396,224,137421,1,10,0:2:0:0:
373,232,137500,1,8,0:2:0:0:
350,242,137579,6,0,B|313:205|345:132|360:163|431:111|417:-26|338:31|321:82|368:109,1,276.25,6|0,1:2|0:0,0:0:0:0:
438,167,138684,6,0,P|460:182|486:193,1,50.9999984436036,10|0,0:2|0:0,0:0:0:0:
466,82,138842,1,2,1:2:0:0:
307,289,139631,5,8,0:2:0:0:
288,313,139710,1,8,0:2:0:0:
238,293,139789,5,8,0:2:0:0:
243,262,139868,1,8,0:2:0:0:
187,271,139947,5,0,1:2:0:0:
192,290,140026,1,0,1:2:0:0:
154,294,140105,6,0,B|103:306|103:306|55:350|55:350|4:361,1,152.999995330811,6|0,1:2|0:0,0:0:0:0:
16,274,140421,1,0,1:2:0:0:
24,249,140500,1,0,1:2:0:0:
33,225,140579,1,8,0:2:0:0:
152,384,140737,1,0,1:2:0:0:
278,277,140894,6,0,P|272:259|269:267,1,50.9999984436036,8|0,0:2|0:0,0:0:0:0:
147,173,141052,6,0,P|153:155|156:163,1,50.9999984436036,0|0,1:2|0:0,0:0:0:0:
286,108,141210,5,8,0:2:0:0:
314,97,141289,1,8,0:2:0:0:
343,88,141368,2,0,B|383:101|430:96|430:96|410:122|362:131,1,152.999995330811,6|0,1:2|0:0,0:0:0:0:
458,173,141684,1,0,1:2:0:0:
448,202,141763,1,0,1:2:0:0:
438,231,141842,1,8,0:2:0:0:
500,345,142000,1,0,1:2:0:0:
276,384,142158,2,0,P|298:337|309:281,1,101.999996887207,8|0,0:2|1:2,0:0:0:0:
239,148,142473,5,8,0:2:0:0:
210,160,142552,1,8,0:0:0:0:
181,171,142631,2,0,B|149:161|149:161|75:196|75:196|6:180,1,152.999995330811,6|0,1:2|0:0,0:0:0:0:
72,105,142947,1,0,1:2:0:0:
82,76,143026,1,0,1:2:0:0:
82,45,143105,1,8,0:2:0:0:
195,85,143263,1,0,1:2:0:0:
156,282,143421,1,8,0:2:0:0:
317,179,143579,1,0,1:2:0:0:
379,356,143737,1,8,0:2:0:0:
295,304,143894,1,6,1:2:0:0:
390,230,144052,6,0,L|496:255,1,101.999996887207,8|0,0:2|1:2,0:0:0:0:
512,321,144289,1,0,1:2:0:0:
482,330,144368,1,8,0:2:0:0:
368,367,144526,1,0,1:2:0:0:
258,217,144684,2,0,P|271:158|279:104,1,101.999996887207,8|0,0:2|1:2,0:0:0:0:
421,18,145000,1,8,0:2:0:0:
431,46,145079,1,8,0:2:0:0:
444,73,145158,6,0,B|425:114|425:114|442:174|442:174|421:225,1,152.999995330811,6|0,1:2|0:0,0:0:0:0:
336,209,145473,1,0,1:2:0:0:
343,238,145552,1,0,1:2:0:0:
349,267,145631,1,8,0:2:0:0:
430,352,145789,1,0,1:2:0:0:
512,207,145947,6,0,P|499:188|465:175,1,50.9999984436036,8|0,0:2|0:0,0:0:0:0:
352,116,146105,1,0,1:2:0:0:
227,299,146263,6,0,P|240:280|274:267,1,50.9999984436036,8|8,0:2|0:2,0:0:0:0:
422,223,146421,2,0,B|412:178|450:144|462:175|484:131|479:70,1,152.999995330811,6|0,1:2|0:0,0:0:0:0:
379,0,146737,1,0,1:2:0:0:
391,28,146816,1,0,1:2:0:0:
400,56,146894,1,8,0:2:0:0:
257,150,147052,1,0,1:2:0:0:
174,35,147210,6,0,P|165:61|151:90,1,50.9999984436036,8|0,0:2|0:0,0:0:0:0:
268,6,147368,1,0,1:2:0:0:
314,239,147526,6,0,P|323:213|337:184,1,50.9999984436036,8|8,0:2|0:0,0:0:0:0:
197,206,147684,2,0,P|117:244|10:250,1,152.999995330811,6|0,1:2|0:0,0:0:0:0:
0,188,148000,1,0,1:2:0:0:
5,157,148079,1,0,1:2:0:0:
31,141,148158,1,8,0:2:0:0:
143,158,148316,1,0,1:2:0:0:
185,373,148473,6,0,P|197:349|236:318,1,50.9999984436036,8|0,0:2|0:0,0:0:0:0:
328,253,148631,1,0,1:2:0:0:
351,384,148789,6,0,P|339:360|300:329,1,50.9999984436036,8|8,0:2|0:0,0:0:0:0:
171,264,148947,1,6,1:2:0:0:
345,161,149105,6,0,P|320:87|326:53,1,101.999996887207,8|0,0:2|1:2,0:0:0:0:
381,24,149342,1,0,1:2:0:0:
404,37,149421,1,8,0:2:0:0:
249,146,149579,1,0,1:2:0:0:
113,12,149737,2,0,L|220:40,1,101.999996887207,8|4,0:2|0:3,0:0:0:0:
294,79,149973,1,4,0:3:0:0:
320,92,150052,1,8,0:2:0:0:
164,157,150210,6,0,B|113:178|113:178|75:216|75:216|21:234,1,152.999995330811,6|0,1:2|0:0,0:0:0:0:
0,109,150526,1,0,1:2:0:0:
28,118,150605,1,0,1:2:0:0:
56,128,150684,1,8,0:2:0:0:
168,246,150842,1,0,1:2:0:0:
42,356,151000,6,0,B|15:365|15:365|43:342,1,50.9999984436036,8|0,0:2|0:0,0:0:0:0:
187,335,151158,6,0,B|161:323|161:323|197:326,1,50.9999984436036,0|0,1:2|0:0,0:0:0:0:
327,380,151316,5,8,0:2:0:0:
354,366,151394,1,8,0:2:0:0:
383,356,151473,2,0,P|360:281|362:192,1,152.999995330811,6|0,1:2|0:0,0:0:0:0:
440,150,151789,1,0,1:2:0:0:
468,161,151868,1,0,1:2:0:0:
494,176,151947,1,8,0:2:0:0:
442,262,152105,1,0,1:2:0:0:
305,128,152263,6,0,P|306:92|334:64,1,50.9999984436036,8|0,0:2|0:0,0:0:0:0:
392,36,152421,1,0,1:2:0:0:
272,225,152579,6,0,P|245:249|206:249,1,50.9999984436036,8|8,0:2|0:0,0:0:0:0:
176,131,152737,2,0,P|123:92|22:91,1,152.999995330811,6|0,1:2|0:0,0:0:0:0:
4,159,153052,1,0,1:2:0:0:
12,188,153131,1,0,1:2:0:0:
19,217,153210,1,8,0:2:0:0:
138,301,153368,1,0,1:2:0:0:
255,167,153526,6,0,P|268:133|267:98,1,50.9999984436036,8|0,0:2|0:0,0:0:0:0:
142,202,153684,1,0,1:2:0:0:
271,322,153842,6,0,P|304:307|328:281,1,50.9999984436036,8|8,0:2|0:0,0:0:0:0:
146,218,154000,1,6,1:2:0:0:
339,193,154158,6,0,P|417:214|465:246,1,101.999996887207,0|0,0:0|1:2,0:0:0:0:
483,287,154394,1,0,1:2:0:0:
493,313,154473,1,8,0:2:0:0:
498,159,154631,1,0,1:2:0:0:
288,272,154789,5,8,0:2:0:0:
257,312,154867,1,8,0:2:0:0:
212,337,154946,1,8,0:2:0:0:
162,343,155026,1,8,0:0:0:0:
113,329,155105,6,0,P|127:298|136:257,1,50.9999984436036,8|8,0:2|0:2,0:0:0:0:
28,370,155263,1,6,1:2:0:0:
245,179,155579,5,0,1:2:0:0:
245,179,155658,1,0,1:2:0:0:
245,179,155737,1,8,0:2:0:0:
158,91,155894,1,0,1:2:0:0:
346,29,156052,1,8,0:2:0:0:
413,204,156210,1,0,1:2:0:0:
490,122,156368,5,8,0:2:0:0:
480,87,156447,1,8,0:2:0:0:
471,52,156526,1,6,1:2:0:0:
332,146,156684,1,8,0:2:0:0:
450,301,156842,1,0,1:2:0:0:
450,301,156921,1,0,1:2:0:0:
450,301,157000,1,8,0:2:0:0:
504,225,157158,1,0,1:2:0:0:
340,355,157316,1,8,0:2:0:0:
229,164,157473,1,0,1:2:0:0:
351,233,157631,1,8,0:2:0:0:
180,293,157789,6,0,B|138:311|138:311|93:364|93:364|58:387,1,152.999995330811,6|0,1:2|0:0,0:0:0:0:
37,300,158105,1,0,1:2:0:0:
47,265,158184,1,0,1:2:0:0:
58,231,158263,1,8,0:2:0:0:
1,128,158421,1,0,1:2:0:0:
169,211,158579,1,8,0:2:0:0:
277,68,158737,1,0,1:2:0:0:
167,7,158894,1,8,0:2:0:0:
208,132,159052,6,0,P|292:164|349:197,1,152.999995330811,6|0,1:2|0:0,0:0:0:0:
427,159,159368,1,0,1:2:0:0:
434,193,159447,1,0,1:0:0:0:
456,220,159526,1,8,0:2:0:0:
512,88,159684,1,0,1:2:0:0:
409,29,159842,1,8,0:2:0:0:
315,134,160000,5,0,1:2:0:0:
290,107,160079,1,0,1:2:0:0:
259,116,160158,5,8,0:2:0:0:
249,150,160237,1,8,0:2:0:0:
198,159,160316,6,0,B|136:151|84:103|84:103|94:152|125:181|190:197,1,255,6|0,1:1|1:2,0:0:0:0:
218,257,161105,1,0,1:2:0:0:
217,259,161421,1,0,1:2:0:0:
216,261,161737,1,0,1:2:0:0:
215,264,162053,1,0,1:2:0:0:
214,266,162368,1,0,1:2:0:0:
214,269,162684,1,0,1:2:0:0:
213,271,163000,1,0,1:2:0:0:
212,273,163316,1,0,1:2:0:0:
211,276,163631,1,0,1:2:0:0:
210,278,163947,1,0,1:2:0:0:
209,281,164263,1,0,1:2:0:0:
209,283,164579,1,0,1:2:0:0:
208,285,164894,5,0,1:2:0:0:
308,207,165052,1,12,0:2:0:0:
371,384,165210,1,0,1:2:0:0:
477,292,165368,5,6,1:1:0:0:
417,109,165842,1,0,1:2:0:0:
418,107,166158,1,0,1:2:0:0:
419,105,166474,1,0,1:2:0:0:
420,102,166790,1,0,1:2:0:0:
421,100,167105,1,0,1:2:0:0:
421,97,167421,1,0,1:2:0:0:
422,95,167737,1,0,1:2:0:0:
423,93,168053,1,0,1:2:0:0:
424,90,168368,1,0,1:2:0:0:
425,88,168684,1,0,1:2:0:0:
426,85,169000,1,0,1:2:0:0:
426,83,169316,1,2,1:2:0:0:
431,79,169631,1,0,1:2:0:0:
278,160,169947,5,8,1:2:0:0:
184,1,170105,2,0,P|181:28|167:72,1,63.7500024318696,10|0,0:3|0:0,0:0:0:0:
101,126,170263,1,4,0:3:0:0:
71,135,170342,1,4,0:3:0:0:
42,145,170421,1,6,1:2:0:0:
368,311,170737,5,0,0:2:0:0:
420,220,170894,2,0,P|406:197|403:160,1,50.9999984436036,0|0,1:2|0:0,0:0:0:0:
490,265,171052,2,0,P|496:238|520:210,1,50.9999984436036,0|0,1:2|0:0,0:0:0:0:
501,135,171210,5,10,0:2:0:0:
307,205,171368,2,0,P|231:232|177:246,1,101.999996887207,10|6,0:3|0:3,0:0:0:0:
248,347,171605,1,0,1:0:0:0:
223,365,171684,6,0,P|178:307|66:322,1,152.999995330811,6|0,1:2|0:0,0:0:0:0:
37,357,172000,1,0,1:2:0:0:
186,284,172158,1,0,0:0:0:0:
120,207,172316,1,0,1:2:0:0:
90,212,172394,1,0,1:2:0:0:
60,219,172473,5,10,0:2:0:0:
250,130,172631,1,10,0:3:0:0:
170,0,172789,2,0,P|162:26|152:51,1,50.9999984436036,6|0,0:3|0:0,0:0:0:0:
326,54,172947,6,0,B|380:54|407:13|407:13|443:10|443:10|430:44|430:44|388:64|376:128,1,254.999992218018,6|0,1:2|0:0,0:0:0:0:
413,180,173421,2,0,L|309:198,1,101.999996887207,0|0,1:2|0:0,0:0:0:0:
271,0,173737,6,0,P|251:27|247:61,1,50.9999984436036,10|0,0:2|0:0,0:0:0:0:
123,89,173894,2,0,P|127:122|149:149,1,50.9999984436036,10|0,0:3|0:0,0:0:0:0:
246,132,174052,1,6,0:3:0:0:
375,273,174210,6,0,B|418:265|442:246|442:246|483:259|515:284,1,152.999995330811,6|0,1:2|0:0,0:0:0:0:
468,342,174526,2,0,B|477:371|443:378|443:378|417:353|385:344,1,101.999996887207,0|0,1:2|0:0,0:0:0:0:
276,217,174842,1,0,1:2:0:0:
266,245,174921,1,0,1:2:0:0:
258,274,175000,5,10,0:2:0:0:
143,292,175158,2,0,B|115:302|115:302|144:276,1,50.9999984436036,10|0,0:3|0:0,0:0:0:0:
12,354,175316,2,0,B|-8:375|-8:375|5:339,1,50.9999984436036,6|0,0:3|0:0,0:0:0:0:
97,213,175473,6,0,B|75:183|23:143|23:143|95:171|179:188,1,254.999992218018,6|0,1:2|0:0,0:0:0:0:
239,116,175947,2,0,P|250:146|284:162,1,50.9999984436036,0|0,1:2|0:0,0:0:0:0:
370,127,176105,2,0,P|345:122|326:104,1,50.9999984436036,0|0,1:2|0:0,0:0:0:0:
493,98,176263,5,10,0:2:0:0:
352,238,176421,1,10,0:3:0:0:
282,26,176579,1,6,0:3:0:0:
150,62,176737,6,0,P|113:187|94:240,1,152.999995330811,6|0,1:2|0:0,0:0:0:0:
188,212,177052,2,0,P|223:206|192:202,1,101.999996887207,0|0,1:2|0:0,0:0:0:0:
316,101,177368,1,0,1:2:0:0:
322,130,177447,1,0,1:2:0:0:
331,159,177526,5,10,0:2:0:0:
509,216,177684,2,0,B|491:214|469:192|469:192|465:181|465:181|499:196|538:204,1,101.999996887207,10|6,0:3|0:3,0:0:0:0:
458,336,178000,6,0,B|461:326|430:300|406:335|363:278|363:278|371:345|327:385|256:388,1,254.999992218018,6|0,1:2|0:0,0:0:0:0:
215,342,178473,2,0,B|205:330|205:330|238:263|238:263|232:247,1,101.999996887207,0|0,1:2|0:0,0:0:0:0:
124,211,178789,6,0,L|144:257,1,50.9999984436036,10|0,0:2|0:0,0:0:0:0:
336,161,178947,2,0,L|318:208,1,50.9999984436036,10|0,0:3|0:0,0:0:0:0:
216,121,179105,1,6,0:3:0:0:
314,55,179263,6,0,P|241:13|167:36,1,152.999995330811,6|0,1:2|0:0,0:0:0:0:
203,2,179579,2,0,P|253:-3|300:21,1,101.999996887207,0|0,1:2|0:2,0:0:0:0:
372,127,179894,5,0,1:2:0:0:
386,174,179972,1,0,1:2:0:0:
425,205,180051,1,8,0:2:0:0:
475,208,180130,1,8,0:0:0:0:
503,179,180210,5,8,0:3:0:0:
459,193,180289,1,8,0:3:0:0:
405,237,180368,5,4,0:3:0:0:
361,251,180447,1,4,0:3:0:0:
298,292,180526,6,0,B|245:320|226:374|226:374|219:360|219:360|224:255|295:258|334:213|336:80|221:97|205:168|270:189,1,462.400002822266,6|0,1:1|0:0,0:0:0:0:
37,94,190316,5,8,0:3:0:0:
115,132,190473,1,8,0:3:0:0:
234,84,190631,2,0,B|342:64|299:90|412:65,1,170,6|0,1:1|0:0,0:0:0:0:
454,130,191105,1,0,0:0:0:0:
323,180,191263,2,0,L|292:293,1,85
446,332,191579,6,0,P|436:311|429:254,1,50.9999984436036,8|0,0:2|0:0,0:0:0:0:
358,384,191737,1,8,0:3:0:0:
206,292,191894,2,0,P|131:256|39:262,1,170,6|0,0:3|0:0,0:0:0:0:
0,324,192368,1,0,0:0:0:0:
118,184,192526,2,0,P|156:213|208:191,1,85
293,258,192842,6,0,L|336:271,1,38.2499988327027,6|0,1:2|0:0,0:0:0:0:
354,367,193158,6,0,B|379:316|440:320|506:384|566:314|519:288|472:265|413:398,1,297.5,6|0,1:1|0:0,0:0:0:0:
410,368,194105,6,0,L|398:323,1,42.5,8|0,0:2|0:0,0:0:0:0:
498,235,194263,2,0,L|486:190,1,34,8|0,0:3|0:0,0:0:0:0:
380,190,194421,6,0,B|391:150|391:150|436:121|436:121|443:77,1,127.5,4|0,0:3|0:0,0:0:0:0:
376,0,195052,2,0,L|391:64,1,42.5,8|0,0:2|0:0,0:0:0:0:
446,228,195210,6,0,B|434:188|434:188|389:159|389:159|382:115,1,127.5,8|0,0:3|0:0,0:0:0:0:
384,127,195526,1,0,0:0:0:0:
266,178,195684,6,0,L|247:264,1,85,6|0,1:1|0:0,0:0:0:0:
361,306,196631,1,8,0:3:0:0:
411,257,196789,1,4,0:3:0:0:
442,373,196947,5,6,1:1:0:0:
442,373,197105,2,0,P|387:337|272:334,1,170
145,372,197894,1,8,0:3:0:0:
70,350,198052,1,8,0:3:0:0:
132,318,198210,1,4,0:3:0:0:
261,379,198368,6,0,B|246:389|218:368|194:282|268:238|297:270|338:192|349:113|276:80|229:119|243:155|274:169,1,356.999989105225,6|0,1:1|0:0,0:0:0:0:
397,88,200894,5,6,1:1:0:0:
490,173,201052,2,0,B|526:138|526:138|505:132|505:132|449:163,1,127.5,0|0,1:2|0:0,0:0:0:0:
431,224,201368,1,0,1:2:0:0:
281,197,201526,2,0,B|310:192|333:170|333:170|297:179|258:178,1,127.5,8|0,0:2|0:0,0:0:0:0:
192,222,201842,1,0,1:2:0:0:
180,243,202000,1,0,1:2:0:0:
45,86,202316,5,0,1:2:0:0:
181,16,202631,1,0,1:2:0:0:
209,25,202710,1,0,1:2:0:0:
236,36,202789,1,8,0:2:0:0:
337,91,202947,2,0,B|297:99|297:99|259:124|259:124|199:142,1,127.5,0|0,1:2|0:0,0:0:0:0:
282,207,203263,1,8,0:2:0:0:
429,264,203421,5,2,1:2:0:0:
501,205,203579,2,0,P|484:151|474:73,1,127.5,0|0,1:2|0:0,0:0:0:0:
499,15,203894,1,0,1:2:0:0:
356,146,204052,2,0,P|403:147|357:156,1,127.5,8|0,0:2|0:0,0:0:0:0:
355,247,204368,1,0,1:2:0:0:
261,108,204526,6,0,B|245:145|245:145|278:190|278:190|259:235,1,127.5,0|0,1:2|0:0,0:0:0:0:
243,290,204842,1,0,1:2:0:0:
80,109,205158,1,0,1:2:0:0:
70,137,205237,1,0,1:2:0:0:
61,165,205316,1,8,0:2:0:0:
0,237,205473,2,0,B|24:272|20:295|20:295|29:292|29:292|50:262|91:249,1,127.5,8|0,0:3|0:0,0:0:0:0:
139,209,205789,6,0,L|161:277,1,63.7500024318696,8|8,0:2|0:0,0:0:0:0:
89,366,205947,1,6,1:1:0:0:
252,330,206105,2,0,P|301:282|398:302,1,152.999995330811,0|0,1:0|0:0,0:0:0:0:
430,350,206421,1,0,1:2:0:0:
385,265,206579,2,0,P|344:225|263:241,1,127.5,8|0,0:2|0:0,0:0:0:0:
180,270,206894,2,0,P|190:247|196:221,1,42.5,0|0,1:2|0:0,0:0:0:0:
196,384,207052,1,0,1:2:0:0:
331,174,207368,6,0,P|307:119|319:40,1,127.5,0|0,1:2|0:0,0:0:0:0:
370,0,207684,1,0,1:2:0:0:
388,23,207763,1,0,1:2:0:0:
389,52,207842,1,8,0:2:0:0:
481,177,208000,2,0,B|506:157|518:132|518:132|481:156|430:176,1,127.5,0|0,1:2|0:0,0:0:0:0:
414,226,208316,6,0,L|395:289,1,42.5,8|0,0:2|0:0,0:0:0:0:
443,327,208473,1,2,1:2:0:0:
275,227,208631,1,0,1:2:0:0:
275,227,208947,1,0,1:2:0:0:
368,155,209105,2,0,B|384:133|376:93|376:93|363:129|334:153,1,127.5,8|0,0:2|0:0,0:0:0:0:
373,169,209421,1,0,1:2:0:0:
429,29,209579,6,0,P|374:67|266:53,1,170,0|0,1:2|1:2,0:0:0:0:
132,199,210210,1,0,1:2:0:0:
107,181,210289,1,0,1:2:0:0:
77,179,210368,1,8,0:2:0:0:
130,298,210526,1,8,0:3:0:0:
244,221,210684,1,4,0:3:0:0:
316,373,210842,1,8,0:2:0:0:
349,217,211000,5,6,1:1:0:0:
288,131,211158,2,0,L|325:4,1,127.5,0|0,1:2|0:0,0:0:0:0:
391,52,211473,1,0,1:2:0:0:
172,22,211631,2,0,B|209:15|237:1|237:1|207:36|163:56,1,127.5,8|0,0:2|0:0,0:0:0:0:
122,91,211947,1,0,1:2:0:0:
41,157,212105,6,0,L|164:188,1,127.5,0|0,1:2|0:0,0:0:0:0:
223,243,212421,1,0,1:2:0:0:
409,105,212737,1,0,1:2:0:0:
402,75,212816,1,0,1:2:0:0:
395,46,212894,1,8,0:2:0:0:
487,35,213052,2,0,P|528:15|495:46,1,127.5,0|0,1:2|0:0,0:0:0:0:
501,126,213368,6,0,L|481:184,1,42.5,8|0,0:2|0:0,0:0:0:0:
499,263,213526,1,2,1:2:0:0:
499,263,213684,2,0,P|473:219|392:215,1,127.5,0|0,1:2|0:0,0:0:0:0:
355,265,214000,1,0,1:2:0:0:
368,352,214158,2,0,B|389:354|412:343|412:343|389:389|315:378,1,127.5,8|0,0:2|0:0,0:0:0:0:
271,345,214473,1,0,1:2:0:0:
190,229,214631,6,0,P|209:173|206:83,1,127.5,0|0,1:2|0:0,0:0:0:0:
164,52,214947,1,0,1:2:0:0:
422,183,215263,1,0,1:2:0:0:
448,196,215342,1,0,1:2:0:0:
473,210,215421,1,8,0:2:0:0:
370,289,215579,1,8,0:3:0:0:
118,157,215894,5,8,0:2:0:0:
65,78,216052,2,0,L|50:127,1,42.5,6|0,1:1|0:0,0:0:0:0:
127,168,216210,2,0,P|179:129|261:136,1,127.5,0|0,1:2|0:0,0:0:0:0:
298,190,216526,1,0,1:2:0:0:
380,42,216684,2,0,B|397:1|453:6|453:6|400:55,1,127.5,8|0,0:2|0:0,0:0:0:0:
457,116,217000,1,0,1:2:0:0:
277,31,217158,6,0,L|121:11,1,127.5,0|0,1:2|0:0,0:0:0:0:
84,43,217473,1,0,1:2:0:0:
355,96,217789,1,0,1:2:0:0:
373,119,217868,1,0,1:2:0:0:
362,146,217947,1,8,0:2:0:0:
242,242,218105,1,0,1:2:0:0:
107,186,218263,6,0,P|126:169|156:164,1,42.5,0|0,1:2|0:0,0:0:0:0:
154,82,218421,2,0,P|180:83|205:101,1,42.5,8|0,0:2|0:0,0:0:0:0:
260,152,218579,5,0,1:2:0:0:
265,165,218737,1,0,1:2:0:0:
430,251,218894,1,8,0:2:0:0:
512,96,219052,1,0,1:2:0:0:
373,0,219210,5,0,0:2:0:0:
314,71,219368,1,8,0:3:0:0:
364,125,219526,1,8,0:3:0:0:
445,247,219684,6,0,B|467:239|467:239|425:229|385:212|385:212|350:219,1,127.5,6|0,1:1|0:0,0:0:0:0:
297,273,220000,1,8,0:3:0:0:
282,299,220079,1,8,0:3:0:0:
270,327,220158,1,8,0:3:0:0:
88,357,220316,5,4,0:3:0:0:
88,357,220394,1,4,0:3:0:0:
88,357,220473,1,8,0:2:0:0:
3,263,220631,1,0,1:2:0:0:
195,89,220789,5,8,0:3:0:0:
221,101,220868,1,8,0:3:0:0:
250,144,220947,5,4,0:3:0:0:
276,156,221026,1,4,0:3:0:0:
317,184,221105,6,0,B|357:162|358:113|358:113|439:71|505:97|505:97|447:138|440:180|440:180|386:197|361:247|377:305|377:305|333:252|265:247|265:247|202:268|173:335|173:335|170:274|132:236|75:232|75:232|57:195|-7:173|-7:173|46:129|134:147|134:147|143:192|201:201,1,1264.80003087891,6|0,1:1|0:0,0:0:0:0:
243,98,241000,6,0,L|252:145,1,42.5,8|0,0:2|0:0,0:0:0:0:
281,334,241158,2,0,L|290:381,1,42.5,0|0,1:2|0:0,0:0:0:0:
