osu file format v14

[General]
AudioFilename: audio.mp3
AudioLeadIn: 0
PreviewTime: 47975
Countdown: 0
SampleSet: Soft
StackLeniency: 0.7
Mode: 0
LetterboxInBreaks: 0
WidescreenStoryboard: 1

[Editor]
Bookmarks: 57634,64658
DistanceSpacing: 1
BeatDivisor: 4
GridSize: 16
TimelineZoom: 1.7

[Metadata]
Title:Dakushoku Odoru Automata
TitleUnicode:濁色踊るオートマタ
Artist:Metomate
ArtistUnicode:めと
Creator:Hey lululu
Version:NOVICE
Source:SOUND VOLTEX VIVID WAVE
Tags:The 9th KAC オリジナル楽曲コンテスト Original Song Contest sdvx_v japanese rock jrock j-rock video game lu^3 Silent_rock Silent Rock
BeatmapID:3300421
BeatmapSetID:1616450

[Difficulty]
HPDrainRate:4
CircleSize:3.5
OverallDifficulty:5
ApproachRate:5.5
SliderMultiplier:0.999999999999999
SliderTickRate:1

[Events]
//Background and Video events
0,0,"BG.jpg",0,0
//Break Periods
2,84331,85201
//Storyboard Layer 0 (Background)
//Storyboard Layer 1 (Fail)
//Storyboard Layer 2 (Pass)
//Storyboard Layer 3 (Foreground)
//Storyboard Layer 4 (Overlay)
//Storyboard Sound Samples

[TimingPoints]
572,292.682926829268,4,2,1,40,1,0
7011,-100,4,2,1,70,0,0
7450,-100,4,2,1,80,0,0
17254,-100,4,2,1,70,0,0
35693,292.682926829268,3,2,2,65,1,0
42717,-100,3,2,1,65,0,0
46229,-100,3,2,1,75,0,0
48863,-100,3,2,3,75,0,0
49741,-100,3,2,1,75,0,0
50619,-100,3,2,1,80,0,0
57058,-100,3,2,3,80,0,0
57644,-100,3,2,1,80,0,0
60571,-100,3,2,3,80,0,0
60863,-100,3,2,1,80,0,0
62619,-100,3,2,3,80,0,0
62912,-100,3,2,1,80,0,0
83107,292.682926829268,4,2,1,80,1,0
83546,-100,4,2,3,80,0,0
83838,-100,4,2,1,80,0,0
107106,-100,4,2,3,80,0,0
107399,-100,4,2,1,80,0,0

[Colours]
Combo1 : 128,128,128
Combo2 : 255,128,128
Combo3 : 170,170,0
Combo4 : 128,64,0

[HitObjects]
150,335,572,6,0,P|72:351|30:294,2,150,2|2|2,0:0|0:0|0:0,0:0:0:0:
349,47,2474,2,0,L|329:-19,2,50
394,67,2913,5,2,0:0:0:0:
507,165,3352,1,2,0:0:0:0:
392,261,3791,1,2,0:0:0:0:
450,342,4084,6,0,L|311:368,1,99.9999999999999,2|2,0:0|0:0,0:0:0:0:
302,371,4523,1,2,0:0:0:0:
206,341,4815,2,0,P|176:358|147:367,2,50,2|0|2,0:0|0:0|0:0,0:0:0:0:
221,241,5401,2,0,P|211:212|205:176,1,50,2|0,0:0|0:0,0:0:0:0:
239,154,5693,2,0,B|297:139|318:77|318:77|395:81|433:45|433:45|467:191|353:259,1,450,2|0,0:0|0:0,0:0:0:0:
374,338,7303,5,8,3:2:0:0:
374,338,7450,2,0,P|335:310|267:318,1,99.9999999999999,4|0,3:2|3:2,0:0:0:0:
255,268,7889,2,0,L|148:294,1,99.9999999999999,10|2,3:2|3:2,0:0:0:0:
77,351,8474,1,10,3:2:0:0:
77,351,8620,2,0,B|45:336|35:303|35:303|57:270|73:203,1,150,2|8,3:2|3:2,0:0:0:0:
36,130,9352,2,0,B|83:123|83:123|135:67,1,99.9999999999999,2|8,0:0|3:2,0:0:0:0:
171,101,9791,1,2,3:2:0:0:
171,101,9937,6,0,P|244:35|339:73,1,200,4|0,3:2|3:2,0:0:0:0:
435,62,10815,1,8,3:2:0:0:
435,62,10962,2,0,P|414:148|401:222,1,150,6|10,3:2|1:2,0:0:0:0:
420,260,11547,1,8,1:2:0:0:
420,260,11693,2,0,P|371:268|314:297,1,99.9999999999999,10|10,1:2|1:2,0:0:0:0:
291,326,12132,6,0,B|241:341|241:341|133:280,1,150,4|8,3:2|3:2,0:0:0:0:
214,211,12864,2,0,P|200:159|194:92,1,99.9999999999999,0|10,3:2|3:2,0:0:0:0:
192,63,13303,2,0,P|156:106|62:115,1,150,2|10,3:2|3:2,0:0:0:0:
28,209,14035,2,0,L|-5:257,2,50,2|2|10,0:0|3:2|3:2,0:0:0:0:
77,200,14474,6,0,B|129:213|129:213|171:252|171:252|226:264,1,150,4|8,3:2|3:2,0:0:0:0:
278,332,15206,2,0,P|307:305|409:306,1,99.9999999999999,2|10,3:2|3:2,0:0:0:0:
393,250,15645,2,0,B|375:196|375:196|419:96,1,150,4|8,3:2|1:2,0:0:0:0:
426,65,16230,1,8,1:2:0:0:
426,65,16376,2,0,L|490:36,2,50,8|8|8,1:2|1:2|1:2,0:0:0:0:
285,107,17108,5,0,3:2:0:0:
285,107,17254,2,0,L|153:77,1,99.9999999999999,4|0,3:2|0:0,0:0:0:0:
66,174,17986,2,0,B|33:208|33:208|57:287,1,99.9999999999999,2|0,3:1|3:2,0:0:0:0:
279,367,19011,5,8,3:2:0:0:
279,367,19157,2,0,B|305:351|305:351|342:345|342:345|382:322,1,99.9999999999999,2|0,3:1|3:2,0:0:0:0:
414,307,19596,1,0,3:2:0:0:
236,227,20181,1,8,3:2:0:0:
236,227,20328,2,0,B|209:190|209:190|243:95,1,99.9999999999999,2|0,3:1|3:2,0:0:0:0:
258,43,20913,1,0,3:2:0:0:
258,43,21059,2,0,P|279:68|325:74,2,74.9999999999999,8|0|0,3:2|3:2|3:2,0:0:0:0:
160,18,21791,5,0,3:2:0:0:
160,18,21937,2,0,L|133:121,1,99.9999999999999,4|0,3:2|0:0,0:0:0:0:
93,143,22376,1,8,3:2:0:0:
93,143,22523,2,0,L|104:199,1,50,0|2,3:2|3:1,0:0:0:0:
185,248,22962,1,0,3:2:0:0:
121,324,23254,2,0,P|178:342|220:364,1,99.9999999999999,2|0,3:1|0:0,0:0:0:0:
313,349,23840,6,0,P|318:301|348:248,1,99.9999999999999,2|0,3:1|3:2,0:0:0:0:
388,237,24279,2,0,L|438:224,1,50,0|8,3:2|3:2,0:0:0:0:
471,130,24718,2,0,P|477:105|490:73,2,50,4|4|0,3:3|3:3|3:2,0:0:0:0:
332,71,25450,1,0,3:2:0:0:
332,71,25596,2,0,L|215:98,1,99.9999999999999,0|2,3:2|0:0,0:0:0:0:
200,130,26035,1,10,3:2:0:0:
200,130,26181,6,0,P|162:158|52:153,1,150,4|8,3:2|3:2,0:0:0:0:
1,237,26913,2,0,B|-17:277|-17:277|12:339,1,99.9999999999999,0|8,3:2|3:2,0:0:0:0:
47,357,27352,1,2,3:2:0:0:
139,318,27645,1,0,3:2:0:0:
139,318,27791,2,0,L|250:351,1,99.9999999999999,8|2,3:2|3:2,0:0:0:0:
311,282,28376,1,8,3:2:0:0:
311,282,28523,6,0,B|352:253|352:253|413:265,1,99.9999999999999,2|0,3:2|3:2,0:0:0:0:
449,276,28962,1,8,3:2:0:0:
492,186,29254,2,0,P|481:154|478:123,1,50,2|2,3:2|3:2,0:0:0:0:
480,87,29547,1,8,3:2:0:0:
480,87,29693,6,0,P|425:111|353:116,1,99.9999999999999,2|0,3:2|3:2,0:0:0:0:
306,89,30230,2,0,L|234:107,1,66.6666666666666,0|0,1:2|1:2,0:0:0:0:
183,72,30620,2,0,L|111:90,1,66.6666666666666,0|0,1:2|1:2,0:0:0:0:
44,178,31157,5,0,3:2:0:0:
42,177,31303,2,0,P|10:225|30:270,1,99.9999999999999,12|0,3:2|3:2,0:0:0:0:
114,312,31889,1,8,3:2:0:0:
114,312,32035,2,0,B|218:296,1,99.9999999999999,2|0,3:2|3:2,0:0:0:0:
261,283,32474,2,0,L|368:305,1,99.9999999999999,10|2,3:2|0:0,0:0:0:0:
455,330,33059,1,0,0:0:0:0:
455,330,33206,6,0,P|436:268|459:177,1,150,0|0,3:2|3:2,0:0:0:0:
462,87,33937,2,0,P|418:111|365:104,1,99.9999999999999,0|0,3:2|1:2,0:0:0:0:
323,86,34376,2,0,L|213:121,1,99.9999999999999,2|2,3:2|3:2,0:0:0:0:
194,153,34815,1,2,3:2:0:0:
104,197,35108,2,0,L|98:246,2,50,2|2|2,0:0|3:2|3:2,0:0:0:0:
46,114,35693,6,0,P|11:84|24:17,2,99.9999999999999,4|10|10,3:2|3:2|3:2,0:0:0:0:
146,118,36571,2,0,L|254:135,1,99.9999999999999,2|10,3:2|3:2,0:0:0:0:
284,164,37010,1,8,3:2:0:0:
284,164,37156,2,0,L|337:150,1,50,10|0,3:2|0:0,0:0:0:0:
375,125,37449,6,0,P|358:88|367:25,2,99.9999999999999,2|2|10,3:2|3:2|3:2,0:0:0:0:
461,175,38327,1,2,3:2:0:0:
325,239,38766,2,0,L|265:257,2,50,8|10|0,3:2|3:2|3:2,0:0:0:0:
373,251,39205,6,0,P|400:289|384:354,2,99.9999999999999,2|10|10,3:2|3:2|3:2,0:0:0:0:
428,167,40083,2,0,P|401:129|417:64,1,99.9999999999999,0|8,3:2|3:2,0:0:0:0:
407,31,40522,1,8,3:2:0:0:
407,31,40668,2,0,L|338:45,1,50,8|0,3:2|0:0,0:0:0:0:
317,70,40961,6,0,P|265:102|214:106,1,99.9999999999999,2|2,3:2|3:2,0:0:0:0:
136,64,41546,2,0,L|122:122,1,50,8|0,3:2|3:2,0:0:0:0:
85,144,41839,1,2,3:2:0:0:
175,187,42132,2,0,L|185:247,1,50,2|10,0:0|3:2,0:0:0:0:
141,264,42424,2,0,L|131:324,1,50,8|2,3:2|3:2,0:0:0:0:
152,359,42717,6,0,B|191:349|191:349|258:363|258:363|308:345,1,150,4|2,3:2|3:2,0:0:0:0:
414,255,43595,2,0,B|375:245|375:245|308:259|308:259|258:241,1,150,2|2,3:2|3:2,0:0:0:0:
119,247,44473,2,0,P|142:174|145:95,1,150,4|0,3:2|3:2,0:0:0:0:
114,62,45058,1,8,3:2:0:0:
209,33,45351,6,0,L|318:55,1,99.9999999999999,0|8,3:2|3:2,0:0:0:0:
346,83,45790,1,0,3:2:0:0:
346,83,45936,2,0,L|409:65,1,50,8|8,3:2|3:2,0:0:0:0:
439,90,46229,6,0,P|423:139|423:202,1,99.9999999999999,6|10,3:2|3:2,0:0:0:0:
494,255,46814,1,10,3:2:0:0:
400,290,47107,2,0,P|420:331|411:386,2,99.9999999999999,0|8|8,3:2|3:2|3:2,0:0:0:0:
351,277,47839,1,0,3:2:0:0:
351,277,47985,6,0,L|181:312,1,150,2|0,3:2|0:0,0:0:0:0:
63,254,48863,2,0,P|88:192|97:153,1,99.9999999999999,8|10,3:2|3:2,0:0:0:0:
68,117,49302,1,10,3:2:0:0:
68,117,49449,2,0,L|84:62,1,50,10|10,3:2|3:2,0:0:0:0:
96,24,49741,5,10,3:2:0:0:
96,24,49888,1,10,3:2:0:0:
194,37,50180,2,0,P|212:17|228:-8,2,50,10|10|0,3:2|3:2|0:0,0:0:0:0:
193,87,50619,6,0,B|183:116|153:132|153:132|137:190|183:225,1,150,4|0,3:2|3:0,0:0:0:0:
212,241,51205,1,10,3:2:0:0:
301,196,51497,2,0,P|354:187|410:165,1,99.9999999999999,0|10,3:2|3:2,0:0:0:0:
446,180,51936,2,0,P|434:232|433:292,1,99.9999999999999,2|2,3:2|3:2,0:0:0:0:
459,321,52375,5,10,3:2:0:0:
375,375,52668,1,10,3:2:0:0:
298,310,52961,1,10,3:2:0:0:
211,359,53253,2,0,P|159:344|96:330,1,99.9999999999999,2|2,3:2|1:2,0:0:0:0:
64,330,53692,1,2,1:2:0:0:
64,330,53839,2,0,L|53:267,1,50,2|2,3:2|3:2,0:0:0:0:
35,234,54132,5,4,3:2:0:0:
106,164,54424,2,0,P|118:122|129:56,1,99.9999999999999,8|8,3:2|3:2,0:0:0:0:
125,20,54863,1,2,0:2:0:0:
125,20,55010,2,0,P|189:40|229:42,1,99.9999999999999,2|2,3:2|3:2,0:0:0:0:
319,21,55595,2,0,L|367:43,1,50,10|2,3:2|3:2,0:0:0:0:
388,85,55888,6,0,P|438:54|494:51,2,99.9999999999999,10|10|10,3:2|3:2|3:2,0:0:0:0:
421,179,56766,1,0,3:2:0:0:
327,212,57058,2,0,L|298:264,2,50,10|10|10,3:2|3:2|3:2,0:0:0:0:
256,140,57644,5,4,3:2:0:0:
178,202,57936,1,0,3:2:0:0:
121,119,58229,2,0,P|135:69|146:6,2,99.9999999999999,10|2|0,3:2|3:2|3:2,0:0:0:0:
39,177,59107,2,0,P|24:198|17:228,1,50,10|0,3:2|0:0,0:0:0:0:
27,270,59400,6,0,P|53:302|112:311,1,99.9999999999999,4|8,3:2|3:2,0:0:0:0:
192,256,59985,1,0,3:2:0:0:
197,156,60278,2,0,B|185:126|185:126|220:54,2,99.9999999999999,2|8|0,3:2|3:2|3:2,0:0:0:0:
243,175,61010,1,0,3:2:0:0:
243,175,61156,6,0,L|363:155,1,99.9999999999999,4|10,3:2|3:2,0:0:0:0:
433,117,61741,1,10,3:2:0:0:
506,185,62034,1,2,3:2:0:0:
506,185,62180,2,0,P|487:233|485:294,1,99.9999999999999,2|8,3:2|3:2,0:0:0:0:
491,330,62619,2,0,L|438:351,1,50,0|0,3:2|3:2,0:0:0:0:
398,368,62912,5,8,1:2:0:0:
398,368,63058,1,8,1:2:0:0:
334,290,63351,2,0,L|350:238,2,50,10|10|10,1:2|1:2|1:2,0:0:0:0:
284,282,63790,2,0,L|219:303,1,50,2|2,1:2|1:2,0:0:0:0:
136,307,64229,2,0,L|115:363,2,50,0|10|2,3:2|0:0|0:0,0:0:0:0:
109,270,64668,5,4,3:2:0:0:
109,270,64814,2,0,B|88:251|88:251|118:174,1,99.9999999999999,0|2,3:2|3:2,0:0:0:0:
218,185,65400,1,0,3:2:0:0:
218,185,65546,2,0,P|285:200|335:128,1,150,8|0,3:2|3:2,0:0:0:0:
309,100,66132,1,0,3:2:0:0:
210,81,66424,6,0,B|170:49|170:49|83:52,1,99.9999999999999,2|2,3:2|3:2,0:0:0:0:
35,102,67010,1,2,0:0:0:0:
42,201,67302,2,0,L|66:311,1,99.9999999999999,8|2,3:2|3:2,0:0:0:0:
70,352,67741,1,2,3:2:0:0:
70,352,67888,2,0,L|133:372,1,50,2|2,0:0|0:0,0:0:0:0:
147,327,68180,6,0,P|190:285|254:290,1,99.9999999999999,4|2,3:2|3:2,0:0:0:0:
320,319,68766,1,2,3:2:0:0:
400,260,69058,2,0,P|382:213|376:160,1,99.9999999999999,10|2,3:2|3:2,0:0:0:0:
389,115,69497,1,0,3:2:0:0:
389,115,69644,2,0,L|364:54,1,50,10|2,3:2|3:2,0:0:0:0:
339,29,69936,5,10,3:2:0:0:
250,75,70229,1,10,3:2:0:0:
153,47,70522,1,10,3:2:0:0:
72,106,70814,2,0,L|101:220,1,99.9999999999999,0|8,3:2|3:2,0:0:0:0:
113,250,71253,1,2,0:0:0:0:
113,250,71400,2,0,L|166:236,1,50,2|0,3:2|3:2,0:0:0:0:
208,221,71692,5,4,3:2:0:0:
298,177,71985,1,2,3:2:0:0:
378,235,72278,2,0,L|480:213,1,99.9999999999999,2|8,3:2|3:2,0:0:0:0:
504,117,72863,1,2,0:0:0:0:
420,61,73156,2,0,L|358:79,1,50,10|0,3:2|3:2,0:0:0:0:
330,102,73449,6,0,P|285:62|227:61,2,99.9999999999999,6|10|2,3:2|3:2|3:2,0:0:0:0:
326,151,74180,1,0,3:2:0:0:
326,151,74327,2,0,P|301:208|291:263,1,99.9999999999999,2|2,3:2|3:2,0:0:0:0:
311,343,74912,1,2,3:2:0:0:
227,287,75205,6,0,P|169:269|63:275,1,150,4|2,3:2|0:0,0:0:0:0:
42,302,75790,1,2,3:2:0:0:
12,206,76083,2,0,B|-12:162|-12:162|47:45,1,150,6|10,3:2|3:2,0:0:0:0:
79,55,76668,1,10,3:2:0:0:
141,132,76961,5,8,3:2:0:0:
141,132,77107,1,8,3:2:0:0:
229,85,77400,2,0,L|215:23,2,50,10|10|10,3:2|3:2|3:2,0:0:0:0:
270,113,77839,2,0,L|337:151,1,50,2|2,3:2|3:2,0:0:0:0:
413,139,78278,2,0,L|389:197,1,50,0|2,3:2|0:0,0:0:0:0:
408,233,78571,1,2,0:0:0:0:
408,233,78717,6,0,P|338:238|272:304,1,150,6|2,3:2|3:2,0:0:0:0:
269,337,79302,1,10,3:2:0:0:
174,304,79595,2,0,P|147:352|110:370,2,74.9999999999999,14|10|10,3:2|3:2|3:2,0:0:0:0:
140,267,80180,2,0,L|130:209,1,50,2|2,3:2|3:2,0:0:0:0:
113,170,80473,1,6,3:2:0:0:
256,192,80619,12,4,84131,3:2:0:0:
191,43,86326,6,0,L|182:108,1,50,8|0,3:2|3:2,0:0:0:0:
118,167,86765,1,0,3:2:0:0:
118,167,86911,2,0,P|170:170|217:208,1,99.9999999999999,14|2,3:2|3:2,0:0:0:0:
220,245,87350,1,2,3:2:0:0:
267,333,87643,2,0,B|317:355|317:355|411:330,1,150,2|8,3:2|1:2,0:0:0:0:
478,258,88375,2,0,L|505:196,1,50,8|2,1:2|0:0,0:0:0:0:
483,169,88667,1,8,1:2:0:0:
483,169,88814,6,0,B|435:158|435:158|374:171|374:171|314:162,1,150,4|8,3:2|3:2,0:0:0:0:
252,109,89546,2,0,P|206:118|150:126,1,99.9999999999999,0|8,3:2|3:2,0:0:0:0:
103,122,89985,2,0,P|120:174|104:241,1,99.9999999999999,2|0,3:2|3:2,0:0:0:0:
79,254,90424,1,10,3:2:0:0:
148,325,90716,2,0,L|135:392,2,50,2|2|10,0:0|3:2|3:2,0:0:0:0:
193,303,91155,6,0,B|253:286|231:317|312:293,1,99.9999999999999,4|2,3:2|3:2,0:0:0:0:
378,249,91741,2,0,L|447:268,1,50,2|2,3:2|3:2,0:0:0:0:
475,272,92033,2,0,L|497:214,1,50,2|10,0:0|3:2,0:0:0:0:
462,185,92326,6,0,P|439:133|451:49,1,99.9999999999999,6|10,3:2|1:2,0:0:0:0:
415,45,92765,2,0,L|357:66,1,50,10|10,1:2|1:2,0:0:0:0:
338,102,93058,2,0,L|280:81,1,50,10|10,1:2|1:2,0:0:0:0:
243,100,93350,1,10,1:2:0:0:
243,100,93497,6,0,L|94:133,1,150,4|10,3:2|3:2,0:0:0:0:
46,218,94228,2,0,P|42:236|30:270,2,50,2|2|8,3:2|3:2|3:2,0:0:0:0:
96,221,94667,2,0,P|146:231|178:275,1,99.9999999999999,12|2,3:2|3:2,0:0:0:0:
182,317,95106,1,10,3:2:0:0:
277,287,95399,2,0,L|337:305,2,50,2|2|2,3:2|3:2|3:2,0:0:0:0:
260,239,95838,6,0,B|237:202|237:202|264:130,1,99.9999999999999,4|2,3:2|3:2,0:0:0:0:
278,103,96277,1,10,3:2:0:0:
371,137,96570,2,0,L|400:208,1,50,2|2,3:2|3:2,0:0:0:0:
431,211,96863,1,8,3:2:0:0:
431,211,97009,6,0,P|410:270|388:350,1,99.9999999999999,10|2,3:2|3:2,0:0:0:0:
340,352,97521,2,0,L|263:378,1,74.9999999999999,2|2,3:2|3:2,0:0:0:0:
208,348,97936,2,0,L|136:371,1,66.6666666666666,2|2,3:2|3:2,0:0:0:0:
52,291,98472,5,2,3:2:0:0:
52,291,98619,2,0,P|37:250|60:178,1,99.9999999999999,14|2,3:2|3:2,0:0:0:0:
135,148,99204,1,8,3:2:0:0:
135,148,99350,2,0,B|166:174|166:174|245:190,1,99.9999999999999,12|0,3:2|3:2,0:0:0:0:
273,194,99789,1,10,3:2:0:0:
360,145,100082,2,0,L|341:75,2,50,2|2|10,3:2|3:2|3:2,0:0:0:0:
407,162,100521,6,0,P|432:202|421:272,1,99.9999999999999,6|2,3:2|3:2,0:0:0:0:
406,297,100960,2,0,L|290:332,1,99.9999999999999,10|2,3:2|3:2,0:0:0:0:
218,366,101546,1,8,3:2:0:0:
218,366,101692,2,0,B|177:336|177:336|196:247,1,99.9999999999999,8|10,3:2|3:2,0:0:0:0:
213,244,102131,1,10,3:2:0:0:
271,163,102424,2,0,L|258:53,1,99.9999999999999,2|10,3:2|3:2,0:0:0:0:
217,36,102863,6,0,P|180:72|117:77,1,99.9999999999999,10|0,3:2|3:2,0:0:0:0:
85,65,103302,1,12,3:2:0:0:
16,137,103594,2,0,P|33:189|46:269,1,99.9999999999999,0|8,3:2|3:2,0:0:0:0:
46,283,104033,6,0,B|83:294|83:294|106:307|106:307|149:321,1,99.9999999999999,4|0,3:2|3:2,0:0:0:0:
221,300,104570,2,0,L|300:287,1,66.6666666666666,0|2,3:2|3:2,0:0:0:0:
339,247,104960,2,0,L|418:234,1,66.6666666666666,2|2,3:2|3:2,0:0:0:0:
471,140,105497,6,0,P|476:89|442:36,1,99.9999999999999,2|0,3:2|3:0,0:0:0:0:
408,27,105936,1,8,3:2:0:0:
326,84,106228,1,0,3:2:0:0:
326,84,106375,2,0,L|222:74,1,99.9999999999999,6|2,3:2|3:2,0:0:0:0:
176,70,106814,1,2,0:0:0:0:
96,130,107106,2,0,L|110:183,1,50,10|10,3:2|3:2,0:0:0:0:
153,201,107399,1,2,3:2:0:0:
153,201,107546,6,0,B|130:253|130:253|150:293|154:345,1,150,0|12,3:2|1:2,0:0:0:0:
218,359,108180,2,0,L|292:375,1,66.6666666666666,8|8,1:2|1:2,0:0:0:0:
328,324,108570,2,0,L|402:308,1,66.6666666666666,8|8,1:2|1:2,0:0:0:0:
451,190,109155,6,0,P|464:142|452:87,1,99.9999999999999,12|2,3:2|3:2,0:0:0:0:
426,51,109594,2,0,L|361:70,1,50,10|10,3:2|3:2,0:0:0:0:
337,94,109887,2,0,B|307:90|307:90|271:92|271:92|224:88,1,99.9999999999999,2|10,3:2|3:2,0:0:0:0:
188,78,110326,1,8,3:2:0:0:
95,116,110619,2,0,B|84:79|60:44,2,74.9999999999999,8|8|8,1:2|1:2|1:2,0:0:0:0:
112,162,111204,6,0,P|66:195|34:202,2,66.6666666666666,10|10|10,1:2|1:2|1:2,0:0:0:0:
168,197,111789,2,0,P|192:174|222:161,2,66.6666666666666,10|10|10,1:2|1:2|1:2,0:0:0:0:
140,258,112375,5,4,3:0:0:0:
193,342,112667,1,8,3:2:0:0:
285,304,112960,2,0,L|344:325,1,50,10|10,3:2|3:2,0:0:0:0:
