osu file format v14

[General]
AudioFilename: audio.mp3
AudioLeadIn: 0
PreviewTime: 47975
Countdown: 0
SampleSet: Soft
StackLeniency: 0.3
Mode: 0
LetterboxInBreaks: 0
WidescreenStoryboard: 1

[Editor]
Bookmarks: 57634,64658
DistanceSpacing: 0.4
BeatDivisor: 4
GridSize: 16
TimelineZoom: 1.7

[Metadata]
Title:Dakushoku Odoru Automata
TitleUnicode:濁色踊るオートマタ
Artist:Metomate
ArtistUnicode:めと
Creator:Hey lululu
Version:EXHAUST
Source:SOUND VOLTEX VIVID WAVE
Tags:The 9th KAC オリジナル楽曲コンテスト Original Song Contest sdvx_v japanese rock jrock j-rock video game lu^3 Silent_rock Silent Rock
BeatmapID:3303616
BeatmapSetID:1616450

[Difficulty]
HPDrainRate:5
CircleSize:3.8
OverallDifficulty:8
ApproachRate:9
SliderMultiplier:1.6
SliderTickRate:1

[Events]
//Background and Video events
0,0,"BG.jpg",0,0
//Break Periods
2,84331,85726
//Storyboard Layer 0 (Background)
//Storyboard Layer 1 (Fail)
//Storyboard Layer 2 (Pass)
//Storyboard Layer 3 (Foreground)
//Storyboard Layer 4 (Overlay)
//Storyboard Sound Samples

[TimingPoints]
572,292.682926829268,4,2,1,40,1,0
572,-200,4,2,1,40,0,0
7011,-100,4,2,1,70,0,0
7450,-100,4,2,1,80,0,0
17254,-125,4,2,1,70,0,0
26181,-100,4,2,1,70,0,0
35693,292.682926829268,3,2,2,65,1,0
35693,-125,3,2,2,65,0,0
42717,-125,3,2,1,65,0,0
46229,-100,3,2,1,75,0,0
48863,-100,3,2,3,75,0,0
49741,-100,3,2,1,75,0,0
50619,-90.9090909090909,3,2,1,80,0,0
57058,-90.9090909090909,3,2,3,80,0,0
57644,-100,3,2,1,80,0,0
58229,-90.9090909090909,3,2,1,80,0,0
58522,-100,3,2,1,80,0,0
59107,-90.9090909090909,3,2,1,80,0,0
59400,-100,3,2,1,80,0,0
60571,-100,3,2,3,80,0,0
60863,-100,3,2,1,80,0,0
62619,-100,3,2,3,80,0,0
62912,-100,3,2,1,80,0,0
64668,-90.9090909090909,3,2,1,80,0,0
71692,-100,3,2,1,80,0,0
72278,-90.9090909090909,3,2,1,80,0,0
72571,-100,3,2,1,80,0,0
75205,-90.9090909090909,3,2,1,80,0,0
83107,292.682926829268,4,2,1,80,1,0
83546,-100,4,2,3,80,0,0
83838,-100,4,2,1,80,0,0
107106,-100,4,2,3,80,0,0
107399,-100,4,2,1,80,0,0

[Colours]
Combo1 : 128,128,128
Combo2 : 255,128,128
Combo3 : 170,170,0
Combo4 : 128,64,0

[HitObjects]
366,231,572,6,0,P|426:213|491:209,2,120,2|2|2,0:0|0:0|0:0,0:0:0:0:
232,288,2475,1,0,0:0:0:0:
272,376,2621,1,0,0:0:0:0:
359,330,2767,1,0,0:0:0:0:
252,211,2913,6,0,P|214:253|138:252,2,120,2|2|2,0:0|0:0|0:0,0:0:0:0:
192,128,4084,1,2,0:0:0:0:
192,128,4376,1,2,0:0:0:0:
95,106,4523,2,0,P|78:116|64:131,1,40,2|0,0:0|0:0,0:0:0:0:
30,252,4815,5,2,0:0:0:0:
31,327,4962,1,0,0:0:0:0:
104,340,5108,1,2,0:0:0:0:
104,340,5401,5,2,0:0:0:0:
188,273,5547,1,0,0:0:0:0:
297,271,5693,1,2,0:0:0:0:
256,192,5767,12,0,6718,0:0:0:0:
189,20,7011,5,0,0:0:0:0:
189,20,7157,1,0,0:0:0:0:
140,102,7303,1,8,3:2:0:0:
279,123,7450,6,0,P|354:89|441:82,1,160,4|0,3:2|3:2,0:0:0:0:
488,175,7889,2,0,L|466:257,1,80,10|0,3:2|0:0,0:0:0:0:
451,333,8181,1,2,3:2:0:0:
375,272,8328,1,0,3:2:0:0:
257,339,8474,1,10,3:2:0:0:
132,214,8620,6,0,P|216:228|290:284,1,160,2|0,3:2|3:2,0:0:0:0:
265,166,9059,1,8,3:2:0:0:
326,104,9206,1,0,3:2:0:0:
280,0,9352,2,0,P|238:9|188:34,1,80,2|0,0:0|3:2,0:0:0:0:
129,25,9571,2,0,P|171:34|221:59,1,80,2|0,0:0|0:0,0:0:0:0:
278,88,9791,1,2,3:2:0:0:
186,125,9937,6,0,B|174:160|161:180|161:180|193:220|193:220|183:246|169:287,1,160,4|10,3:2|3:2,0:0:0:0:
33,298,10523,2,0,L|22:244,3,40,0|2|2|2,3:2|0:0|0:0|0:0,0:0:0:0:
103,247,10815,1,8,3:2:0:0:
203,267,10962,6,0,B|241:279|241:279|277:302|277:302|328:313,1,120,6|0,3:2|0:0,0:0:0:0:
375,259,11254,1,10,1:2:0:0:
292,193,11401,1,10,1:2:0:0:
456,107,11547,1,8,1:2:0:0:
400,176,11693,1,10,1:2:0:0:
318,101,11840,1,8,1:2:0:0:
197,125,11986,1,10,1:2:0:0:
197,125,12059,1,0,1:2:0:0:
197,125,12132,6,0,B|147:106|147:106|116:76|116:76|44:60,1,160,4|0,3:2|3:2,0:0:0:0:
195,28,12571,2,0,P|238:20|284:0,1,80,8|0,3:2|0:0,0:0:0:0:
368,63,12864,1,0,3:2:0:0:
394,75,12937,1,2,0:0:0:0:
411,99,13010,1,2,3:2:0:0:
413,129,13083,1,2,0:0:0:0:
400,155,13156,1,10,3:2:0:0:
310,245,13303,6,0,B|351:226|351:226|396:253|396:253|407:301,1,120,2|0,3:2|0:0,0:0:0:0:
416,349,13596,1,0,3:2:0:0:
247,302,13742,2,0,B|220:308|220:308|198:318|198:318|147:325,1,80,10|2,3:2|0:0,0:0:0:0:
160,244,14035,1,2,0:0:0:0:
73,180,14181,1,2,3:2:0:0:
229,99,14328,1,10,3:2:0:0:
131,15,14474,6,0,P|143:100|164:161,1,120,4|0,3:2|0:0,0:0:0:0:
243,185,14767,2,0,P|282:169|347:157,1,80,2|8,3:2|3:2,0:0:0:0:
427,205,15059,1,2,3:2:0:0:
427,205,15132,1,2,0:0:0:0:
427,205,15206,1,2,3:2:0:0:
360,263,15352,1,0,3:2:0:0:
450,344,15498,1,10,3:2:0:0:
254,384,15645,6,0,P|271:314|281:248,1,120,4|0,3:2|0:0,0:0:0:0:
204,223,15937,1,8,1:2:0:0:
97,270,16084,1,8,1:2:0:0:
16,201,16230,1,8,1:2:0:0:
108,286,16376,1,8,1:2:0:0:
166,139,16523,1,8,1:2:0:0:
303,184,16669,6,0,B|325:150|350:136|466:122|469:195|411:224|390:173,1,200,8|0,1:2|0:0,0:0:0:0:
384,75,17108,2,0,P|392:55|404:18,1,40,0|0,3:2|0:0,0:0:0:0:
272,0,17254,6,0,B|226:14|226:14|198:34|198:34|144:47,1,128,4|0,3:2|0:0,0:0:0:0:
14,187,17986,2,0,P|46:227|50:314,1,128,2|0,3:1|3:2,0:0:0:0:
384,195,19011,5,8,3:2:0:0:
307,124,19157,2,0,P|301:189|273:262,1,128,2|0,3:1|3:2,0:0:0:0:
280,247,19596,1,0,3:2:0:0:
124,341,20181,5,8,3:2:0:0:
24,303,20328,2,0,P|67:274|164:268,1,128,2|0,3:1|3:2,0:0:0:0:
292,329,20913,1,0,3:2:0:0:
292,329,20986,1,0,3:2:0:0:
292,329,21059,2,0,P|335:365|392:368,2,96,8|0|0,3:2|3:2|3:2,0:0:0:0:
398,107,21791,5,0,3:2:0:0:
323,74,21937,2,0,P|278:98|206:127,1,128,4|0,3:2|0:0,0:0:0:0:
320,201,22376,1,8,3:2:0:0:
267,267,22523,1,0,3:2:0:0:
365,360,22669,6,0,P|376:312|410:235,1,128,2|0,3:1|3:2,0:0:0:0:
407,239,23254,2,0,P|380:298|365:360,1,128,2|0,3:1|0:0,0:0:0:0:
256,170,23840,6,0,P|201:142|166:145,1,96,2|0,3:1|0:0,0:0:0:0:
115,199,24132,1,0,3:2:0:0:
115,199,24279,1,0,3:2:0:0:
120,60,24425,2,0,P|133:32|138:-8,1,64,8|0,3:2|0:0,0:0:0:0:
237,46,24718,1,4,3:3:0:0:
307,82,24864,1,4,3:3:0:0:
370,28,25011,6,0,L|404:6,1,32,0|0,3:2|0:0,0:0:0:0:
405,248,25450,1,0,3:2:0:0:
279,270,25596,2,0,L|333:284,1,32,0|0,3:2|0:0,0:0:0:0:
148,366,25889,5,2,0:0:0:0:
148,366,26035,1,10,3:2:0:0:
81,299,26181,2,0,P|63:241|99:149,1,160,4|0,3:2|3:2,0:0:0:0:
119,72,26620,2,0,P|157:81|201:99,1,80,8|0,3:2|0:0,0:0:0:0:
263,173,26913,1,0,3:2:0:0:
369,203,27059,1,0,3:2:0:0:
426,112,27206,1,8,3:2:0:0:
506,176,27352,6,0,P|480:215|458:314,1,120,2|0,3:2|0:0,0:0:0:0:
498,355,27645,1,0,3:2:0:0:
330,304,27791,2,0,P|298:300|325:314,1,80,8|0,3:2|0:0,0:0:0:0:
260,381,28084,1,2,3:2:0:0:
260,381,28157,1,0,3:2:0:0:
260,381,28230,1,2,3:2:0:0:
170,316,28376,1,8,3:2:0:0:
229,250,28523,6,0,P|242:185|221:79,1,160,2|0,3:2|3:2,0:0:0:0:
136,180,28962,2,0,P|118:215|83:256,1,80,8|0,3:2|0:0,0:0:0:0:
32,149,29254,1,2,3:2:0:0:
32,149,29401,1,2,3:2:0:0:
66,68,29547,1,8,3:2:0:0:
146,95,29693,6,0,P|220:75|303:44,1,160,2|0,3:2|3:2,0:0:0:0:
297,134,30230,2,0,P|269:191|255:242,1,106.666666666667,0|0,1:2|1:2,0:0:0:0:
395,208,30620,1,0,1:2:0:0:
441,288,30815,1,0,1:2:0:0:
267,347,31157,5,0,3:2:0:0:
267,347,31303,2,0,B|227:334|227:334|176:333|176:333|117:319,1,120,12|0,3:2|0:0,0:0:0:0:
72,302,31596,1,0,3:2:0:0:
211,247,31742,1,2,3:2:0:0:
131,209,31889,1,8,3:2:0:0:
225,148,32035,6,0,P|286:138|380:90,1,160,2|0,3:2|3:2,0:0:0:0:
490,19,32474,2,0,P|470:67|459:119,1,80,10|0,3:2|3:0,0:0:0:0:
512,207,32767,1,2,0:0:0:0:
512,207,32913,1,2,0:0:0:0:
277,384,33206,6,0,P|327:346|435:340,1,160,0|0,3:2|3:2,0:0:0:0:
421,336,33645,1,0,3:2:0:0:
294,242,33791,2,0,L|199:226,1,80,8|0,3:2|3:2,0:0:0:0:
126,292,34084,1,4,3:3:0:0:
51,246,34230,1,0,1:2:0:0:
135,213,34376,6,0,B|173:200|173:200|215:201|215:201|263:184,1,120,2|0,3:2|0:0,0:0:0:0:
322,150,34669,1,2,3:2:0:0:
420,195,34815,1,2,3:2:0:0:
469,140,34962,1,10,3:2:0:0:
327,172,35108,1,2,0:0:0:0:
282,47,35254,1,2,3:2:0:0:
383,0,35401,2,0,P|397:36|414:73,1,80,2|2,3:2|3:2,0:0:0:0:
215,134,35693,6,0,B|188:135|188:135|159:147|159:147|103:155,1,96,4|0,3:2|0:0,0:0:0:0:
57,189,35985,1,10,3:2:0:0:
48,204,36278,1,10,3:2:0:0:
117,263,36424,1,2,3:2:0:0:
223,220,36571,6,0,P|263:203|300:195,1,64,2|0,3:2|0:0,0:0:0:0:
340,139,36863,1,10,3:2:0:0:
423,169,37010,1,8,3:2:0:0:
505,201,37156,1,10,3:2:0:0:
249,0,37449,6,0,P|241:67|216:135,2,128,2|2|10,3:2|3:2|3:2,0:0:0:0:
326,59,38180,1,0,3:2:0:0:
347,146,38327,1,2,3:2:0:0:
210,314,38766,5,8,3:2:0:0:
145,264,38912,1,10,3:2:0:0:
41,302,39058,1,0,3:2:0:0:
0,213,39205,2,0,B|8:183|8:183|43:134|43:134|50:96,1,128,2|10,3:2|3:2,0:0:0:0:
27,16,39790,1,10,3:2:0:0:
27,16,39936,1,0,3:2:0:0:
127,58,40083,6,0,P|159:70|210:85,1,64,0|0,3:2|0:0,0:0:0:0:
261,155,40375,1,8,3:2:0:0:
310,76,40522,1,8,3:2:0:0:
435,99,40668,1,8,3:2:0:0:
499,247,40961,5,2,3:2:0:0:
317,350,41253,1,2,3:2:0:0:
164,233,41546,1,8,3:2:0:0:
124,294,41692,1,0,3:2:0:0:
197,315,41839,6,0,P|236:295|294:274,1,96,2|0,3:2|0:0,0:0:0:0:
365,274,42132,1,2,0:0:0:0:
441,183,42278,1,10,3:2:0:0:
327,143,42424,1,8,3:2:0:0:
243,215,42571,1,2,3:2:0:0:
229,197,42644,1,0,3:2:0:0:
211,191,42717,6,0,P|160:201|29:280,1,192,4|2,3:2|3:2,0:0:0:0:
2,99,43595,6,0,B|6:72|-5:6|-5:6|15:12|15:12|37:48|77:73,1,192,2|2,3:2|3:2,0:0:0:0:
155,82,44180,1,2,0:0:0:0:
189,3,44327,1,8,3:2:0:0:
264,74,44473,6,0,L|295:225,1,128,4|0,3:2|0:0,0:0:0:0:
351,268,44912,1,0,3:2:0:0:
390,200,45058,1,8,3:2:0:0:
486,228,45205,1,4,3:3:0:0:
465,314,45351,6,0,L|387:339,1,64,0|0,3:2|0:0,0:0:0:0:
328,384,45644,1,8,3:2:0:0:
279,323,45790,1,0,3:2:0:0:
178,355,45936,1,8,3:2:0:0:
130,255,46083,1,8,3:2:0:0:
0,304,46229,6,0,P|40:321|81:333,1,80,6|2,3:2|0:0,0:0:0:0:
211,232,46522,1,10,3:2:0:0:
211,232,46668,1,2,0:0:0:0:
151,159,46814,2,0,P|112:170|76:186,1,80,10|0,3:2|3:0,0:0:0:0:
165,15,47107,6,0,P|195:59|272:51,1,120,0|0,3:2|0:0,0:0:0:0:
336,93,47400,2,0,P|378:100|443:116,1,80,8|0,3:2|3:2,0:0:0:0:
359,198,47692,1,8,3:2:0:0:
357,202,47765,1,0,3:2:0:0:
356,207,47838,1,0,3:2:0:0:
355,212,47911,1,0,3:2:0:0:
353,216,47984,1,2,3:2:0:0:
179,48,48863,6,0,P|166:29|143:16,3,40,8|8|10|8,3:2|3:2|3:2|3:2,0:0:0:0:
92,119,49156,2,0,P|103:99|105:72,3,40,10|8|10|8,3:2|3:2|3:2|3:2,0:0:0:0:
162,158,49449,6,0,L|143:244,1,80,10|10,3:2|3:2,0:0:0:0:
39,267,49741,5,10,3:2:0:0:
117,384,49888,1,10,3:2:0:0:
425,284,50180,5,10,3:2:0:0:
358,219,50327,2,0,P|314:252|233:268,1,120,10|0,3:2|0:0,0:0:0:0:
197,208,50619,6,0,B|157:192|157:192|79:195|79:195|11:182,1,176.000005371094,4|8,3:2|3:2,0:0:0:0:
84,70,51058,2,0,P|58:11|103:59,1,176.000005371094,0|2,3:0|3:2,0:0:0:0:
213,20,51497,6,0,P|218:61|237:115,1,88.000002685547,0|0,3:2|3:0,0:0:0:0:
313,180,51790,1,10,3:2:0:0:
313,180,51936,1,2,3:2:0:0:
391,126,52083,1,10,3:2:0:0:
499,150,52229,1,2,3:2:0:0:
512,27,52375,6,0,P|477:42|413:53,1,88.000002685547,10|0,3:2|3:0,0:0:0:0:
447,228,52668,2,0,P|403:236|363:253,1,88.000002685547,10|0,3:2|3:0,0:0:0:0:
247,108,52961,2,0,P|232:171|208:242,1,132.00000402832,10|0,3:2|0:0,0:0:0:0:
133,265,53253,5,2,3:2:0:0:
133,265,53400,1,2,3:2:0:0:
51,197,53546,5,2,1:2:0:0:
51,197,53619,1,2,1:2:0:0:
51,197,53692,2,0,L|71:139,2,44.0000013427735,2|2|2,1:2|1:2|3:2,0:0:0:0:
165,101,53985,5,2,3:2:0:0:
165,101,54058,1,2,3:2:0:0:
165,101,54132,2,0,P|208:127|273:134,1,88.000002685547,4|0,3:2|0:0,0:0:0:0:
322,195,54424,1,8,3:2:0:0:
322,195,54571,1,2,3:2:0:0:
316,289,54717,2,0,B|267:297|267:297|204:325,1,88.000002685547,8|2,3:2|0:2,0:0:0:0:
153,354,54936,1,2,0:0:0:0:
153,354,55010,6,0,P|136:307|153:207,1,132.00000402832,2|0,3:2|0:0,0:0:0:0:
153,127,55302,2,0,P|203:159|242:174,1,88.000002685547,2|0,3:2|3:0,0:0:0:0:
307,98,55595,1,10,3:2:0:0:
307,98,55741,1,2,3:2:0:0:
379,150,55888,5,10,3:2:0:0:
191,242,56180,1,10,3:2:0:0:
188,25,56473,1,10,3:2:0:0:
49,74,56692,5,8,3:2:0:0:
49,74,56766,2,0,P|35:114|9:167,1,88.000002685547,0|0,3:2|3:2,0:0:0:0:
54,249,57058,1,10,3:2:0:0:
64,252,57131,1,10,3:2:0:0:
74,256,57204,1,10,3:2:0:0:
85,259,57277,1,8,3:2:0:0:
95,263,57351,2,0,L|163:246,3,44.0000013427735,10|10|10|8,3:2|3:2|3:2|3:2,0:0:0:0:
196,184,57644,6,0,P|268:192|342:242,1,160,4|0,3:2|3:2,0:0:0:0:
384,314,58083,1,0,3:2:0:0:
512,266,58229,2,0,P|466:202|461:115,1,132.00000402832,10|0,3:2|0:0,0:0:0:0:
471,47,58522,6,0,B|427:63|427:63|377:104|377:104|323:127,1,160,2|0,3:2|3:2,0:0:0:0:
333,207,58961,1,0,3:2:0:0:
250,78,59107,2,0,P|241:133|201:219,1,132.00000402832,10|0,3:2|0:0,0:0:0:0:
152,255,59400,5,4,3:2:0:0:
80,189,59546,1,0,3:2:0:0:
31,284,59692,2,0,P|10:347|-4:383,1,80,8|0,3:2|0:0,0:0:0:0:
122,372,59985,2,0,L|109:326,3,40,0|0|0|0,3:2|3:2|3:2|3:2,0:0:0:0:
192,339,60278,5,2,3:2:0:0:
314,174,60571,2,0,L|332:213,3,40,8|8|8|8,3:2|3:2|3:2|3:2,0:0:0:0:
250,118,60863,1,0,3:2:0:0:
240,120,60936,1,0,3:2:0:0:
230,123,61009,1,0,3:2:0:0:
221,126,61082,1,0,3:2:0:0:
211,128,61155,5,4,3:2:0:0:
340,5,61449,2,0,P|352:52|375:92,1,80,10|2,3:2|3:2,0:0:0:0:
452,151,61741,1,10,3:2:0:0:
353,193,61888,1,2,0:0:0:0:
448,296,62034,5,2,3:2:0:0:
448,296,62180,2,0,P|394:276|282:278,1,160,2|8,3:2|3:2,0:0:0:0:
204,319,62546,1,0,3:0:0:0:
194,308,62619,2,0,L|206:269,3,40,0|0|0|0,3:2|3:2|3:2|3:2,0:0:0:0:
129,233,62912,5,8,1:2:0:0:
15,276,63058,1,8,1:2:0:0:
108,59,63351,5,10,1:2:0:0:
204,116,63497,1,10,1:2:0:0:
219,13,63644,1,10,1:2:0:0:
303,136,63790,6,0,P|292:182|282:237,1,80,2|2,1:2|1:2,0:0:0:0:
400,224,64083,5,0,3:2:0:0:
402,233,64156,1,0,3:2:0:0:
405,243,64229,1,0,3:2:0:0:
408,252,64302,1,0,3:2:0:0:
410,262,64375,6,0,L|454:281,3,40,10|2|2|2,0:0|0:0|0:0|0:0,0:0:0:0:
344,310,64668,5,4,3:2:0:0:
259,354,64814,2,0,P|194:343|100:313,1,132.00000402832,0|0,3:2|0:0,0:0:0:0:
4,348,65107,2,0,P|33:308|48:260,1,88.000002685547,2|0,3:2|0:0,0:0:0:0:
21,156,65400,1,0,3:2:0:0:
21,156,65473,1,0,3:2:0:0:
21,156,65546,6,0,P|69:171|106:189,1,88.000002685547,8|0,3:2|3:2,0:0:0:0:
161,112,65839,1,2,0:0:0:0:
243,183,65985,1,0,3:2:0:0:
347,146,66132,1,0,3:2:0:0:
347,146,66278,1,0,3:2:0:0:
367,251,66424,6,0,P|408:301|516:295,1,176.000005371094,2|2,3:2|3:2,0:0:0:0:
291,296,66863,2,0,B|239:312|239:312|192:348|192:348|117:378,1,176.000005371094,0|0,3:2|3:2,0:0:0:0:
141,281,67229,1,0,3:2:0:0:
149,265,67302,5,8,3:2:0:0:
225,196,67449,1,2,3:2:0:0:
143,108,67595,1,2,3:2:0:0:
132,111,67668,1,2,3:2:0:0:
122,114,67741,1,2,3:2:0:0:
111,118,67814,1,2,3:2:0:0:
101,121,67888,2,0,L|47:110,3,44.0000013427735,2|2|2|2,0:0|0:0|0:0|0:0,0:0:0:0:
147,189,68180,6,0,P|220:148|311:138,1,176.000005371094,4|2,3:2|3:2,0:0:0:0:
376,212,68619,1,2,3:2:0:0:
353,62,68766,2,0,P|420:86|501:104,1,132.00000402832,2|0,3:2|0:0,0:0:0:0:
512,170,69058,5,10,3:2:0:0:
480,276,69205,1,2,3:2:0:0:
342,293,69351,2,0,P|280:262|253:250,1,88.000002685547,2|0,3:2|3:2,0:0:0:0:
157,241,69644,2,0,P|147:317|105:390,1,132.00000402832,10|0,3:2|0:0,0:0:0:0:
48,345,69936,6,0,L|22:291,1,44.0000013427735,10|0,3:2|0:0,0:0:0:0:
245,238,70229,2,0,L|270:196,1,44.0000013427735,10|0,3:2|0:0,0:0:0:0:
365,384,70522,2,0,P|425:351|482:337,1,88.000002685547,10|0,3:2|0:0,0:0:0:0:
446,272,70741,1,8,3:2:0:0:
420,262,70814,6,0,P|405:229|418:170,1,88.000002685547,0|0,3:2|3:2,0:0:0:0:
465,95,71107,1,8,3:2:0:0:
379,36,71253,1,2,0:0:0:0:
379,36,71327,1,2,0:0:0:0:
379,36,71400,2,0,L|351:86,3,44.0000013427735,2|0|0|0,3:2|3:2|3:2|3:2,0:0:0:0:
275,107,71692,6,0,P|228:87|140:84,1,120,4|0,3:2|0:0,0:0:0:0:
151,170,71985,2,0,P|132:212|108:248,1,80,2|0,3:2|3:2,0:0:0:0:
194,356,72278,2,0,P|222:291|259:232,1,132.00000402832,2|0,3:2|0:0,0:0:0:0:
366,220,72571,6,0,B|419:234|419:234|462:264|462:264|541:286,1,160,8|2,3:2|0:0,0:0:0:0:
404,326,73010,1,0,3:2:0:0:
404,326,73083,1,0,3:2:0:0:
404,326,73156,1,10,3:2:0:0:
309,289,73302,1,0,3:2:0:0:
228,362,73449,5,6,3:2:0:0:
228,362,73595,1,0,0:0:0:0:
174,254,73741,1,10,3:2:0:0:
22,296,73888,1,8,3:2:0:0:
63,169,74034,6,0,P|73:148|86:115,3,40,2|0|0|0,3:2|3:0|3:2|0:0,0:0:0:0:
157,150,74327,2,0,L|264:192,1,80,2|0,3:2|0:0,0:0:0:0:
309,233,74619,1,2,3:2:0:0:
309,233,74766,1,0,3:2:0:0:
387,173,74912,2,0,B|419:142|419:142|458:140,1,80,2|0,3:2|0:0,0:0:0:0:
506,203,75132,1,8,3:2:0:0:
494,220,75205,6,0,L|464:339,1,88.000002685547,4|0,3:2|0:0,0:0:0:0:
358,358,75497,1,8,3:2:0:0:
252,294,75644,1,2,0:0:0:0:
327,233,75790,2,0,P|359:256|407:275,1,88.000002685547,2|2,3:2|3:2,0:0:0:0:
268,145,76083,5,6,3:2:0:0:
268,145,76229,1,2,3:2:0:0:
326,78,76375,1,8,3:2:0:0:
456,127,76522,1,10,3:2:0:0:
498,23,76668,2,0,L|385:68,1,88.000002685547,10|2,3:2|3:2,0:0:0:0:
286,0,76961,5,8,3:2:0:0:
219,48,77107,1,8,3:2:0:0:
28,141,77400,5,10,3:2:0:0:
136,192,77546,1,10,3:2:0:0:
40,250,77692,1,10,3:2:0:0:
141,336,77839,6,0,P|186:351|237:352,1,88.000002685547,2|2,3:2|3:2,0:0:0:0:
333,294,78132,5,8,3:2:0:0:
342,297,78205,1,0,3:2:0:0:
351,301,78278,1,0,3:2:0:0:
360,305,78351,1,0,3:2:0:0:
370,308,78425,6,0,L|391:267,3,44.0000013427735,2|2|2|2,0:0|0:0|0:0|0:0,0:0:0:0:
461,242,78717,5,6,3:2:0:0:
355,190,78863,2,0,P|337:124|358:43,1,132.00000402832,2|0,3:2|0:0,0:0:0:0:
404,13,79156,1,2,3:2:0:0:
265,80,79302,1,10,3:2:0:0:
178,30,79449,1,2,3:2:0:0:
89,88,79595,6,0,P|67:164|40:218,2,132.00000402832,14|10|10,3:2|3:2|3:2,0:0:0:0:
163,152,80180,1,2,3:2:0:0:
165,162,80253,1,2,3:2:0:0:
168,173,80326,1,2,3:2:0:0:
171,184,80399,1,0,3:2:0:0:
173,194,80472,5,6,3:2:0:0:
289,150,80619,2,0,P|373:178|464:192,1,176.000005371094,0|0,3:2|0:0,0:0:0:0:
497,300,80985,1,0,3:0:0:0:
497,300,81058,2,0,P|456:285|403:270,1,88.000002685547,0|0,3:2|0:0,0:0:0:0:
326,270,81278,1,8,3:2:0:0:
313,277,81351,5,2,3:2:0:0:
246,338,81497,1,0,3:2:0:0:
196,229,81644,1,8,3:2:0:0:
75,318,81790,1,8,3:2:0:0:
29,194,81936,2,0,L|47:144,3,44.0000013427735,2|2|2|2,3:2|0:0|3:2|3:2,0:0:0:0:
123,125,82229,6,0,P|167:114|214:89,1,88.000002685547,0|0,3:2|3:2,0:0:0:0:
268,34,82522,1,2,3:2:0:0:
268,34,82668,1,2,3:2:0:0:
311,114,82814,1,10,3:2:0:0:
410,70,82961,1,8,3:2:0:0:
464,169,83107,6,0,P|469:226|492:305,1,120,8|8,3:2|3:2,0:0:0:0:
312,262,83546,1,8,3:2:0:0:
302,265,83619,1,8,3:2:0:0:
293,268,83692,1,8,3:2:0:0:
283,272,83765,1,8,3:2:0:0:
274,275,83838,6,0,L|261:308,6,20
206,223,84131,5,4,3:2:0:0:
132,102,86326,5,8,3:2:0:0:
132,102,86399,1,0,3:2:0:0:
132,102,86472,1,0,3:2:0:0:
299,41,86765,5,0,3:2:0:0:
400,34,86911,2,0,P|379:82|338:148,1,120,14|0,3:2|0:0,0:0:0:0:
389,210,87204,2,0,L|439:233,3,40,2|2|2|2,3:2|0:0|3:2|0:0,0:0:0:0:
346,277,87497,1,8,3:2:0:0:
219,256,87643,6,0,B|183:261|183:261|141:286|141:286|79:301,1,120,2|0,3:2|0:0,0:0:0:0:
0,198,87936,1,8,1:2:0:0:
77,156,88082,2,0,L|189:182,1,80,8|2,1:2|0:0,0:0:0:0:
236,124,88375,2,0,L|348:98,1,80,8|2,1:2|0:0,0:0:0:0:
392,180,88667,1,8,1:2:0:0:
482,228,88814,6,0,P|483:308|517:404,1,160,4|0,3:2|3:2,0:0:0:0:
359,381,89253,2,0,P|360:338|344:288,1,80,8|0,3:2|0:0,0:0:0:0:
252,282,89546,2,0,P|241:260|251:212,3,40,0|2|2|2,3:2|0:0|3:2|0:0,0:0:0:0:
323,233,89838,1,8,3:2:0:0:
391,161,89985,6,0,B|419:124|419:124|294:105,1,160,2|0,3:2|3:2,0:0:0:0:
213,35,90424,2,0,B|206:59|206:59|218:96|218:96|203:131,1,80,10|0,3:2|3:2,0:0:0:0:
145,180,90716,1,2,0:0:0:0:
49,223,90863,1,2,3:2:0:0:
19,125,91009,1,10,3:2:0:0:
161,190,91155,6,0,B|192:162|192:162|243:150|262:207,1,120,4|0,3:2|0:0,0:0:0:0:
223,268,91448,2,0,L|205:354,1,80,2|8,3:2|3:2,0:0:0:0:
353,350,91741,1,2,3:2:0:0:
365,339,91814,1,2,3:2:0:0:
364,323,91887,1,2,3:2:0:0:
328,243,92033,1,2,0:0:0:0:
404,186,92180,1,10,3:2:0:0:
304,115,92326,6,0,B|288:103|288:103|204:123|204:123|173:160,1,120,6|0,3:2|0:0,0:0:0:0:
153,205,92619,1,10,1:2:0:0:
83,247,92765,1,10,1:2:0:0:
0,253,92911,1,10,1:2:0:0:
84,260,93058,1,10,1:2:0:0:
153,332,93204,1,10,1:2:0:0:
238,244,93350,1,10,1:2:0:0:
344,330,93497,6,0,B|377:336|377:336|420:376|420:376|450:385,1,120,4|0,3:2|0:0,0:0:0:0:
501,326,93789,2,0,L|514:284,2,40,2|2|10,3:2|3:2|3:2,0:0:0:0:
512,340,94082,1,0,3:2:0:0:
424,277,94228,1,2,3:2:0:0:
512,183,94375,1,2,3:2:0:0:
401,113,94521,1,8,3:2:0:0:
401,113,94594,1,8,3:2:0:0:
401,113,94667,6,0,P|319:130|215:149,1,160,12|2,3:2|3:2,0:0:0:0:
189,47,95106,2,0,P|152:58|111:62,1,80,10|0,3:2|3:2,0:0:0:0:
245,157,95399,1,2,3:2:0:0:
127,233,95546,1,2,3:2:0:0:
260,309,95692,1,2,3:2:0:0:
260,309,95765,1,8,3:2:0:0:
260,309,95838,6,0,P|182:341|92:353,1,160,4|2,3:2|3:2,0:0:0:0:
129,241,96277,2,0,P|148:201|159:153,1,80,10|0,3:2|3:2,0:0:0:0:
285,183,96570,1,2,3:2:0:0:
285,183,96643,2,0,P|297:201|302:227,2,40,2|2|2,0:0|3:2|0:0,0:0:0:0:
374,274,96863,5,8,3:2:0:0:
374,274,96936,1,8,3:2:0:0:
374,274,97009,2,0,B|410:200|410:200|501:231,1,160,10|2,3:2|3:2,0:0:0:0:
512,154,97521,2,0,P|497:93|511:31,1,120,2|2,3:2|3:2,0:0:0:0:
412,13,97936,1,2,3:2:0:0:
326,59,98131,1,2,3:2:0:0:
142,173,98472,5,2,3:2:0:0:
142,173,98546,1,2,0:0:0:0:
142,173,98619,1,14,3:2:0:0:
231,236,98765,1,2,3:2:0:0:
231,236,98911,1,2,3:2:0:0:
113,309,99058,1,2,3:2:0:0:
228,379,99204,1,8,3:2:0:0:
228,379,99277,1,8,3:2:0:0:
228,379,99350,6,0,P|253:339|375:311,1,160,12|0,3:2|3:2,0:0:0:0:
428,340,99789,1,10,3:2:0:0:
428,340,99936,1,2,3:2:0:0:
507,257,100082,1,2,3:2:0:0:
507,257,100155,1,0,3:2:0:0:
507,257,100228,1,2,3:2:0:0:
424,217,100375,1,10,3:2:0:0:
328,228,100521,6,0,P|342:171|337:61,1,160,6|2,3:2|3:2,0:0:0:0:
257,125,100960,2,0,P|247:160|215:195,1,80,10|0,3:2|3:2,0:0:0:0:
113,185,101253,1,2,3:2:0:0:
113,185,101326,2,0,L|87:124,2,40,2|2|0,0:0|3:2|0:0,0:0:0:0:
69,252,101546,5,8,3:2:0:0:
69,252,101619,1,8,3:2:0:0:
69,252,101692,1,8,3:2:0:0:
308,171,101985,1,10,3:2:0:0:
380,214,102131,1,10,3:2:0:0:
425,127,102277,1,10,3:2:0:0:
509,181,102424,5,2,3:2:0:0:
509,181,102497,1,0,3:2:0:0:
509,181,102570,2,0,L|493:240,3,40,0|0|10|8,3:2|3:2|3:2|3:2,0:0:0:0:
469,290,102863,6,0,P|381:295|294:339,1,160,10|0,3:2|3:2,0:0:0:0:
249,384,103228,1,0,3:2:0:0:
249,384,103302,1,12,3:2:0:0:
53,223,103594,2,0,P|77:155|77:54,1,160,0|8,3:2|3:2,0:0:0:0:
166,100,104033,6,0,P|233:127|329:137,1,160,4|0,3:2|3:2,0:0:0:0:
195,223,104570,2,0,P|159:262|141:312,1,106.666666666667,0|2,3:2|3:2,0:0:0:0:
305,237,104960,1,2,3:2:0:0:
344,328,105155,1,2,3:2:0:0:
500,79,105497,5,2,3:2:0:0:
500,79,105643,2,0,P|487:161|464:213,1,120,2|0,3:2|0:0,0:0:0:0:
421,260,105936,1,8,3:2:0:0:
361,166,106082,1,0,3:2:0:0:
232,221,106228,1,0,3:2:0:0:
198,129,106375,6,0,P|129:108|15:95,1,160,6|2,3:2|3:2,0:0:0:0:
62,179,106741,1,2,0:0:0:0:
62,179,106814,2,0,P|72:222|79:264,1,80,2|2,0:0|3:2,0:0:0:0:
57,334,107106,1,10,3:2:0:0:
162,261,107253,1,10,3:2:0:0:
162,261,107326,1,8,3:2:0:0:
162,261,107399,2,0,L|172:316,7,40,2|0|0|0|0|0|0|0,3:2|3:2|3:2|3:2|3:2|3:2|3:2|3:2,0:0:0:0:
264,362,107985,6,0,P|302:331|367:309,1,106.666666666667,12|8,1:2|1:2,0:0:0:0:
358,231,108375,1,8,1:2:0:0:
494,276,108570,1,8,1:2:0:0:
512,128,108765,1,8,1:2:0:0:
264,0,109155,6,0,B|235:-11|235:-11|175:26|175:26|184:73,1,120,12|0,3:2|0:0,0:0:0:0:
242,103,109448,1,2,3:2:0:0:
329,65,109594,1,10,3:2:0:0:
424,151,109741,1,10,3:2:0:0:
283,187,109887,6,0,L|136:223,1,120,2|0,3:2|0:0,0:0:0:0:
114,266,110180,1,10,3:2:0:0:
23,199,110326,2,0,P|12:241|0:276,1,80,8|10,3:2|3:2,0:0:0:0:
30,355,110546,1,10,3:2:0:0:
16,364,110619,2,0,B|52:356|52:356|104:361|104:361|162:348,2,120,8|8|8,1:2|1:2|1:2,0:0:0:0:
114,266,111204,6,0,P|134:215|124:160,2,106.666666666667,10|10|10,1:2|1:2|1:2,0:0:0:0:
270,283,111789,2,0,P|250:331|257:384,2,106.666666666667,10|10|10,1:2|1:2|1:2,0:0:0:0:
365,219,112375,6,0,L|410:198,3,40,4|4|4|4,3:0|3:0|3:0|3:0,0:0:0:0:
475,243,112667,2,0,L|520:264,3,40,8|8|8|0,3:2|3:2|3:2|3:2,0:0:0:0:
492,336,112960,1,10,3:2:0:0:
379,374,113106,1,10,3:2:0:0:
